<?xml version="1.0" standalone="no"?>
<!DOCTYPE svg PUBLIC "-//W3C//DTD SVG 1.1//EN" "http://www.w3.org/Graphics/SVG/1.1/DTD/svg11.dtd" >
<svg xmlns="http://www.w3.org/2000/svg">
<metadata>
This is a custom SVG webfont generated by Font Squirrel.
Copyright   : Copyright c SIL International 20032008
Designer    : J Victor Gaultney and Annie Olsen
Foundry     : SIL International
Foundry URL : httpscriptssilorg
</metadata>
<defs>
<font id="webfontgoWKMCec" horiz-adv-x="921" >
<font-face units-per-em="2048" ascent="1638" descent="-410" />
<missing-glyph horiz-adv-x="409" />
<glyph unicode=" "  horiz-adv-x="409" />
<glyph unicode="&#x09;" horiz-adv-x="409" />
<glyph unicode="&#xa0;" horiz-adv-x="409" />
<glyph unicode="!" horiz-adv-x="409" d="M51 68q0 31 12 61q16 41 31 57q25 29 47 43q25 16 60 17q37 0 59.5 -26.5t22.5 -67.5q0 -27 -11 -64q-6 -23 -30 -59q-16 -23 -45 -43q-25 -16 -62 -17q-41 0 -61 27q-23 29 -23 72zM152 371l86 970l34 25q8 6 23.5 14.5t21.5 12.5q25 16 48 26q16 8 45 17l36 -25 l-196 -1022q-14 -10 -35 -22q-8 -4 -39 -17z" />
<glyph unicode="&#x22;" horiz-adv-x="790" d="M231 858l33 524q6 2 13.5 5.5l15.5 7.5q4 2 15 7t18 7l32 12l25 9l37 -21l-115 -535q-18 -10 -35 -12q-25 -4 -39 -4zM557 858l33 524q6 2 13 5.5l15 7.5q4 2 15.5 7t17.5 7l33 12l25 9l36 -21l-114 -535q-16 -10 -33 -12q-25 -4 -41 -4z" />
<glyph unicode="#" horiz-adv-x="821" d="M55 500q2 4 8.5 19.5l10.5 25.5l22 45h154l94 256h-137l-19 24q2 4 8.5 20.5t10.5 27.5q14 29 22 43h158l109 290q22 15 43 25q6 2 22.5 8t22.5 8l22 -22l-114 -309h176l106 290q18 12 45 25q8 2 22.5 8t20.5 8l23 -22l-115 -309h141l19 -25q-18 -43 -21 -47l-20 -43 h-162l-94 -256h145l19 -27l-19 -45l-20 -43h-168l-113 -305q-16 -14 -41 -25l-49 -18l-20 20l120 328h-176l-112 -305q-16 -14 -41 -25l-49 -18l-23 20l123 328h-135zM354 590h176l95 256h-176z" />
<glyph unicode="$" horiz-adv-x="821" d="M-16 109q0 10 12 32q23 39 27 45q18 25 34 39q20 16 30.5 16.5t27.5 -22.5q2 -4 43 -49q18 -20 61 -49q37 -25 88 -31l72 508l-25 12q-53 25 -104 66q-47 37 -70 67q-25 33 -37 72q-10 31 -10 70q0 55 25 110q25 57 67 103q41 43 107 80q63 35 137 47l14 112 q6 4 12.5 7.5t8.5 5.5q4 2 5 3q1 2 3 3q2 2 5 2q3 2 5 2q4 2 21 6l20 -23l-14 -112q66 0 135 -27q57 -23 109 -59q4 0 3 -8.5t-8 -16.5q-23 -35 -28 -41q-4 -6 -16.5 -21.5t-18.5 -21.5q-16 -16 -29 -24l-28 4q-23 31 -60 61.5t-76 44.5l-55 -391q84 -47 119 -69 q51 -35 82 -72q35 -41 47 -78q14 -41 14 -94q0 -72 -28 -146q-27 -68 -78 -129q-45 -53 -119 -100q-63 -41 -141 -59l-19 -121q-10 -10 -14 -13q-2 -2 -6 -4t-6 -4t-7.5 -4t-7.5 -2q-12 -4 -18 -4l-21 21l17 116h-15h-14q-35 0 -84 13q-37 10 -92 32q-39 16 -72 43 q-30 25 -30 52zM250 950q0 -16 6 -39q6 -25 23 -43q27 -31 47 -47q31 -25 77 -51l52 363q-49 -4 -84 -20.5t-66 -45.5q-25 -20 -41 -55q-14 -29 -14 -62zM387 94q45 8 90 33q41 23 72 55q27 29 47 74q18 40 18 86q0 35 -8 59q-10 31 -28 56q-23 31 -50 51q-35 29 -75 51z " />
<glyph unicode="%" horiz-adv-x="1314" d="M104 0l963 1188q23 14 63 29q12 4 35 11t31 9l25 -33l-965 -1188q-16 -10 -27 -14q-6 -2 -18 -7t-18 -7q-20 -6 -39 -13l-31 -10zM111 829q0 39 10 91q9 46 30.5 92t49.5 86q29 41 65 71q35 29 78 47.5t92 18.5q47 0 86 -21q43 -23 65.5 -57.5t39.5 -85.5q14 -45 14 -106 q0 -39 -10 -91q-9 -46 -30.5 -92t-49.5 -86q-31 -45 -64 -71q-37 -31 -79.5 -49.5t-92.5 -18.5q-51 0 -86 21q-37 20 -63 57q-23 31 -41 88q-14 45 -14 106zM246 803q0 -83 30 -123q31 -41 76 -41q29 0 51.5 18.5t40.5 47.5q14 20 29 65q12 37 19 74q8 49 10 71q4 45 4 60 q0 92 -31 135t-76 43q-35 0 -55 -18q-18 -16 -39 -50q-14 -25 -29 -69q-12 -41 -18 -78q-4 -29 -8 -74q-4 -49 -4 -61zM682 242q0 39 10 90q9 46 30.5 92t49.5 86q27 39 63.5 69.5t79.5 49t91 18.5q49 0 88 -20.5t63 -57.5q27 -39 41 -86q14 -45 14 -106q0 -66 -24 -137 q-27 -78 -66 -134q-39 -53 -102 -98q-57 -39 -133 -39q-51 0 -86 21q-37 20 -64 57q-25 33 -41 86q-14 46 -14 109zM817 215q0 -84 29 -125q27 -39 76 -39q33 0 53 19q18 14 39 47q14 20 28 65q12 37 19 74q8 49 10 72q4 45 4 59q0 92 -30.5 135t-73.5 43q-33 0 -53.5 -18.5 t-40.5 -50.5q-16 -27 -29 -68q-12 -43 -19 -78q-8 -57 -10 -74q-2 -24 -2 -61z" />
<glyph unicode="&#x26;" horiz-adv-x="1189" d="M68 362q6 53 34 115q25 53 72 113q45 57 105 108q86 74 133 105q-16 59 -23 137q-6 63 4 133q14 92 43 150q35 72 82 120q47 51 105 78q61 29 118 29q59 0 95 -20q37 -20 57 -58q20 -35 27 -82q6 -39 -2 -96q-16 -104 -92 -192.5t-193 -163.5l-70 -43q18 -57 55 -133 q41 -86 66 -130q49 -86 76 -124q57 -84 78 -111q35 51 53 92q12 27 27 92q6 49 0 88q-6 41 -25 72t-41.5 47.5t-50.5 16.5l-17 28q18 18 33 29q18 12 41 22h399l17 -36q-16 -20 -51 -52l-49 -37q-20 12 -35 17q-8 2 -20.5 6l-18.5 6q-16 4 -41 8q-29 4 -35 4l10 -34 q4 -25 4 -39v-45q-2 -23 -6 -60q-8 -66 -47 -145q-41 -84 -94 -150l47 -53q29 -33 43 -47q35 -35 70 -43q43 -10 92 4l2 -43q-115 -49 -139 -57q-55 -18 -76 -19q-18 0 -62 37q-25 23 -96 105q-72 -59 -170 -103q-90 -39 -199 -39q-86 0 -151 27q-68 27 -113 76 q-47 51 -65 123q-18 73 -6 167zM215 383q-8 -70 6 -125q14 -53 49 -94q31 -37 80 -60q43 -20 96 -20q80 0 148 25q70 25 127 67q-35 47 -80 115q-33 51 -76 129q-25 45 -69 139q-23 47 -56 146q-55 -43 -94 -82q-45 -45 -67 -78q-28 -40 -43 -80q-15 -37 -21 -82zM514 1010 q6 -65 25 -129q51 31 110 77q49 39 74 70q28 34 43 68q12 29 20 65q6 41 5 70q-4 35 -15 57q-12 27 -37 41q-23 14 -61 14q-35 0 -64 -18q-28 -18 -49 -49q-20 -31 -33 -68q-8 -29 -16 -78q-8 -52 -2 -120z" />
<glyph unicode="'" horiz-adv-x="409" d="M231 858l33 524q6 2 13.5 5.5l15.5 7.5q6 2 16 7t14.5 7t16.5 6t16 6q10 4 27 9l37 -21l-115 -535q-18 -10 -35 -12q-25 -4 -39 -4z" />
<glyph unicode="(" horiz-adv-x="602" d="M109 332q-6 143 16 309q20 147 74 317q47 143 123 279q76 131 163 223q90 94 197 144l23 -45q-76 -55 -134 -132q-74 -100 -122 -198q-55 -113 -99 -256q-45 -147 -65 -301q-18 -127 -19 -287q0 -135 23 -264q23 -125 61 -225q40 -101 99 -166l-37 -45q-90 47 -158 145 q-66 96 -102 223q-37 125 -43 279z" />
<glyph unicode=")" horiz-adv-x="602" d="M-82 -270q76 55 133 129q74 96 123 192q61 123 100 248q45 143 66 299q18 123 18 289q0 137 -22 272q-20 125 -62 232q-39 102 -98 168l37 45q90 -47 158 -150q63 -96 100 -229t43 -285q6 -160 -14 -313q-20 -162 -74 -314q-55 -160 -123 -272q-78 -127 -164 -215 q-92 -92 -196 -141z" />
<glyph unicode="*" horiz-adv-x="724" d="M-6 950l6 43l322 140l-263 129q2 4 3 14t1 14l7 31l8 31q4 18 8 24l37 23l233 -211l11 325l24 13q6 2 12.5 6t14.5 8q20 8 28.5 12t24.5 9l33 -21l-88 -352l270 196l21 -16q10 -8 22 -16q8 -6 21 -19q10 -10 14 -16l-4 -41l-324 -141l262 -129q-6 -23 -12 -60 q-6 -39 -14 -55l-37 -23l-234 213l-10 -325l-10 -5t-14 -8q-6 -2 -14.5 -7t-14.5 -7q-10 -4 -27 -12l-24 -8l-31 18l86 352l-270 -196l-43 32q-17 12 -35 35z" />
<glyph unicode="+" horiz-adv-x="768" d="M76 528q2 8 7 20.5l11 26.5l23 46h233l39 270q6 2 47 14l49 15l21 -23l-39 -276h235l19 -25q-6 -18 -8 -23l-11 -24l-12 -25q-4 -6 -5 -10t-3 -8h-233l-37 -270q-6 -4 -23 -9l-12 -6t-12.5 -4t-13.5 -2t-13 -4q-16 -4 -23 -6l-20 22l39 279h-240z" />
<glyph unicode="," horiz-adv-x="409" d="M-18 -270q154 163 153 270q0 16 -6 34.5t-18 31.5q-10 10 -33 16q-18 6 -51 2l-9 45q10 10 41 29q27 16 64 32q45 20 67 29q29 10 48 10q10 -4 30 -20q8 -6 21 -23q6 -8 10 -32q4 -29 4 -52q0 -25 -12 -59q-20 -55 -31 -74l-47 -78q-18 -27 -59 -75q-29 -33 -68 -70 q-25 -23 -70 -51z" />
<glyph unicode="-" horiz-adv-x="638" d="M43 479q12 29 20 43q4 6 11.5 20.5l11.5 22.5h475l19 -24q-12 -29 -21 -45l-20 -41h-478z" />
<glyph unicode="." horiz-adv-x="409" d="M51 68q0 31 12 61q16 41 31 57q25 29 47 43q25 16 60 17q37 0 59.5 -26.5t22.5 -67.5q0 -27 -11 -64q-6 -23 -30 -59q-16 -23 -45 -43q-25 -16 -62 -17q-41 0 -61 27q-23 29 -23 72z" />
<glyph unicode="/" horiz-adv-x="817" d="M-111 -311l904 1861q18 12 59 29l61 20l31 -22l-901 -1862q-14 -10 -27 -14q-4 -2 -15 -7t-17 -7l-37 -13q-10 -4 -16.5 -6l-12.5 -4z" />
<glyph unicode="0" horiz-adv-x="821" d="M47 422q0 57 6 125q6 74 21 137q16 74 39 139q25 72 59 138q29 55 68 106q37 49 82 88t96 59q49 20 110 21q68 0 121 -35q55 -35 86 -92q37 -68 51 -143q16 -88 17 -181q0 -61 -6 -129q-8 -82 -21 -141q-14 -68 -41 -143q-20 -61 -63 -135q-39 -63 -70 -105 q-29 -39 -82 -84q-41 -35 -92 -57q-47 -20 -109 -21q-68 0 -121 35t-85 94q-35 61 -50 144q-16 88 -16 180zM199 440q0 -176 47 -266q45 -88 127 -88q59 0 100 39q43 41 74 100q35 68 51 140q18 74 31 155q14 86 16 148q4 94 4 118q0 72 -14 144q-12 61 -37 104 q-25 41 -55 64q-33 23 -66 22q-55 0 -98 -36.5t-74 -98.5q-29 -57 -51 -135q-20 -68 -33 -150q-8 -45 -16 -145q-6 -68 -6 -115z" />
<glyph unicode="1" horiz-adv-x="821" d="M63 0l7 53q82 10 120 21q57 14 78 22q31 12 43.5 24.5t14.5 22.5l108 797q6 40 6 61q0 23 -8 37q-8 8 -20 11q-10 2 -43 2q-27 0 -70 -7q-53 -8 -104 -20l-13 51q47 14 94 33q74 29 111 45q39 16 107 49q57 27 84 43l28 -35l-145 -1067q-4 -10 6 -22q8 -10 33 -23 q27 -14 65.5 -24.5t108.5 -20.5l-8 -53h-603z" />
<glyph unicode="2" horiz-adv-x="821" d="M0 74q197 197 305 321q127 145 197 248q76 111 106 191q33 86 33 143q0 74 -45 119t-129 45q-37 0 -68 -19q-33 -20 -53 -49q-22 -31 -37 -67q-14 -37 -18 -72l-29 -16q-8 -6 -29 -15q-2 -2 -12 -6t-16 -6q-15 -3 -37 -6l-21 30q6 53 43 109q41 61 91 102q57 49 122 78 q68 31 138 31q45 0 94 -14q43 -12 78 -41q33 -27 51 -70q20 -47 20 -104.5t-28 -137.5q-27 -74 -99 -180q-82 -121 -188 -244q-119 -137 -305 -329h375q18 0 28 8q8 6 23 20q4 4 20 31q12 20 19 33q14 31 28 92l43 -12l-51 -287h-635z" />
<glyph unicode="3" horiz-adv-x="821" d="M-12 119l39 67q39 -37 69 -57q37 -25 58 -35q16 -8 57 -16q27 -6 63 -6q74 0 125.5 26.5t87.5 73.5q37 46 56 104q18 59 18 125q0 57 -18 101q-16 39 -45 67q-31 29 -64 41q-37 12 -72 13h-18h-10l-4 -1q-4 -1 -6 -1l-21 -5l-6 60q72 23 111 41q59 29 94 57q37 31 63 84 q25 49 25 115q0 35 -8 61q-8 29 -27 53q-16 23 -47 39q-27 14 -68 15q-35 0 -63 -13q-23 -10 -49 -36q-20 -20 -31 -54q-10 -35 -10 -65q-31 -16 -64 -27q-31 -9 -67 -12l-21 31q6 45 39 90q37 49 84 88q41 33 113 65q59 27 125 27q57 0 104 -18.5t76 -53.5t43 -75.5 t14 -86.5q0 -55 -18 -100q-20 -51 -47 -86q-25 -33 -74 -67q-35 -25 -90 -50q47 -6 84 -30q35 -23 63 -62q29 -37 43 -82q14 -43 15 -96q0 -95 -31 -178q-33 -86 -88 -146q-59 -61 -137 -98q-80 -37 -183 -37q-76 0 -139 35q-75 41 -143 115z" />
<glyph unicode="4" horiz-adv-x="821" d="M12 383l553 791q29 12 74 36l61 35l27 -35l-102 -753h108l23 -31q-4 -4 -11.5 -13.5t-11.5 -13.5t-11 -10t-9 -8q-16 -12 -19 -14q-12 -8 -20 -17h-64l-32 -246q-2 -6 2 -14q4 -6 18 -14q20 -10 37 -17q12 -4 59 -16l-6 -43h-440l6 43q90 18 96 20q45 10 62 19 q25 10 30 16q8 8 11 17l30 235h-444zM162 455h338l80 585z" />
<glyph unicode="5" horiz-adv-x="821" d="M-4 119l41 67q63 -47 82 -57q43 -25 67 -35q41 -16 58 -18q33 -4 51 -4q76 0 129 34q52 34 86 87q35 53 49 118q16 72 16 133q0 49 -14 91q-16 43 -41 71q-27 29 -65 47q-35 16 -90 17q-101 0 -209 -80l-37 33q10 37 24 84l9.5 32.5t7.5 29.5t10 38q6 25 14.5 52.5 l16.5 55.5l28 107q8 29 13.5 54.5t11.5 45.5q10 41 18 82h394q31 0 45 2t34 6q16 2 31 11l23 -29l-27 -33q-10 -12 -31 -33q-18 -18 -28 -26q-4 -4 -13.5 -11.5t-13.5 -11.5h-348q-8 -39 -19 -75l-11 -47.5l-11 -47.5q-6 -27 -14.5 -50t-12.5 -40l-18 -65q37 12 86 18 q66 8 96 8q68 0 123 -24q51 -23 90 -68q41 -49 58 -96q18 -55 18 -114.5t-12 -121.5q-10 -53 -39 -116q-31 -68 -60 -107q-39 -51 -82 -86t-104 -57q-55 -20 -123 -21q-88 0 -160 35q-79 39 -147 115z" />
<glyph unicode="6" horiz-adv-x="821" d="M68 360q0 102 22 211q20 100 66 197q43 90 106 174q59 78 144 145q72 57 178 105q96 41 207 57l8 -59q-98 -20 -197 -74q-84 -47 -156 -121q-66 -70 -116 -157q-47 -82 -76 -183q70 66 133 90q65 25 117 25q129 0 192 -76q66 -78 66 -211q0 -57 -12 -114 q-12 -53 -37 -115q-20 -47 -60 -109q-29 -45 -80 -92q-43 -40 -98 -61q-57 -23 -115 -23q-66 0 -118 29q-52 28 -92 80q-37 47 -60 123q-22 73 -22 159zM215 373q0 -147 53 -223q51 -74 144 -74q39 0 71.5 16.5t55.5 44.5q27 35 39 64q15 37 24 73q12 49 14 78q4 53 5 70 q0 74 -15 117q-14 45 -41 73q-25 29 -53 37q-35 10 -61 10q-57 0 -111 -26q-49 -25 -113 -94q-8 -59 -10 -82q-2 -27 -2 -84z" />
<glyph unicode="7" horiz-adv-x="821" d="M117 2l180 293l154 272l137 258l133 254h-410q-4 0 -13 -1t-13 -1q-10 0 -29 -14q-12 -10 -37 -45q-23 -33 -49 -88l-37 18l17 58q6 18 10 36.5t8 34.5l20 72q9 34 19 55h635l24 -37l-112 -219l-113 -217l-106 -207l-93 -190l-80 -164l-57 -127q-63 -49 -155 -74z" />
<glyph unicode="8" horiz-adv-x="821" d="M33 250q0 70 24 129q25 57 66 108q35 43 94 88.5t107 71.5l-62 43q-25 18 -49 51q-27 33 -37 66q-12 37 -12 82q0 74 30.5 137.5t81.5 108.5q52 46 117 73q61 27 137 27q59 0 107 -18q51 -20 78 -48q33 -33 47 -73q16 -45 16 -95q0 -55 -18 -102q-16 -43 -51 -84 q-33 -41 -72 -70q-53 -41 -82 -59q33 -18 70 -49t59 -62q25 -33 41 -79q16 -45 16 -99q0 -82 -34 -161q-35 -76 -95 -138q-59 -59 -139 -94t-162 -35q-66 0 -121 22.5t-88 61.5q-31 37 -51 90q-18 50 -18 107zM178 274q0 -43 12 -79q12 -35 39 -66q25 -27 60 -43 q37 -16 80 -16q55 0 98 24.5t70 63.5q25 35 41 88q14 45 14 96q0 59 -17 94q-18 39 -47 72q-27 29 -65 55q-41 27 -78 47q-45 -31 -86 -65q-31 -27 -66 -76q-25 -35 -40 -86q-15 -43 -15 -109zM287 940q0 -43 16 -70q16 -29 47 -55q29 -27 66 -47l39.5 -23.5t36.5 -19.5 q31 18 61 47q18 16 47 57q16 25 31 66q12 37 12 80q0 80 -47 123t-125 43q-43 0 -74 -17q-33 -18 -57 -45q-23 -25 -39 -65q-14 -35 -14 -74z" />
<glyph unicode="9" horiz-adv-x="821" d="M68 16q127 31 211 78q92 53 161 125q68 70 115 162q45 86 70 192q-49 -53 -119 -94q-61 -35 -139 -35q-61 0 -109 21q-45 20 -82 59t-53 88q-18 51 -19 113q0 59 15 117q15 61 43 116q33 68 65 107q49 59 86 88q51 39 105 59q57 23 117 23q53 0 104 -23q45 -20 84 -67 q39 -49 59.5 -116.5t20.5 -166.5q0 -178 -47 -325q-47 -150 -142 -275q-92 -123 -227 -203q-137 -82 -311 -102zM244 770q0 -63 18 -106q16 -39 43 -66q25 -25 57 -35q27 -8 58 -8q72 0 129 39q51 35 96 98l6 72q2 25 2 72q0 86 -14 137q-16 57 -41 92q-27 35 -53 49 q-33 16 -62 16q-45 0 -82 -16q-31 -14 -61 -45q-27 -27 -45 -63q-14 -29 -29 -76q-8 -25 -16 -82q-6 -41 -6 -78z" />
<glyph unicode=":" horiz-adv-x="409" d="M51 68q0 31 12 61q16 41 31 57q25 29 47 43q25 16 60 17q37 0 59.5 -26.5t22.5 -67.5q0 -27 -11 -64q-6 -23 -30 -59q-16 -23 -45 -43q-25 -16 -62 -17q-41 0 -61 27q-23 29 -23 72zM152 784q0 29 12 60q16 41 31 57q25 29 47 43q25 16 59 17q39 0 59 -25q23 -27 23 -70 q0 -27 -10 -61q-8 -31 -31 -60q-18 -27 -45 -43q-25 -16 -61 -16q-41 0 -62 27q-22 28 -22 71z" />
<glyph unicode=";" horiz-adv-x="409" d="M-18 -270q154 163 153 270q0 16 -6 34.5t-18 31.5q-10 10 -33 16q-18 6 -51 2l-9 45q10 10 41 29q27 16 64 32q45 20 67 29q29 10 48 10q10 -4 30 -20q8 -6 21 -23q6 -8 10 -32q4 -29 4 -52q0 -25 -12 -59q-20 -55 -31 -74l-47 -78q-18 -27 -59 -75q-29 -33 -68 -70 q-25 -23 -70 -51zM152 784q0 29 12 60q16 41 31 57q25 29 47 43q25 16 59 17q39 0 59 -25q23 -27 23 -70q0 -27 -10 -61q-8 -31 -31 -60q-18 -27 -45 -43q-25 -16 -61 -16q-41 0 -62 27q-22 28 -22 71z" />
<glyph unicode="&#x3c;" horiz-adv-x="839" d="M49 530q8 27 19 52q14 35 20 43l698 274l19 -25l-8 -24q-2 -6 -5.5 -12.5t-5.5 -14.5t-5 -14t-5 -14q-2 -4 -8 -23l-541 -209l486 -209l10 -37q-6 -6 -11 -10l-10 -8l-18 -12q-4 -2 -10 -7.5t-8 -7.5t-6.5 -5t-9.5 -6t-9 -5l-569 248z" />
<glyph unicode="=" horiz-adv-x="839" d="M49 379q4 10 10.5 21.5t10.5 23.5q4 6 10 21.5t10 23.5h658l18 -23q-6 -18 -8 -22l-10 -27q-2 -4 -6.5 -11t-6.5 -11l-10 -21h-655zM90 680l19 45l22 45h655l19 -25q-6 -18 -8 -22l-11 -25q-2 -4 -5 -12t-5 -12q-4 -6 -6 -10.5t-4 -8.5h-657z" />
<glyph unicode="&#x3e;" horiz-adv-x="839" d="M31 281l8 24l4 12.5t4 14.5t5 14t5 14q2 12 11 23l538 209l-483 209l-10 37l10 10t8 6l19 14q2 2 8 7.5t10 7.5q6 4 27 16l569 -248l20 -26l-16 -50q-10 -29 -20 -45l-699 -274z" />
<glyph unicode="?" horiz-adv-x="811" d="M162 1090q0 61 28 124q27 57 80 109q55 51 125 78q76 29 166 29q65 0 111 -19q45 -18 76 -51q33 -35 47 -78q14 -41 14 -96q0 -89 -25 -154q-25 -63 -65 -121q-37 -51 -86 -100q-45 -45 -88 -94q-39 -45 -76 -105q-29 -47 -43 -127l-12 -96q-20 -18 -33 -24 q-4 -2 -41 -17l-23 21l5 116q0 63 26 123q23 53 62 107q43 61 77 98q29 31 78 96q31 41 60 103q25 53 24 116q0 101 -43 154t-131 53q-43 0 -74 -18q-33 -20 -51 -53q-18 -35 -24 -74q-6 -47 2 -92q-37 -16 -39 -17q-25 -8 -35 -10q-4 0 -15.5 -3t-17.5 -5t-19.5 -3 t-19.5 -1zM209 68q0 31 12 61q16 41 31 57q25 29 47 43q25 16 59 17q39 0 61.5 -26.5t22.5 -67.5q0 -27 -10 -64q-6 -23 -31 -59q-14 -20 -47 -43q-25 -16 -61 -17q-41 0 -62 27q-22 29 -22 72z" />
<glyph unicode="@" horiz-adv-x="1591" d="M82 465q14 106 57 221q43 117 100.5 205t141.5 176q80 83 172 141q94 59 194.5 92t213.5 33q131 0 243 -53q117 -55 187 -152q78 -106 106 -245q31 -150 4 -334q-12 -84 -41 -164q-29 -82 -67 -143q-35 -57 -88 -117q-47 -53 -97 -90q-47 -37 -96 -55q-51 -20 -86 -21 q-16 0 -35 12q-16 10 -33 47q-12 27 -22 94.5t-10 157.5q-10 -18 -58 -98q-33 -53 -71 -102q-41 -51 -78 -80q-39 -31 -82 -31q-35 0 -72 18q-41 20 -69.5 61.5t-51.5 106.5q-20 61 -20 160q0 72 16 154q16 86 47 145q33 63 84 129q45 55 121 109l31.5 18t28.5 17 q29 18 65 30q16 6 70 21q31 8 65 8q40 0 74 -18q45 -25 66 -39l49 30q8 4 51 27l20 -35q-14 -10 -32 -29q-10 -10 -21 -30h2l-2 -2q-8 -20 -12 -33q-2 -6 -3 -13.5t-3 -17.5t-4 -16q-12 -53 -27 -148l-22.5 -143l-8.5 -56t-8 -61q-4 -35 -4 -73q0 -68 4 -93q6 -39 14 -57 q8 -20 21 -27q16 -8 22 -8q25 0 64 33q41 35 76 90q45 72 69 133q35 86 45 160q18 111 8 209t-36.5 174t-73.5 137q-45 59 -104 100q-63 43 -127 63.5t-142 20.5q-90 0 -176 -28.5t-153 -75.5q-71 -49 -129 -117q-63 -74 -103 -145q-43 -80 -74 -166q-31 -84 -43 -178 q-25 -184 9 -324q33 -137 114 -237q80 -98 193 -148q119 -51 250 -51q76 0 149 18q94 23 139 43q72 31 117 58q55 33 84 55l16 -55q-35 -35 -96 -80q-63 -47 -131 -78q-86 -39 -158 -57q-90 -23 -184 -23q-164 0 -299 59.5t-219 168.5q-88 113 -123 264q-37 153 -8 348z M561 379q0 -74 10 -117q12 -53 31 -90q16 -31 43 -55q23 -20 55 -21q25 0 56 31q35 35 61 78q53 84 66 106q23 39 59 117q2 20 4 32.5t5 29t7 34.5q2 14 7.5 47t9.5 50q8 45 14 84q2 10 5 30.5t5 28.5l-30 24q-10 8 -35 21q-23 10 -41 16q-22 6 -43 6q-43 0 -84 -22.5 t-72 -58.5q-33 -39 -57 -86q-27 -49 -41 -97q-20 -63 -27 -100q-8 -43 -8 -88z" />
<glyph unicode="A" horiz-adv-x="1146" d="M-35 0l6 43q61 12 101 25q37 12 51 43l487 1118q12 12 31 24l37 25q18 12 37 22q6 4 16 9.5t14 7.5l216 -1206q4 -18 8 -25q8 -12 16 -18q10 -8 33 -15q27 -8 53 -10l-4 -43h-385l4 43q74 6 102 20q31 16 25 48l-57 333h-385l-144 -333q-16 -33 17 -45q35 -14 106 -23 l-6 -43h-379zM410 535h329l-94 544z" />
<glyph unicode="B" horiz-adv-x="1013" d="M0 0l6 43q61 14 100 30.5t41 30.5l150 1090q-18 -2 -49 -8t-35 -6q-43 -8 -72 -15v62l95 24q37 10 100 21q14 2 113 12q61 6 129 6q88 0 145 -16q68 -18 111 -51q47 -35 69 -78q25 -46 25 -105q0 -49 -17 -102q-14 -47 -45 -90q-25 -33 -71 -74q-39 -33 -88 -51 q45 -10 92 -41q39 -25 71.5 -68t47.5 -92q16 -55 16 -112q0 -98 -37 -179q-35 -78 -104 -139q-59 -53 -152 -90q-84 -33 -180 -33h-47q-18 0 -60 4q-14 0 -31.5 2t-33.5 5q-10 0 -33 1t-33 3l-157 16h-66zM293 104q-2 -8 10 -18q18 -10 43 -16q27 -8 47 -11q33 -4 49 -4 q8 0 23.5 -1t21.5 -1q68 0 119 27q57 31 92 74q41 51 60 102q20 55 20 119q0 53 -14 98q-16 49 -45 88q-29 37 -82 64q-49 25 -119 24q-33 0 -82 -4q-25 -2 -69 -10zM379 725h31q82 0 135 10q66 12 117 41q49 28 79 80q31 53 31 131q0 57 -22.5 102.5t-53.5 67.5 q-35 27 -71 37q-40 12 -74 12h-57q-10 0 -26.5 -1t-25.5 -1z" />
<glyph unicode="C" horiz-adv-x="993" d="M76 459q0 94 18.5 192.5t57.5 188.5q43 98 100 176q61 84 145 151q70 55 158 90q84 33 178 33t168 -28q70 -29 115 -72q1 -2 1 -5q0 -7 -7 -18q-10 -16 -29 -37l-37 -43q-8 -8 -19.5 -18t-13.5 -12l-30 8q-35 41 -99 74q-58 31 -141 30q-41 0 -90 -18q-45 -16 -90 -51 q-63 -47 -107 -123q-51 -88 -73 -156q-31 -90 -41 -162q-12 -80 -13 -143q0 -115 29 -188q31 -80 76 -131q43 -49 102 -76q55 -25 109 -25q59 0 135 35q82 39 190 125q6 -2 9 -8q2 -2 4 -6t4 -9q0 -2 4 -6t4 -6t1 -5t3 -5q-70 -68 -127 -115q-57 -45 -115 -73 q-53 -27 -102 -39q-41 -10 -96 -11q-78 0 -144 33q-72 35 -120 94q-57 68 -87 152q-30 88 -30 207z" />
<glyph unicode="D" horiz-adv-x="1116" d="M0 0l6 43q61 14 100 30.5t41 30.5l150 1090l-154 -18v63q106 27 228 39q113 12 215 12q119 0 209 -39q88 -37 153 -110q61 -68 96 -172q33 -98 33 -224q0 -98 -16 -178q-20 -94 -51 -172q-31 -76 -84 -155q-47 -72 -117 -125q-72 -55 -150 -84q-82 -31 -178 -31h-481z M299 139q-2 -14 4 -24q10 -14 23 -19q23 -8 49 -10q20 -2 80 -2q74 0 137 29q61 29 113 75q51 49 90 111q37 61 67 137q25 66 39 146q14 86 14 145q0 109 -26.5 195t-79.5 151q-52 65 -129 98q-80 35 -176 35h-31q-6 0 -14 -1t-15 -1z" />
<glyph unicode="E" horiz-adv-x="944" d="M0 0l6 43q61 14 100 30.5t41 30.5l146 1051q2 12 -29 31q-23 12 -96 31l6 43h737l25 -25q-4 -16 -12 -57q-4 -20 -17 -62l-11 -32.5l-9 -26.5q-10 -31 -19 -47h-43q4 31 4 77q0 23 -8 48q-6 20 -18 26q-16 8 -31 8h-336l-57 -434h373l20 -28q-2 -2 -22 -29 q-4 -6 -13.5 -14.5t-13.5 -14.5q-8 -10 -27 -28q-12 -12 -22 -21q-12 16 -35 27q-25 12 -43 16q-35 8 -66 10q-27 2 -94 2h-69l-68 -501q-4 -16 2 -26.5t25 -21.5q18 -9 55 -12q49 -4 96 -4h121q53 0 72 4q31 6 51 23q25 18 47 53q22 34 49 92l39 -18q-29 -115 -41 -152 q-6 -16 -12 -37.5t-10.5 -34t-8.5 -20.5h-784z" />
<glyph unicode="F" horiz-adv-x="890" d="M0 0l6 43q61 14 100 30.5t41 30.5l146 1051q2 12 -29 31q-23 12 -96 31l6 43h746l24 -25q-4 -16 -12 -57q-4 -20 -17 -62l-11 -32.5l-9 -26.5q-10 -31 -18 -47h-41q3 43 2 58v19q-4 33 -9 48q-6 20 -18 26q-16 8 -31 8h-344l-59 -434h323l23 -28q-10 -14 -23 -29 q-6 -6 -13 -14.5t-13 -14.5q-8 -10 -27 -28q-12 -12 -22 -21q-37 37 -78 45q-47 10 -111 10h-69l-76 -551q-2 -6 6 -12t27 -14q37 -16 120 -35l-6 -43h-438z" />
<glyph unicode="G" horiz-adv-x="1071" d="M76 473q0 90 22.5 190.5t61.5 186.5q35 80 96 164q47 66 125 129q86 68 188 106q106 41 224 41q20 0 65 -8q39 -6 70 -18q23 -8 67 -33q37 -20 60 -43q6 -6 -4 -23q-10 -14 -29 -37q-12 -14 -39 -41q-14 -14 -35 -30l-28 6q-16 23 -56 51q-31 23 -61 35q-25 10 -72 16 q-39 6 -84 6q-33 0 -92 -26q-45 -20 -109 -70q-49 -39 -92 -106q-43 -70 -69 -144q-31 -86 -45.5 -159.5t-14.5 -149.5q0 -109 33 -186.5t84 -128.5q57 -57 113 -78q66 -25 125 -25q51 0 106 17q49 14 86 41l41 301q0 14 -4 20q-8 12 -26.5 20.5t-67.5 18.5q-57 12 -119 23 l6 43h461l-6 -43q-53 -14 -78 -37t-29 -45l-10 -70l-12 -88q-2 -20 -4 -43t-6 -43q-2 -14 -5.5 -33.5t-3.5 -25.5q-66 -51 -135 -97q-68 -43 -104 -57q-45 -18 -88 -25q-40 -6 -80 -6q-86 0 -160 33q-77 34 -135 98q-61 68 -96 158t-35 215z" />
<glyph unicode="H" horiz-adv-x="1234" d="M0 0l6 43q61 14 100 30.5t41 30.5l146 1051q2 12 -29 31q-23 12 -96 31l6 43h410l-6 -43q-74 -18 -101 -31q-39 -18 -41 -31l-61 -450h557l61 450q2 12 -28 31q-23 14 -95 31l4 43h412l-6 -43q-74 -18 -100 -31q-39 -18 -41 -31l-146 -1051q-2 -12 29 -30q23 -12 96 -31 l-6 -43h-410l7 43q61 14 100 31q35 14 39 30l70 510h-556l-69 -510q-2 -12 29 -30q23 -14 94 -31l-6 -43h-410z" />
<glyph unicode="I" horiz-adv-x="571" d="M20 0l7 43q61 14 100 30.5t41 30.5l143 1051q2 12 -28 31q-23 14 -95 31l7 43h409l-6 -43q-74 -18 -100 -31q-39 -18 -41 -31l-146 -1051q-2 -12 29 -30q23 -12 96 -31l-6 -43h-410z" />
<glyph unicode="J" horiz-adv-x="577" d="M-264 -301q0 10 14 27q10 12 35 32.5t39 28.5q20 12 33 12q10 0 20 -10q9 -9 25 -18q27 -16 37 -21q18 -8 51 -8q29 0 53 16q31 20 57 62q33 51 56 121q27 84 41 192l141 1022q0 6 -6 12q-8 8 -25 17q-10 6 -51 16q-16 4 -88 17l4 43h457l-6 -43q-70 -16 -101 -31 q-39 -18 -41 -31l-131 -950q-12 -100 -43 -199q-25 -80 -57.5 -133t-71.5 -92q-43 -43 -78 -70q-18 -14 -59 -39q-20 -12 -61 -28q-29 -12 -60 -19q-27 -6 -45 -6q-27 0 -53 10q-29 10 -43 21q-12 8 -31 26q-12 13 -12 23z" />
<glyph unicode="K" horiz-adv-x="1101" d="M0 0l6 43q61 14 100 30.5t41 30.5l146 1051q2 12 -29 31q-23 12 -96 31l6 43h410l-6 -43q-74 -18 -101 -31q-39 -18 -41 -31l-69 -508l458 481q20 20 33 41q8 14 0 26.5t-29 14.5q-18 2 -57 7l6 43h383l-6 -43q-12 -2 -30.5 -5.5t-24.5 -3.5q-16 -2 -41 -10 q-16 -6 -35 -16q-16 -10 -33 -27l-485 -483l350 -516q10 -14 31 -31q18 -14 37 -14q25 0 55 8q27 6 80 28l18 -36l-73 -52q-43 -29 -70 -41q-39 -18 -60 -24q-25 -8 -47 -8q-20 0 -28 2q-4 0 -23 10q-4 2 -22 20q-8 8 -23 33l-366 586l-72 -533q-2 -12 29 -30q23 -14 94 -31 l-6 -43h-410z" />
<glyph unicode="L" horiz-adv-x="917" d="M0 0l6 43q61 14 100 30.5t41 30.5l146 1051q2 12 -29 31q-23 12 -96 31l6 43h410l-6 -43q-74 -18 -101 -31q-39 -18 -41 -31l-137 -1001q-2 -16 4 -31q6 -12 25 -19q31 -10 51 -12q23 -2 82 -2h127q51 0 71 4q31 6 54 23q25 18 47 53q22 34 49 92l39 -18 q-29 -115 -41 -152q-25 -74 -33 -92h-774z" />
<glyph unicode="M" horiz-adv-x="1509" d="M4 0l6 43q61 14 101 31q35 14 39 30l155 1076q-27 18 -63 28q-31 8 -60 9l6 43h265q10 0 14 -3q8 -4 10 -12l3 -10q3 -10 5 -16q6 -15 13 -43l250 -895l458 895q6 8 12.5 22t10.5 20.5t11 16.5l7 10q6 9 13 12q4 2 16 3h260l-4 -43q-31 0 -62 -9q-41 -10 -71 -26 l-121 -1078q-3 -12 31 -30q25 -12 98 -31l-6 -43h-410l6 43q59 14 103 31q40 15 43 30l108 955l-540 -1059h-41l-279 1047l-135 -943q-2 -12 29 -30q23 -14 94 -31l-6 -43h-369z" />
<glyph unicode="N" horiz-adv-x="1236" d="M0 0l6 43q63 8 100 29q35 18 37 32l146 1049q-25 29 -58 43q-25 10 -73 21l6 43h178h35q10 0 22 -9q2 -2 17 -24q4 -6 10 -17.5l14 -27.5l484 -924l123 897q0 8 -4.5 14.5t-20.5 16.5q-8 4 -39 16q-18 6 -59 15l6 43h364l-6 -43q-70 -10 -100 -27q-33 -18 -35 -35 l-164 -1186q-14 2 -39 6q-14 2 -30 13q-6 4 -25 22q-10 10 -25 35l-497 959l-123 -900q-3 -12 24 -30t97 -31l-6 -43h-365z" />
<glyph unicode="O" horiz-adv-x="1114" d="M90 485q0 63 12 133q14 78 33 142q23 74 51 137q27 57 72 121q57 74 90 106q49 49 105 86q53 35 118 58q68 23 134 22q98 0 169.5 -41t118.5 -112q49 -76 70 -164q23 -100 22 -199q0 -70 -12 -143q-14 -86 -35 -146q-27 -74 -57 -137q-29 -59 -80 -123q-37 -45 -90 -100 q-49 -47 -100 -82q-43 -27 -113 -53q-55 -20 -127 -21q-96 0 -168 41q-74 41 -119 111q-47 74 -71 166q-23 87 -23 198zM242 532q0 -84 20 -172q18 -78 55 -137q35 -55 86 -90q47 -33 113 -33q78 0 139.5 31t106.5 82q47 53 80 119q34 68 55 141q18 63 28.5 145t10.5 138 q0 86 -18 159q-18 72 -54 129q-33 53 -86 89q-51 33 -116 32q-74 0 -136 -30q-68 -33 -108 -78q-45 -47 -80 -115t-55 -133q-20 -70 -31 -143q-10 -79 -10 -134z" />
<glyph unicode="P" horiz-adv-x="964" d="M0 0l6 43q61 14 100 30.5t41 30.5l150 1090q-12 -2 -36.5 -5t-37.5 -5q-41 -6 -82 -19v60q57 20 86 28q33 8 97 21q53 10 108 12q78 4 127 4q92 0 172 -22q74 -20 131 -66q55 -43 84 -108q29 -68 29 -152q0 -88 -33 -160q-35 -78 -90 -129q-58 -55 -135 -86 q-82 -33 -164 -32q-33 0 -78 10q-37 8 -65 24l-11 74q34 -15 68 -25q31 -8 65 -8q68 0 121.5 20.5t94 61.5t61.5 94q23 57 22 119q0 86 -26 142q-25 53 -74 92q-45 35 -106 51q-66 16 -129 16h-27q-4 0 -13.5 -1t-13.5 -1l-149 -1100q-4 -6 4 -14q6 -6 22 -14q12 -6 48 -17 q8 -2 77 -16l-6 -43h-438z" />
<glyph unicode="Q" horiz-adv-x="1134" d="M90 485q0 63 12 133q14 78 33 142q23 74 51 137q27 57 72 121q57 74 90 106q49 49 105 86q53 35 118 58q68 23 134 22q98 0 169.5 -41t118.5 -112q49 -76 70 -164q23 -100 22 -199q0 -70 -12 -143q-14 -86 -35 -146q-27 -74 -57 -137q-29 -59 -80 -123q-68 -82 -115 -125 q-59 -55 -135 -90q45 -29 76 -53l72 -55q49 -33 71 -45q31 -16 68 -17q8 0 25 4q14 4 28 13q29 16 39 24q23 14 53 37l21 -35q-23 -37 -57 -78q-25 -31 -54 -55q-27 -23 -47 -35t-35 -12q-55 0 -106 29q-45 27 -98 71q-49 43 -95 88q-39 39 -98 80q-14 -2 -43 -2 q-96 0 -168 41q-74 41 -119 111q-47 74 -71 166q-23 87 -23 198zM242 532q0 -84 20 -172q18 -78 55 -137q35 -55 86 -90q47 -33 113 -33q78 0 139.5 31t106.5 82q47 53 80 119q34 68 55 141q18 63 28.5 145t10.5 138q0 86 -18 159q-18 72 -54 129q-33 53 -86 89 q-51 33 -116 32q-74 0 -136 -30q-68 -33 -108 -78q-45 -47 -80 -115t-55 -133q-20 -70 -31 -143q-10 -79 -10 -134z" />
<glyph unicode="R" horiz-adv-x="1075" d="M0 0l6 43q61 14 100 30.5t41 30.5l150 1090l-78 -12q-47 -8 -78 -15v60l90 24q31 8 97 21q12 2 106 12q57 6 125 6q92 0 160 -20q71 -22 123 -62q47 -37 78 -100q29 -61 28 -137q0 -41 -18 -97q-20 -63 -56 -110q-41 -57 -104 -102.5t-158 -63.5l234 -414q16 -27 35 -49 q14 -16 39 -20q27 -4 55 4l84 28l18 -38l-78 -48q-4 -2 -30.5 -18l-38.5 -23q-25 -12 -58 -24q-27 -10 -38 -10q-18 0 -33 6q-20 8 -31 18q-8 8 -33 41q-12 16 -35 66l-227 473q-18 2 -59 6q-37 4 -56 8l-67 -500q-2 -12 29 -30q23 -14 94 -31l-6 -43h-410zM371 678 q27 -8 57 -12q37 -4 57 -4q63 0 121 18q61 20 103 51q39 31 69 88q27 51 27 123q0 78 -27 125q-29 51 -71 82q-45 33 -93 43q-61 14 -100 14h-37q-6 0 -17 -1t-18 -1z" />
<glyph unicode="S" horiz-adv-x="897" d="M47 115q0 12 12 35q8 14 29 47q10 16 35 41q16 16 31 16q10 0 28 -25q23 -31 45 -55q23 -27 68 -53q41 -25 100 -25q63 0 113 21q57 25 92 55q41 39 62 84q23 51 22 104q0 39 -12 76q-12 39 -41 70q-27 29 -80 65q-41 29 -127 70q-72 35 -109 66q-43 37 -67 73 q-27 39 -35 74q-10 41 -10 74q0 68 30 131q31 65 86 117q55 51 134 81q86 33 176 33q70 0 133 -28q66 -29 110 -64q2 -2 2 -6t-2 -8q-3 -9 -12 -25q-2 -2 -22 -29l-25 -30q-8 -10 -25 -27q-10 -10 -18 -14l-29 6q-18 25 -38.5 45t-45.5 39q-20 16 -53 27q-31 10 -57 10 q-57 0 -96 -17q-43 -18 -70 -45q-28 -28 -43 -61q-16 -37 -16 -68q0 -14 8 -47q6 -23 28 -49q22 -25 62 -55q35 -27 108 -64q66 -33 134 -78q55 -37 89.5 -77.5t49 -83.5t14.5 -101q0 -96 -39 -180q-39 -86 -106 -149q-66 -63 -154 -103q-86 -39 -188 -39q-37 0 -86 13 q-45 10 -92 34q-39 20 -74 47q-29 23 -29 52z" />
<glyph unicode="T" horiz-adv-x="1064" d="M113 1014q2 10 10 59q6 39 14 66q12 45 19 65q9 31 18 56h922l22 -25q-2 -10 -10 -55q-8 -41 -14 -62l-17 -63q-2 -4 -7 -24.5t-9 -31.5h-41q-2 45 -6 82q-2 31 -10 54q-6 20 -21 26q-16 8 -33 8h-258l-143 -1054q-2 -10 29 -33q27 -18 112 -39l-6 -43h-446l6 43 q76 16 121 39q37 18 38 33l148 1054h-272q-12 0 -25 -6q-10 -4 -25 -22q-10 -12 -32 -54q-27 -47 -47 -92z" />
<glyph unicode="U" horiz-adv-x="1226" d="M168 1217l6 43h410l-6 -43q-70 -16 -101 -31q-39 -18 -41 -31l-88 -645q-6 -55 -6 -57v-56q0 -76 16 -127q18 -59 52 -98q37 -43 84 -63q51 -23 114 -23q59 0 119 33q53 31 98 84q39 47 70 123q27 68 37 143l92 686q2 10 -27 31q-20 14 -92 31l6 43h375l-6 -43 q-74 -18 -98 -31q-35 -18 -37 -31l-90 -643q-18 -132 -62 -233q-45 -104 -106 -170q-65 -68 -148 -105q-78 -35 -182 -35q-84 0 -151.5 24.5t-116.5 74.5q-47 47 -76 118q-27 68 -27 162q0 59 9 115l98 692q2 12 -29 31q-22 13 -96 31z" />
<glyph unicode="V" horiz-adv-x="1212" d="M139 1217l6 43h398l-6 -43q-74 -6 -102.5 -20.5t-22.5 -45.5l190 -956l440 956q16 29 -18 43q-33 12 -104 23l6 43h379l-7 -43q-61 -12 -100 -24.5t-51 -41.5l-500 -1092q-10 -25 -31 -39q-29 -20 -43 -26q-29 -12 -43 -17l-20 -5t-14 -3l-240 1182q-8 31 -31 43.5 t-86 22.5z" />
<glyph unicode="W" horiz-adv-x="1570" d="M129 1217l6 43h391l-6 -43q-45 -6 -71 -13q-23 -4 -41 -16q-15 -9 -19 -19q-4 -12 -4 -22l59 -893l437 1006h55l180 -1006l293 901q4 12 -4 21q-12 12 -27 16q-18 6 -43 12q-16 4 -57 13l6 43h385l-4 -43l-55 -13q-16 -4 -45 -12q-20 -6 -34.5 -16.5t-17.5 -20.5 l-360 -1096q-12 -29 -25 -39q-25 -20 -38 -26q-33 -14 -41 -17l-33 -8l-164 977l-385 -887q-10 -25 -31 -39q-31 -23 -41 -26q-29 -12 -43 -17l-33 -8l-73 1178q-4 27 -27 41q-27 17 -90 29z" />
<glyph unicode="X" horiz-adv-x="1169" d="M-20 0l6 43q63 6 104 23q46 18 74 61l364 526l-235 480q-18 31 -23 36q-10 12 -26 23q-14 8 -35 14l-51 11l6 43h411l-6 -43q-82 -10 -104 -23q-16 -9 -16 -28q0 -15 10 -33l180 -365l256 365q16 23 16 38q0 14 -14 23q-12 6 -45 14q-20 4 -68 9l7 43h411l-6 -43 q-41 -4 -59 -9q-20 -6 -47 -16q-25 -10 -39 -23q-16 -12 -33 -36l-330 -467l268 -539q6 -14 23 -35q12 -14 29 -24q12 -8 36 -15q27 -8 48 -10l-7 -43h-411l6 43q35 2 65 10q25 6 39 17q12 8 13 22q0 16 -9 35l-208 422l-293 -422q-16 -22 -16 -38q0 -15 14 -23 q25 -16 112 -23l-6 -43h-411z" />
<glyph unicode="Y" horiz-adv-x="1144" d="M102 1235q6 2 27 7t33 7q23 4 63 13q39 8 62 10q37 4 47 4q27 0 51 -39q23 -35 45 -78q33 -61 49 -96q33 -70 47 -105q39 -92 43 -106l33 -96q8 -23 23 -78l309 473q18 27 -6 43q-18 12 -90 23l6 43h360l-6 -43q-43 -8 -98 -27q-33 -10 -53 -39l-390 -608l-59 -428 q0 -4 6 -15q6 -8 23 -18q23 -14 43 -21q23 -8 69 -18l-6 -43h-446l6 43q80 16 123 39q33 16 37 33l59 436q-12 51 -47 158q-14 47 -64 165q-31 78 -71 158q-39 80 -70 123q-8 14 -22 25q-12 10 -27 12q-20 4 -41 4q-14 0 -59 -4z" />
<glyph unicode="Z" horiz-adv-x="1021" d="M31 45l790 1122h-422q-16 0 -34 -12q-25 -16 -41 -35q-27 -29 -43 -61q-18 -33 -39 -96l-52 12l72 311q23 -8 43 -14q16 -4 41 -8q29 -4 41 -4h47h572l18 -46l-782 -1114h485q23 0 39 9q14 6 35 34q14 20 39 68q27 55 47 106l49 -14q-6 -33 -12 -74q-2 -20 -6.5 -40.5 t-8.5 -41l-8 -41t-6 -38.5q-4 -20 -7 -37t-5 -31h-834z" />
<glyph unicode="[" horiz-adv-x="585" d="M2 -336l272 1935h385l27 -26q-6 -25 -18 -49l-19 -37h-262l-240 -1708h256l29 -29q-2 -6 -16 -45l-21 -41h-393z" />
<glyph unicode="\" horiz-adv-x="817" d="M145 1577l37 22q37 -12 58 -20q37 -14 55 -29l387 -1861l-35 -25l-26 10l-33 13q-6 2 -16.5 7l-14.5 7q-14 6 -22 14z" />
<glyph unicode="]" horiz-adv-x="585" d="M-86 -307l18 49q9 25 19 37h262l240 1708h-254l-29 26q8 29 16 46l21 40h391l-270 -1935h-385z" />
<glyph unicode="^" horiz-adv-x="937" d="M94 592l422 870q12 12 31 25l37 24q25 16 37 23l32 16l201 -915q-37 -29 -53 -39q-27 -16 -58 -31l-30 27l-160 723l-330 -680q-2 0 -11 -8.5t-15 -12.5q-4 -4 -14.5 -10t-16.5 -10q-25 -14 -29 -16q-14 -8 -24 -13z" />
<glyph unicode="_" horiz-adv-x="892" d="M-53 -219q8 29 16 45l25 43h725l18 -25q-6 -25 -18 -47l-21 -43h-729z" />
<glyph unicode="`" horiz-adv-x="604" d="M254 1411l31 37q4 2 14 3t16 1q25 4 39 4q8 0 20.5 1t18.5 1h33l139 -411q-25 -14 -33 -17q-16 -4 -28 -4z" />
<glyph unicode="a" d="M53 305q0 76 18.5 154t55.5 145q35 63 90 129q45 53 125 109q20 14 59 35q34 18 68 30q23 8 68 21q31 8 65 8q20 0 41 -6q25 -6 39 -15l37 -18l31 -20l49 30l53 29l20 -35q-25 -20 -28 -24q-6 -6 -19 -27q-8 -14 -14 -35q-12 -41 -14 -55q-18 -88 -29 -148 q-20 -127 -23 -143l-14 -117q-6 -52 -6 -73q0 -43 4 -97q4 -41 8 -61q6 -25 16.5 -35t20.5 -10q20 0 47 6q37 8 68 22l12 -36q-74 -51 -141 -82q-57 -27 -82 -27q-18 0 -34.5 12.5t-29.5 46.5q-14 41 -20 97q-8 82 -8 157q-14 -27 -64 -100q-39 -59 -80 -102 q-53 -55 -88 -80q-47 -31 -88 -31q-35 0 -71.5 18.5t-67.5 61.5q-33 47 -53 106q-21 62 -21 160zM190 379q0 -74 11 -117q12 -53 30 -90q14 -29 45 -55q23 -20 56 -21q25 0 59 31q41 39 72 78q33 43 74 108.5t65 116.5q4 25 16 94l17 94q4 23 8 43.5t8 38.5q6 37 11 60 q-20 16 -33 24q-25 16 -39 23l-43 18q-23 6 -47 6q-45 0 -86 -22q-43 -23 -76 -59q-29 -31 -62 -86q-29 -49 -47 -97q-20 -53 -28 -100q-11 -55 -11 -88z" />
<glyph unicode="b" horiz-adv-x="954" d="M106 1425q14 6 43 17.5l44 17.5q45 20 81 31q10 2 34 9t34 11q25 8 41 9q31 0 39 -19q10 -20 10 -63q0 -33 -6 -82q-2 -12 -5 -51t-7 -64q-14 -104 -21 -139l-24 -156l-25 -162l-25 -157q55 92 107 145q63 68 104 96q49 35 97 52q45 16 75 16q39 0 72 -20.5t60 -63.5 q23 -37 38 -102q12 -49 13 -140q-4 -117 -31 -213q-31 -104 -102 -209q-29 -39 -76 -86t-90 -73q-55 -35 -105 -52q-55 -18 -119 -18q-20 0 -47 10q-12 4 -51 31q-31 20 -53 43q-29 29 -45 53q-18 27 -31 60q-12 31 -12 61q0 27 6 82q2 18 9 62.5t9 68.5q0 6 23 164 q8 47 14 92t13 86l28 182l23 166q2 25 9 70t9 65q6 59 6 91q0 25 -6 36q-8 18 -12 21q-8 6 -16 8q-6 2 -19 2q-6 0 -26 -4q-8 -2 -16.5 -5t-16.5 -5q-18 -6 -41 -13zM276 256q0 -27 15 -55q12 -25 43 -55.5t57 -43.5q37 -16 68 -16q37 0 67 12q27 10 58 35q25 18 47 45 q16 18 37 51q25 43 37 74q10 27 22 80q6 27 10 76t4 71q0 68 -12 121q-10 43 -33 84q-20 37 -43 51q-27 16 -49 17q-18 0 -55 -25q-31 -20 -80 -69q-39 -39 -88 -105q-41 -55 -82 -133q-12 -70 -18 -127q-5 -37 -5 -88z" />
<glyph unicode="c" horiz-adv-x="794" d="M53 322q0 74 15 139q16 78 45 139q31 66 82 131q47 59 124 111q10 6 62 35q35 18 70 30q25 8 73 21q33 8 66 8q47 0 78 -16q39 -20 61 -39l49 -41q23 -20 35 -25l-45 -33q-29 -20 -45 -30l-41 -23q-16 -8 -33 -8q-12 0 -26 16l-39 39q-16 16 -47 37q-29 18 -60 18 q-45 0 -84 -22.5t-69 -58.5q-25 -31 -54 -86q-23 -45 -39 -101q-15 -52 -24 -104q-8 -47 -8 -101q0 -68 14 -116q14 -51 41 -90q20 -33 61 -56q35 -20 80 -20q18 0 45 6q25 6 66 22q23 10 82 46q27 16 98 71l16 -22q2 -4 7.5 -9.5t7.5 -9.5q-78 -72 -139 -114 q-57 -39 -113 -68q-35 -18 -92 -31q-35 -8 -76 -8q-37 0 -76 16q-45 20 -80 60q-41 47 -63 112q-25 71 -25 175z" />
<glyph unicode="d" horiz-adv-x="968" d="M53 315q0 88 17 154q20 78 51 141q33 66 88 127q52 58 123 105q33 23 61 35q6 2 29.5 14t36.5 16q23 8 67 21q31 8 66 8q25 0 51 -16q33 -20 51 -37l23 143q8 63 18 131q4 31 15 109q4 33 4 80q0 20 -4.5 36.5t-8.5 20.5t-16 8q-6 2 -16 2q-2 0 -27 -4q-10 -2 -18.5 -5 t-16.5 -5l-45 -13l-12 39l84 35q43 18 80 31l63 20q25 8 41 9q29 0 41 -19q14 -23 14 -63q0 -18 -8 -101q-6 -63 -18 -139q-2 -18 -10.5 -74.5t-14.5 -89.5q-18 -106 -31 -176q-16 -88 -30 -174q-8 -45 -13.5 -85t-11.5 -75q-12 -72 -18 -133q-8 -78 -8 -92q0 -115 12 -168 t33 -53q25 0 53 6q37 8 63 20l13 -36q-86 -57 -140 -82q-59 -27 -88 -27q-18 0 -34 16q-18 16 -29 52q-12 37 -19 100q-6 61 -6 154q-29 -55 -73 -121q-37 -55 -82 -103q-41 -43 -88 -71q-45 -27 -89 -27q-35 0 -73 21q-37 20 -72 63q-34 43 -55 111q-23 71 -23 161z M190 379q0 -65 13 -117q10 -45 37 -90q18 -31 49 -55q27 -20 57 -21q27 0 60 25q27 18 69 69q31 35 72 105l74 129q10 74 20 137l27 162l-37 37q-20 18 -41 35q-27 18 -47 26q-27 10 -54 10q-45 0 -86 -22q-39 -20 -73 -59q-33 -35 -60 -86q-23 -43 -43 -96.5t-28 -100.5 q-9 -43 -9 -88z" />
<glyph unicode="e" horiz-adv-x="804" d="M63 303q0 77 19 154q18 74 55 145q41 78 86 131t119 113q20 18 51 35q27 14 62 28q41 16 63 21q35 6 64 6q43 0 75 -16q31 -14 52 -39q20 -23 30.5 -58t10.5 -63.5t-6.5 -59t-26.5 -63.5q-20 -35 -58 -70q-33 -33 -96 -73q-41 -27 -147 -80q-49 -25 -209 -86 q6 -57 24 -103q20 -53 41 -80q27 -35 50 -51q28 -18 55 -18q10 0 51 4q23 2 70 20q37 14 88 43q45 25 110 78q4 -2 19 -20q10 -12 12 -21q-96 -82 -145 -114q-68 -45 -113 -68q-39 -18 -88 -31q-35 -8 -76 -8q-33 0 -76 18q-39 16 -77.5 59.5t-63.5 106.5q-25 65 -25 160z M207 403q143 57 207 93q72 41 114 79q39 37 52 70q10 29 10 70q0 35 -8 53q-12 29 -21 37q-14 14 -29 20q-16 6 -34 6q-16 0 -47 -12q-33 -12 -60 -37q-37 -33 -65 -73q-31 -43 -55.5 -92.5t-43.5 -104.5q-16 -52 -20 -109z" />
<glyph unicode="f" horiz-adv-x="557" d="M-100 -422q51 29 90 88q43 68 71 137q27 66 52 166q18 70 28 170l78 676h-151l-15 31l101 59h75q6 59 23 154q10 66 39 139q25 66 65 125q41 61 103 104l28.5 19.5t24.5 15.5q25 18 49 31q29 14 55.5 20.5t57.5 6.5q41 0 80 -17q35 -14 63 -37q41 -31 49 -39 q22 -18 37 -24l-45 -33q-8 -6 -24.5 -16.5l-22.5 -14.5q-14 -10 -43 -24q-20 -10 -31 -10q-14 0 -26.5 18t-28.5 39q-10 14 -37 37q-22 18 -49 18q-39 0 -68 -22q-31 -25 -51 -60q-22 -37 -37 -86q-12 -39 -26 -100q-12 -52 -19 -105q-4 -35 -12 -92l-6 -47h256l20 -28 q-10 -16 -26 -31l-37 -31q-12 -10 -37 -27l-27 -18q-4 10 -16 23q-6 6 -29 14q-6 2 -45 6q-18 2 -63 2h-6l-72 -622q-12 -102 -45 -213q-29 -96 -78 -191q-39 -76 -111 -158q-61 -71 -135 -116z" />
<glyph unicode="g" horiz-adv-x="909" d="M-4 -378.5q0 18.5 12 38.5q10 18 31 39l33 33q14 12 22 12q6 0 17 -10l10 -10.5t12 -14.5q8 -10 29 -31q16 -16 43 -32q25 -14 59 -25q37 -10 82 -10q96 0 156 88q57 86 86 254q6 31 14 104q4 31 8 97l6 90l5 92q-18 -39 -76 -129q-35 -53 -90 -121q-45 -53 -97 -92 q-47 -35 -92 -35q-35 0 -71 18q-35 18 -70 62q-31 39 -53 106q-20 61 -21 160q0 76 19 154q20 86 53 145q37 68 92 129q51 57 129 109l31.5 18t27.5 17q29 18 66 30q23 8 68 21q31 8 65 8q22 0 43 -6q18 -6 41 -17q12 -6 37 -22q8 -6 16.5 -11.5t16.5 -11.5q23 23 49 39 l51 29l23 -35q-35 -29 -54 -70q-20 -43 -28 -112q-14 -104 -21 -217q-8 -139 -10 -183q0 -18 -12 -163q-6 -88 -21 -156q-18 -104 -63 -194.5t-106.5 -158t-139.5 -108.5q-76 -39 -154 -39q-41 0 -90 13q-51 12 -90 30q-43 20 -67 39q-27 21 -27 39.5zM190 379 q0 -65 13 -117q14 -63 30 -90q20 -35 47 -55.5t58 -20.5q23 0 57 33q27 25 78 90q35 45 84 129q37 61 76 156l8 80q2 41 12 88q4 29 9 41q2 6 6 17t6 18q-14 12 -33 26q-16 14 -39 27q-25 14 -47.5 22t-52.5 8q-45 0 -86 -22q-43 -23 -76 -59q-35 -37 -64 -86 q-25 -39 -45 -97q-25 -63 -30 -100q-11 -55 -11 -88z" />
<glyph unicode="h" horiz-adv-x="1011" d="M86 -10q8 53 23 133q8 41 14 86t14 90q20 115 33 201l33 211l30 207q16 109 25 184q2 20 8 72.5t8 76.5q6 63 7 95q0 20 -4.5 36.5t-8.5 20.5t-12 8q-4 2 -16 2q-4 0 -29 -4q-8 -2 -18.5 -5t-20.5 -5l-47 -13l-12 39l84 35q43 18 79 31q12 4 35 11t31 9q25 8 41 9 q28 0 43 -19q16 -20 16 -63q0 -25 -6 -80q-2 -10 -16 -127q-16 -129 -21 -154q-16 -109 -24 -159l-11.5 -74t-9.5 -66l-16 -100q66 80 115 121q63 53 110 80q55 31 105 43q57 14 94 14q63 0 90 -39t27 -137q0 -34 -7 -86q-2 -16 -16 -113l-20 -125q-10 -63 -21 -121 q-16 -100 -16 -104q-6 -47 -6 -76q0 -35 12 -47t24 -12q31 0 58 8q31 9 67 25l15 -37q-72 -43 -154 -84q-57 -29 -102 -29q-29 0 -51 31q-23 33 -23 86q0 18 6 65q2 14 4 30.5t6 40.5t7 38q10 61 20 131l20 133q2 14 8.5 54t8.5 59q6 49 6 73q0 47 -2 64q-2 14 -12 41 q-6 14 -21 22q-12 6 -35 7q-16 0 -47 -15q-27 -12 -76 -47q-20 -14 -86 -80q-49 -49 -84 -110q-27 -47 -45 -119q-14 -55 -32 -162l-15 -96q-2 -16 -4 -44t-2 -32q-4 -45 -4 -57q0 -33 2 -47q-4 -2 -15 -6.5t-18 -8.5q-10 -4 -19 -9t-20 -9q-6 -2 -18 -7t-22 -10 q-6 -4 -16.5 -9l-14.5 -7z" />
<glyph unicode="i" horiz-adv-x="503" d="M70 840l84 37l77 30l64 21q25 8 39 8q27 0 39 -18.5t12 -65.5q0 -12 -8 -86q-6 -57 -19 -127l-24 -145q-6 -43 -14.5 -83t-12.5 -65q-12 -72 -18 -125q-8 -74 -8 -86q0 -29 6 -45q6 -14 24 -14q35 0 60 8q59 20 69 25l15 -37q-47 -29 -84 -49l-70 -35q-35 -16 -55 -23 q-25 -6 -47 -6q-31 0 -54 31q-20 29 -20 86q0 12 8 86q6 55 19 123q10 68 22 141l12.5 69.5l12.5 69.5q12 70 18 119q8 70 8 76q0 20 -4 36.5t-8 20.5q-6 6 -12 8t-17 2q-4 0 -24.5 -4t-32.5 -8l-43 -12zM295 1176q0 31 8 55q9 28 25 49q16 23 39 39q20 14 51 14 q29 0 47 -18q16 -16 16 -53q0 -31 -8 -56q-9 -28 -24 -49q-12 -18 -39 -37q-20 -14 -52 -14q-29 0 -47 18q-16 17 -16 52z" />
<glyph unicode="j" horiz-adv-x="501" d="M-385 -424q0 10 14 35q10 18 31 39q25 25 37 35q16 14 29 14q6 0 18 -12q18 -18 33 -29q27 -18 51 -29q31 -12 74 -12q86 0 139 102q55 104 86 291q18 109 23 142q14 104 16 124q4 31 8 101l8 74q0 6 4 42.5t7 57.5q2 31 6 63.5t6 61.5q4 37 4 51q0 8 1 18.5t1 14.5 q0 29 -2 37q-4 14 -10 20q-4 4 -13 8q-4 2 -16 2q-4 0 -25 -4q-27 -4 -34 -8q-12 -4 -41 -12l-15 37l84 37q49 20 78 30l64 21q25 8 38 8q25 0 41 -12q14 -12 15 -54q0 -20 -2 -39q-4 -31 -6 -63l-9 -80q-2 -23 -5 -43t-5 -41q-2 -27 -8 -74q-4 -39 -6 -57q0 -8 -3 -35.5 l-5 -44.5q-2 -23 -11 -96q-6 -51 -12 -111q-4 -39 -16 -120q-23 -121 -51 -197q-31 -80 -64 -133q-34 -55 -74 -92q-29 -27 -82 -68q-18 -14 -59 -35q-31 -15 -61 -24q-31 -8 -60 -13q-37 -4 -45 -4q-31 0 -57 8q-41 12 -58 21q-25 12 -43 24.5t-18 22.5zM268 1176 q0 31 8 55q9 28 25 49q16 23 39 39q20 14 51 14t49.5 -18.5t18.5 -52.5q0 -25 -10 -56q-9 -28 -25 -49q-12 -18 -39 -37q-20 -14 -51 -14q-66 0 -66 70z" />
<glyph unicode="k" horiz-adv-x="897" d="M86 -10q2 10 7 41.5t7 52.5l25 154q6 33 13 84t18 110q18 106 34 217q8 57 17.5 111.5t17.5 105.5l10.5 67t10.5 74.5t8 59.5q16 131 20 166q6 70 7 110q0 29 -2 39q-2 12 -10.5 20.5t-14.5 8.5q-2 0 -9 1t-12 1q-2 0 -26 -4q-12 -2 -37 -10l-45 -13l-14 39l42.5 17.5 l43.5 17.5q43 18 79 31q12 4 35 11t31 9q25 8 39 9q16 0 25 -2q10 -2 18 -15q10 -14 12 -30q4 -29 4 -56q0 -40 -6 -98l-16 -131q-2 -23 -23 -156q-12 -84 -26 -172l-29 -178q-16 -109 -27 -174l215 162q76 59 113 90q45 39 57 59q12 22 -12 31q-23 9 -68 9q-11 0 -22 -1 l-4 39q72 10 113 21q55 12 118 12q47 0 61.5 -14.5t14.5 -47.5q0 -14 -22 -43q-25 -33 -62 -63q-49 -43 -100 -80q-33 -25 -135 -88l-117 -72q31 -39 53 -76q31 -51 53 -96l52 -98l49 -88q20 -33 47 -64q20 -25 41 -24q31 0 49 2q29 4 65 24l17 -34q-70 -59 -115 -82 q-49 -25 -88 -25q-35 0 -70 35q-34 34 -67 86q-31 47 -64 117l-59 125q-29 59 -57 108q-27 47 -56 70q-4 -23 -12 -78l-12 -84q-14 -113 -17 -141q-8 -82 -8 -107q0 -43 6 -65q-4 -2 -16 -8.5t-18 -8.5q-20 -8 -41 -18l-41 -17l-33 -16z" />
<glyph unicode="l" horiz-adv-x="479" d="M102 78q0 25 7 86q0 10 20 141q4 25 10 76t17 108l32 203q8 49 15.5 100.5l15.5 104.5q27 176 29 190q12 90 18 156q8 90 8 103q0 20 -4 36q-2 10 -12 21q-4 4 -16 8q-6 2 -19 2q-2 0 -26 -4q-4 0 -33 -10l-45 -13l-15 39l84 35q43 18 80 31l64 20q25 8 41 9q29 0 45 -19 q16 -20 16 -63q0 -18 -8 -109q-6 -66 -18 -155q-2 -14 -29 -191l-33 -207q-8 -47 -15 -98t-16 -105q-2 -14 -13 -84.5t-15 -103.5q-12 -88 -19 -149q-8 -86 -8 -101q0 -33 10 -47q9 -12 25 -12q27 0 53 8q57 16 76 25l12 -37q-25 -14 -86 -52q-49 -29 -69 -36 q-31 -12 -55.5 -18.5t-51.5 -6.5q-28 0 -49 31q-23 33 -23 88z" />
<glyph unicode="m" horiz-adv-x="1476" d="M41 842l84 35l78 30l63 21q25 8 39 8q18 0 25 -4q9 -6 12 -19q6 -25 6 -34q0 -6 1 -25.5t1 -32.5q0 -4 -1 -13t-1 -15q0 -4 -1 -16.5t-1 -18.5q0 -12 -4 -41t-4 -39q55 66 111 119q52 49 98 80q43 29 88 45q41 14 84 14q39 0 61.5 -14.5t38.5 -40.5q14 -23 21 -56 q6 -31 6 -65v-35q0 -8 -4 -37q68 78 106 115q45 41 92 76q43 31 82 43q47 14 76 14q27 0 53 -10q25 -8 41.5 -28.5t26.5 -55.5q8 -31 8 -82q0 -39 -6 -92q-2 -16 -16 -113q-4 -27 -10.5 -57.5t-12.5 -65.5q-6 -43 -20 -119l-17 -104q-6 -46 -6 -74q0 -31 10 -45 q8 -12 27 -12q20 0 57 8q27 6 70 23l10 -37q-72 -43 -153 -84q-57 -29 -105 -29q-28 0 -49 31q-20 29 -21 86q0 18 7 63q4 25 9 51.5t9 53.5l20 131q16 90 23 133q2 14 9 58t9 65q6 55 7 88q0 59 -13 88q-12 27 -30 27q-20 0 -48 -13q-25 -10 -63 -43q-31 -25 -76 -73 q-33 -35 -78 -105q-18 -29 -36 -70q-16 -35 -25 -69q-12 -45 -16 -78q-6 -41 -15 -88q-16 -92 -18 -156q-2 -32 -2 -61t2 -53l-35 -15q-10 -4 -20.5 -9t-20.5 -9l-39 -17l-33 -16l-32 31l43 213q23 119 36 207q14 94 25 176q10 86 10 114q0 76 -16 105t-43 29q-12 0 -39 -13 q-29 -12 -64 -41q-23 -18 -73 -73q-43 -47 -78 -105q-14 -20 -35 -65q-18 -43 -27 -72q-9 -37 -18 -80q-4 -16 -9 -48t-7 -42q-18 -111 -21 -156q-3 -61 -3 -84q0 -17 1 -30q-4 -2 -15 -6.5t-18 -8.5q-10 -4 -19 -9t-20 -9q-6 -2 -18 -7t-22 -10q-6 -4 -16.5 -9l-14.5 -7 l-33 31q12 53 27 147q14 76 26 152q4 27 11.5 67.5t13.5 81.5l10 74t8 59q9 61 13 111q4 66 4 78q0 29 -2 37q-4 16 -9 20q-6 6 -14 10q-4 2 -14 2q-2 0 -27 -4q-12 -2 -37 -10q-20 -6 -43 -12z" />
<glyph unicode="n" horiz-adv-x="1011" d="M47 842l84 35q43 18 80 30l34.5 11.5t30.5 9.5q25 8 39 8q10 0 23 -4q6 -2 10 -17q4 -16 4 -34q0 -6 1 -24.5t1 -33.5q0 -4 -1 -14t-1 -16.5t-1 -19.5t-1 -21q0 -12 -4 -41q-2 -14 -2 -33q61 74 109 117q53 47 108 79.5t103 47.5q45 14 94 14q33 0 55 -8q27 -10 41 -31 q16 -23 24.5 -53.5t8.5 -81.5q0 -34 -6 -86q-2 -16 -17 -113q-4 -31 -22 -125q-8 -39 -23 -123q-16 -100 -16 -104q-6 -47 -6 -76q0 -33 10 -47q8 -12 27 -12q27 0 53 8q47 14 71 25l15 -37q-88 -53 -154 -84q-59 -29 -102 -29q-37 0 -55.5 30.5t-18.5 86.5q0 18 6 65 q2 14 4 30.5t6.5 40.5t6.5 38l22 131l23 133l8 54t8 59q6 49 6 73q0 74 -16 107q-14 29 -60 29q-8 0 -45 -17q-31 -14 -73 -47q-49 -39 -86 -80q-51 -57 -82 -112q-27 -47 -45 -115q-12 -47 -35 -164q-18 -106 -21 -154q-3 -61 -3 -88q0 -19 1 -34q-4 -2 -15 -6.5t-17 -8.5 q-10 -4 -20.5 -9t-20.5 -9q-20 -8 -39 -17q-6 -4 -16.5 -9l-14.5 -7l-33 31q10 47 27 143q16 90 26 154l25 153q4 29 10 77l8 63q10 68 13 110q4 66 4 72q0 29 -2 37t-8 20q-2 4 -11 8q-4 2 -16 2q-2 0 -27 -4q-8 -2 -35 -10q-20 -6 -45 -12z" />
<glyph unicode="o" horiz-adv-x="862" d="M53 344q0 72 12.5 139.5t38.5 126.5q29 66 72 119q46 58 111 111q53 41 112 67q63 29 123 29q76 0 133 -29q55 -29 90 -78q33 -49 50 -118q16 -72 16 -152q0 -72 -14 -135q-14 -59 -45 -133q-27 -61 -72 -123q-43 -58 -98 -105q-20 -16 -56 -40q-25 -16 -57 -33 q-20 -10 -61 -23q-27 -8 -62 -8q-74 0 -125 29q-57 31 -92 82q-41 57 -57 123q-19 69 -19 151zM197 399q0 -66 16 -127t47 -104q35 -49 68 -70q43 -27 86 -26q47 0 82 20q39 23 65 55q25 29 49 80q20 39 33 92q12 51 19 97q6 49 6 88q0 154 -56 233q-57 82 -159 82 q-74 0 -121 -41q-49 -43 -78 -104q-31 -66 -43 -137q-14 -87 -14 -138z" />
<glyph unicode="p" horiz-adv-x="964" d="M-6 -471q2 10 7 41t7 49l25 143q6 37 15 82t18 97l34 196l12.5 70.5t9.5 58.5l11 70q2 18 13.5 83.5t15.5 98.5q18 125 20 146q8 86 8 96q0 20 -4 37q-2 10 -12 20q-6 6 -14 8q-6 2 -17 2q-6 0 -26.5 -4t-32.5 -8t-41 -12l-14 37l86 37q43 18 80 30l34.5 11.5t30.5 9.5 q25 8 41 8q18 0 32.5 -14.5t14.5 -51.5q0 -29 -6 -84q-8 -70 -20 -143q70 104 118 158q51 53 103 88q41 29 86 39q33 8 67 8q39 0 72 -21q41 -27 61 -59q27 -45 41 -96q14 -55 15 -133q0 -96 -29 -211q-31 -123 -90 -228q-23 -43 -53 -82q-27 -35 -64 -71q-34 -34 -74 -55 q-39 -20 -83 -21q-33 0 -66 21q-35 23 -64 53q-43 47 -61 76q-6 8 -25.5 37.5t-29.5 46.5l-31 -187q-35 -207 -43 -315q-4 -43 -4 -74q0 -46 8 -63q-4 0 -8 -2.5t-7 -3.5t-9.5 -2t-10.5 -3q-20 -6 -41 -14q-8 -2 -21 -8t-20 -8q-25 -8 -32 -13zM266 313q16 -33 41 -65 q23 -31 64 -68q37 -33 73 -53q39 -20 82 -21q53 0 95 29q45 33 65 84q14 31 29 82q8 31 16 84q6 43 6 80q0 12 1 34.5t1 32.5q0 70 -12 121q-14 59 -29 86q-18 33 -40.5 49.5t-47.5 16.5q-28 0 -67 -25q-37 -23 -86 -71q-53 -53 -90 -109q-51 -76 -76 -139z" />
<glyph unicode="q" horiz-adv-x="917" d="M53 305q0 82 21 156q23 80 59.5 145.5t93.5 128.5q51 57 127 107q10 6 32 18t28 17q29 18 65 30q23 8 68 21q31 8 65 8q22 0 43 -6q23 -6 41 -15q8 -4 20.5 -11t16.5 -9q18 -10 35 -21q8 8 49 33q8 6 27.5 15.5l27.5 13.5l23 -35q-25 -20 -29 -24q-6 -6 -18 -27 q-8 -14 -14 -35q-6 -22 -13 -55l-45 -268l-43 -261l-13 -88.5t-10 -71.5t-12 -81q-25 -178 -26 -203q-10 -98 -10 -152q0 -63 10 -81l-33 -13q-10 -4 -21.5 -6t-21.5 -6q-6 -2 -20.5 -8t-20.5 -8q-18 -6 -33 -13l-35 29q2 8 7.5 45l9.5 66q10 74 26 170l35 213l17.5 109.5 l19.5 127.5q-31 -53 -74 -113q-33 -45 -84 -96q-43 -43 -86 -67.5t-82 -24.5q-31 0 -71 18t-74 62q-35 43 -55 106q-23 68 -23 160zM182 379q0 -68 15 -117q16 -57 38.5 -90t53.5 -55q29 -20 59 -21q29 0 62 31q41 39 71 78q55 74 78 108q35 51 72 121l53 326 q-10 8 -34.5 24.5t-39.5 22.5q-27 10 -47 16q-33 8 -51 8q-43 0 -88 -22q-37 -18 -78 -59q-31 -31 -67 -86q-27 -39 -52 -97q-18 -41 -32 -100q-13 -49 -13 -88z" />
<glyph unicode="r" horiz-adv-x="724" d="M41 840l84 37q43 18 80 30l34.5 11.5t30.5 9.5q25 8 39 8q16 0 22.5 -4t10.5 -19q4 -16 4 -34q0 -6 1 -25.5t1 -32.5q0 -4 -4 -37q-2 -16 -6 -57q-2 -10 -4 -29.5t-4 -29.5q-2 -16 -5 -28.5t-3 -21.5q49 98 92 160q53 76 80 99q43 35 73 47q35 12 68 12q16 0 33 -10 q10 -6 28 -25q8 -8 17.5 -14t15.5 -13q20 -16 39 -24l-13.5 -19.5l-13.5 -19.5l-28 -45q-6 -10 -29 -37q-12 -14 -22 -14q-23 0 -33 10l-25 25l-22 22q-12 12 -27 12q-27 0 -61 -36q-39 -43 -68 -93q-39 -66 -66 -129q-33 -74 -53 -143q-8 -27 -20 -84q-8 -37 -15 -92 q-8 -66 -10 -96q-2 -23 -1.5 -44.5t1.5 -41.5q-4 -2 -15 -6.5t-18 -8.5q-10 -4 -19 -9t-20 -9q-6 -2 -18 -7t-22 -10q-6 -4 -16.5 -9l-14.5 -7l-33 31q6 27 15.5 78t13.5 69q12 59 26 152q18 111 23 147q2 16 9 63.5t9 69.5q2 14 6.5 54.5l6.5 58.5q4 66 4 78 q0 20 -4.5 36.5t-8.5 20.5t-12 8q-4 2 -16 2q-2 0 -27 -4q-20 -4 -35 -8l-41 -12z" />
<glyph unicode="s" horiz-adv-x="710" d="M-4 98q0 8 12 31q8 14 29 43q12 18 32.5 34.5t28.5 16.5t15 -12q4 -6 8 -13.5t10 -17.5l29 -41q18 -25 39 -41q25 -18 57 -30q35 -12 76 -13q37 0 67 13q20 8 54 36q27 25 39 54q12 31 12 65q0 37 -17 70q-18 37 -41 57q-31 29 -61 47q-14 10 -74 39q-55 27 -90 49 q-31 20 -57 52q-20 23 -31 55q-10 31 -10 61q0 63 31 115q33 53 79 90q47 35 111 57q59 20 119 21q52 0 86 -12q39 -14 61 -27q6 -4 47 -33q20 -14 41 -20l-39 -41q-12 -12 -36 -33q-20 -18 -31 -22q-12 -6 -21 -7q-14 0 -28 17q-14 18 -33 39q-10 12 -43 37q-25 18 -57 18 q-25 0 -56 -10q-23 -8 -47 -28.5t-35 -45.5q-14 -33 -14 -59q0 -35 33 -74q31 -37 115 -76q35 -16 81 -45q43 -27 74 -57q33 -33 53.5 -74t20.5 -94q0 -72 -35 -129q-37 -61 -92 -105q-66 -51 -123 -71q-68 -25 -133 -25q-39 0 -92 14q-47 12 -82 33q-37 23 -60 47 q-22 27 -22 45z" />
<glyph unicode="t" horiz-adv-x="628" d="M59 846l101 59h71l7 35q6 40 12 68q4 23 16 45q9 18 19 30q6 8 22 21l101 72l28 -25q0 -2 -14 -33q0 -2 -6 -21.5l-10 -33.5q-14 -55 -21 -100l-8 -58h248l20 -28q-10 -16 -27 -31l-36 -31q-12 -10 -37 -27l-27 -18q-4 10 -16 23q-6 6 -29 14q-6 2 -45 6q-18 2 -63 2h-3 l-71 -459q-2 -12 -6 -40.5t-4 -41.5q0 -6 -1 -18t-1 -18v-27q0 -59 22 -92q20 -29 51 -29q41 0 86 14q55 16 125 50l17 -37q-49 -37 -99 -68q-25 -16 -92 -49q-43 -22 -80 -31q-41 -10 -57 -10q-27 0 -47 14q-23 16 -41 43q-16 27 -27 64q-10 41 -10 80v39q0 6 2 18t2 21 q0 14 4 43q2 14 6 51l76 483h-143z" />
<glyph unicode="u" horiz-adv-x="1021" d="M39 840l84 37q43 18 80 30l63 21q25 8 39 8q31 0 39 -18q10 -20 10 -66q0 -29 -6 -76q-10 -82 -14 -102q-4 -31 -10.5 -63.5l-10.5 -53.5q-8 -47 -18 -117q-4 -20 -14 -102q-6 -47 -7 -76q0 -98 21 -139q20 -43 57 -43q16 0 54 20q27 14 73 62q41 41 92 114 q57 82 103 170q6 43 14 86q6 35 14 86q0 6 5.5 34t7.5 42q4 49 4 66q0 29 -2 37q-4 16 -8 20q-6 6 -10.5 8t-16.5 2q-4 0 -24.5 -4t-30.5 -8q-25 -8 -39 -12l-15 37l82 37q33 14 76 30q12 4 32.5 11.5t29.5 9.5q23 8 38 8q28 0 37 -18q8 -16 9 -66q0 -29 -7 -76 q-10 -82 -14 -102q-12 -74 -20 -115q-6 -31 -21 -117q-4 -25 -14 -106q-6 -49 -6 -82q0 -86 14 -135q12 -43 37 -43q27 0 53 6q16 4 62 22l14 -36q-70 -47 -137 -82q-53 -27 -95 -27q-20 0 -38.5 18.5t-30.5 57.5q-12 40 -19 104q-3 32 -3 71t3 87q-40 -74 -86 -135 q-51 -68 -94 -109q-47 -45 -100 -69q-51 -25 -107 -25q-18 0 -45 16q-31 20 -49 45q-20 31 -37 78q-16 49 -16 107q0 29 6 76q2 8 5 43.5t7 56.5l18.5 108.5l18.5 108.5q4 16 14 96q4 29 5 66q0 29 -2 37q-4 16 -9 20q-2 2 -14 8q-4 2 -16 2q-2 0 -27 -4q-16 -2 -33 -8 l-43 -12z" />
<glyph unicode="v" horiz-adv-x="911" d="M16 840q20 8 80 37q33 16 72 30q12 4 32.5 11.5t22.5 9.5q23 8 37 8q15 0 25 -6q12 -8 20 -23q4 -8 17 -39q8 -23 18 -59q2 -8 18 -82q12 -55 25 -123l25 -143l12 -70l12 -69q2 -16 8 -56.5t9 -56.5q6 -45 6 -59q86 139 131 227q57 113 92 192q45 106 57 144q18 57 19 84 q0 23 -17 30q-20 10 -45 11q-8 0 -36.5 -4.5t-43.5 -10.5l-18 35q8 4 61 29q12 6 35 14l29 10q33 12 57 19q27 6 43 6q37 0 55.5 -18.5t18.5 -65.5q0 -27 -23 -94q-25 -76 -71 -166q-61 -121 -135 -248q-78 -137 -207 -342l-21 -10l-24 -12q-6 -4 -13.5 -6.5l-13.5 -4.5 q-16 -8 -23 -10l-32 31q-2 16 -4 35.5t-6.5 46t-6.5 43.5q-10 70 -22 143l-25 148q-12 74 -24 139q-20 111 -23 117q-16 74 -20 83q-12 35 -17 43q-9 15 -18 24.5t-19 12.5q-6 2 -18 2q-6 0 -26.5 -4t-30.5 -8q-12 -4 -41 -12z" />
<glyph unicode="w" horiz-adv-x="1288" d="M4 840q20 8 80 37q29 14 70 30l53 21q23 8 37 8q29 0 43 -33q8 -18 30 -104l7.5 -39l7.5 -39q4 -18 9 -60.5t7 -52.5q4 -23 9 -66.5t8 -62.5q8 -68 14 -129q2 -14 6 -53t6 -57q3 -49 6 -74q25 49 82 170q41 86 76 186q41 115 59 183q23 78 29 159q2 0 13.5 11.5 t19.5 15.5q31 20 35 22l32 17q14 6 27 6q4 0 10 -16q6 -15 13 -43l6 -25q6 -25 8 -39q2 -12 7 -35.5t7 -36.5l15 -73q6 -37 12 -68q0 -4 16 -104q6 -29 10.5 -58.5t8.5 -58.5l18 -121q6 -41 14 -111q94 176 123 242q46 104 74 184q25 70 35 134q10 61 10 92q0 20 -14 32 q-16 12 -41 13q-6 0 -35 -4q-10 -2 -41 -11l-18 37q29 18 65 33q8 2 26.5 10.5t28.5 12.5q16 6 41 10q4 0 10.5 1t9.5 2t5 1q23 0 33 -2q18 -4 26 -10q12 -9 19 -25q6 -14 6 -39q0 -39 -4 -61q-6 -37 -19 -84q-8 -37 -38 -115q-41 -106 -62 -151l-94 -197 q-78 -158 -129 -250l-21 -10l-24 -12q-4 -2 -12.5 -5.5t-12.5 -5.5q-16 -8 -22 -10l-33 31l-8 59.5l-8 61.5q-4 25 -6.5 46l-4.5 38.5t-6 48.5l-20 135q-4 27 -11.5 71t-9.5 54q-8 51 -18 106q-9 49 -19 80q0 -14 -14 -63l-31 -101l-47 -123l-24.5 -59l-32.5 -76 q-20 -45 -66 -135q-23 -45 -67 -123l-9.5 -5t-11.5 -7q-12 -6 -26.5 -14.5t-28.5 -14.5q-16 -8 -23 -10l-32 31q0 6 -6.5 52t-8.5 73q-4 35 -7 70.5t-7 70.5l-16 145l-7.5 65.5t-9.5 72.5q-2 12 -7 55t-9 63q-14 80 -17 88q-6 31 -14 43q-9 15 -18 25q-8 8 -21 12 q-6 2 -18 2q-4 0 -24.5 -4t-33 -8t-41.5 -12z" />
<glyph unicode="x" horiz-adv-x="899" d="M-29 -6q46 40 99 92l108 113q27 27 107 116l98 113l-57 150q-29 76 -56 127q-18 39 -55 88q-25 35 -49 34l-29 -4q-14 -2 -43 -10q-25 -6 -53 -12l-14 39q68 29 79 34l72 33q10 4 28.5 10.5t26.5 10.5q18 8 33 8q27 0 56 -35q31 -39 57 -90q23 -43 57 -129l62 -150 l80 101q4 6 67 94q31 43 49.5 73.5t18.5 37.5q0 12 -2 18q-2 8 -14.5 12t-28.5 4q-31 0 -52 -2l-2 41q39 10 117 19q51 6 76 6q47 0 67 -16q18 -15 19 -37q0 -23 -23 -54q-37 -51 -69 -88l-115 -127l-156 -170l56 -139q10 -27 53 -117q20 -43 51 -82q25 -31 49 -30 q12 0 54 8q31 6 67 25l17 -37q-43 -31 -76 -52q-43 -29 -60 -34q-45 -20 -47 -21q-23 -6 -41 -6q-31 0 -61 31q-25 25 -60 84q-20 33 -59 121q-20 45 -57 143l-54 -70l-61 -82l-70 -94q-37 -49 -71 -102q-41 -6 -82 -13q-47 -6 -84 -18z" />
<glyph unicode="y" horiz-adv-x="925" d="M-180 -449q0 14 8 33t25 45q15 25 30 43q18 20 31 27l41 -25q25 -12 35 -14q20 -4 33 -4h32q84 0 160 78q84 86 162 223q-8 45 -25 129l-33 152l-36 153q-20 86 -37 146q-18 68 -37 122q-20 61 -33 86q-18 45 -39 66q-16 16 -33 16q-6 0 -26 -4q-25 -4 -33 -8 q-25 -8 -39 -12l-12 37q23 8 80 37q39 18 69 30q8 4 26.5 10.5t27.5 10.5q18 8 34 8q15 0 25 -6q12 -8 20 -23q10 -16 19 -39l22 -59q31 -94 41 -127l45 -160q4 -18 20.5 -79.5l25.5 -96.5q33 -139 40 -180l64 127l63 131q37 76 56 121l45 108q25 66 31 84q10 31 10 54 q0 49 -53 53h-7q-29 0 -84 -23l-18 37q61 37 127 60q55 18 88 18q23 0 33 -2q14 -2 24 -10q12 -9 19 -25q6 -14 6 -39q0 -37 -19 -88q-27 -76 -59 -143l-110 -221l-164 -326q-72 -139 -133 -238q-70 -111 -138 -184q-72 -78 -145.5 -119t-161.5 -41q-37 0 -55 4 q-31 6 -47.5 12.5t-30.5 16.5q-10 8 -10 18z" />
<glyph unicode="z" horiz-adv-x="774" d="M-4 2q88 111 104 133l107 148l106 153l101 146q80 115 86 123q31 43 69 90h-301q-20 0 -41 -4q-14 -4 -30 -19q-10 -10 -25 -39q-8 -16 -27 -67l-39 8q20 96 37 155l27 107q4 -2 18.5 -5t22.5 -7q18 -8 57 -9h488l20 -30q-80 -84 -147 -176l-129 -179l-127 -184 q-72 -104 -144 -196q4 4 27 10q25 6 55 6q16 0 54 -10q16 -4 34.5 -9.5l38.5 -11.5q53 -16 82 -22q39 -8 78 -9q14 0 23 2q12 4 26 15q20 16 35 33q6 8 37 59l35 -20q-31 -68 -49 -103q-25 -45 -46 -65q-25 -25 -57 -35q-35 -10 -80 -10q-47 0 -94 10q-6 2 -82 24l-74 23 q-41 10 -67 10q-20 0 -33 -4q-4 -2 -39 -16q-22 -9 -49 -25l-66 -33z" />
<glyph unicode="{" horiz-adv-x="638" d="M102 633q114 31 179 92q63 59 75 137q6 39 6 70v51q0 31 -2 45t-2 43v53q0 31 7 70q23 137 114 236q98 104 244 169l18 -47q-37 -23 -75 -55q-35 -29 -64 -67q-33 -43 -49 -82t-27 -97q-6 -39 -6 -96q0 -23 4 -68q2 -23 2 -69q0 -45 -8 -96q-6 -47 -22 -82 q-16 -37 -43 -76q-23 -35 -62 -64q-43 -33 -78 -47q43 -8 74 -32q28 -22 43 -56t19 -80q2 -45 -7 -100q-10 -66 -20 -102q-8 -29 -25 -78q-6 -18 -11 -38t-11 -38q-12 -37 -19 -86q-6 -37 -6 -98q0 -37 15 -76q10 -31 41 -64q33 -35 71 -59l-28 -61q-61 29 -123 71 q-49 35 -82 84q-27 41 -37 103q-9 58 0 129q10 66 20 98l10.5 32.5t12.5 41.5l24 75q10 33 21 103q12 82 -20.5 123t-102.5 41h-18h-11q-2 0 -6 -1t-6 -1q-4 0 -20 -4z" />
<glyph unicode="|" horiz-adv-x="409" d="M43 -311l262 1861q10 8 29.5 18.5t21.5 10.5q14 8 52 20l30 -22l-262 -1862q-18 -14 -49 -28l-55 -23z" />
<glyph unicode="}" horiz-adv-x="638" d="M-82 -266q37 23 76 55q35 29 63 68q29 37 47 82q20 49 27 96q8 53 8 67v52q0 31 -2 45t-2 45v53q0 28 6 68q8 49 23 81q23 49 43 74q33 41 61 64q35 29 78 47q-43 8 -74 33q-27 20 -43 57q-16 35 -18 78q-4 47 6 102q10 63 21 100q2 6 10 36l12 44q16 49 23 74 q16 61 18 86q8 49 8 98q0 39 -14 78q-12 35 -41 64q-33 33 -74 57l31 61q76 -35 125 -71q51 -37 80 -82q29 -43 39 -103q8 -49 -2 -129q-10 -66 -21 -98q-2 -6 -10 -32.5t-12 -41l-11.5 -41t-11.5 -36.5q-10 -35 -20 -101q-12 -80 18 -123q29 -41 102 -41h19h10q2 0 6 1t6 1 l21 5l8 -56q-114 -31 -178 -92q-63 -61 -76 -137q-6 -41 -6 -70v-51q0 -29 2 -43t2 -43v-53q0 -31 -6 -70q-10 -72 -39 -127q-33 -61 -76 -110q-37 -43 -108 -93q-66 -45 -135 -77z" />
<glyph unicode="~" horiz-adv-x="980" d="M90 502q20 43 64 102q39 55 79.5 96t88 70t90.5 29q41 0 84 -25q39 -23 82 -55q40 -31 79 -55q39 -25 76 -25q45 0 90 39t97 121l45 -25q-27 -47 -66 -102q-45 -63 -78 -97q-43 -43 -88 -69q-47 -29 -90 -29q-40 0 -80 25q-51 31 -81.5 55.5t-82.5 54.5q-40 25 -80 25 q-49 0 -90 -39q-47 -45 -94 -123z" />
<glyph unicode="&#xa1;" horiz-adv-x="409" d="M-51 -512l194 1022q14 10 35 22l10.5 5.5t14.5 6.5t14 5l25 -21l-84 -970l-16.5 -10.5t-20.5 -14.5t-22.5 -14t-22.5 -13l-47 -26q-18 -10 -43 -17zM111 748q0 27 10 63q6 23 31 59q14 20 47 43q25 16 59 17q43 0 64 -27q23 -29 22 -72q0 -31 -12 -61q-16 -41 -31 -57 q-25 -29 -47 -43q-25 -16 -59 -17q-41 0 -62 27q-22 29 -22 68z" />
<glyph unicode="&#xa2;" horiz-adv-x="821" d="M104 471q0 72 15 135q16 74 45 133q35 72 82 125q55 63 125 109q18 12 63 33q23 10 72 26l20 154q4 2 7.5 5t6.5 6t5 3q8 4 10 6t5 3q3 2 5 1q6 4 21 7l20 -23l-20 -143q10 2 28 2q6 0 14.5 1t12.5 1q41 0 78 -17q34 -15 61 -37l49 -40q23 -20 35 -25q-16 -12 -41 -33 l-39 -35q-25 -20 -34 -26q-16 -10 -28.5 -10.5t-21.5 14.5q-4 6 -14 19.5t-12 17.5q-12 18 -41 38.5t-62 26.5l-98 -723q10 0 43 8q31 8 55 23q66 39 74 45q33 23 92 72q2 -2 7.5 -10.5t9.5 -12.5q2 -2 14 -20l-100 -86q-25 -23 -82 -60q-31 -20 -68 -39q-16 -8 -59 -22 l-19 -141q-8 -8 -16 -13q-2 -2 -6 -4t-6 -4t-6.5 -2t-6.5 -2q-4 -2 -20 -6l-19 22l19 138h-12q-14 0 -52 8q-23 4 -57 22q-25 12 -57 45q-28 28 -49 68q-25 45 -35 92q-13 55 -13 125zM250 510q0 -59 10 -94q14 -49 31 -80q18 -35 47 -59.5t57 -36.5l99 706 q-58 -15 -105 -61q-43 -43 -76 -109q-33 -63 -47 -133q-16 -76 -16 -133z" />
<glyph unicode="&#xa3;" horiz-adv-x="821" d="M-43 18l55 48q23 20 43 47q14 20 33 59q12 27 27 84q6 23 18 117q2 14 17 164h-103l-14 24q8 20 12 33q6 20 14 33h99q16 158 49 256q37 115 92 190q57 78 137 121q76 41 185 41q31 0 45 -2q10 -2 45 -10q6 -2 53 -21q29 -10 70 -37q-2 -6 -6.5 -28.5t-8.5 -34.5 q-12 -49 -18 -76q-4 -16 -11.5 -40.5t-9.5 -31.5q-10 -41 -18 -55h-43q4 125 -43 180q-47 57 -135 58q-25 0 -49 -7q-29 -8 -50 -22q-25 -18 -45 -51q-18 -29 -39 -90q-18 -55 -30 -140q-12 -82 -19 -200h228l18 -23l-33 -67h-217q-6 -59 -22 -131q-14 -61 -37 -119 t-49 -103q-31 -51 -56 -84q61 6 105 6q51 0 73 -2l72 -4q37 -2 84 0q43 0 74 6q35 6 55 23q29 20 47 51q29 47 51 92l37 -18l-11 -43t-9 -39q-4 -16 -12.5 -43t-8.5 -31q-8 -31 -18 -57q-4 -12 -12 -41q-45 -25 -101 -29q-49 -2 -116 4q-59 6 -125 19q-45 8 -127 16 q-55 6 -123 -2q-53 -6 -107 -39z" />
<glyph unicode="&#xa4;" horiz-adv-x="821" d="M104 344l111 107q-35 70 -22 149q4 41 22 86q12 31 39 70l-86 110l6 33q16 12 35 14q14 2 35 11l80 -107q37 25 73.5 37t71.5 12t70 -14q29 -10 57 -37l109 107h30l19 -66l-111 -104q16 -29 22.5 -74t2.5 -78q-12 -88 -64 -151l86 -113l-2 -35l-72 -20l-79 104 q-63 -45 -142 -45q-40 0 -73 12q-31 10 -58 35l-110 -106l-29 2q-4 14 -10 30q-9 21 -11 31zM279 600q-2 -27 4 -61q6 -33 24 -54q18 -22 43 -36q23 -14 58 -15q31 0 65 15q27 10 51.5 34.5t38.5 53.5q10 20 19 65q4 35 -2 62q-4 20 -25 53q-14 23 -41 39q-23 14 -59 14 q-35 0 -66 -12q-27 -10 -53 -37q-20 -20 -37 -53q-18 -35 -20 -68z" />
<glyph unicode="&#xa5;" horiz-adv-x="821" d="M23 1196q6 2 20 6t31 8l55 13q37 8 53 10q33 4 41 4q20 0 43 -39q18 -31 41 -76q4 -10 41 -92q8 -18 21.5 -54t19.5 -48q23 -55 37 -101l29 -94q18 -61 20 -76l268 457q16 27 -4 41q-22 15 -80 25l7 41h311l-4 -41q-43 -10 -86 -27q-27 -10 -45 -39l-340 -590v-12h209 l16 -25l-27 -65h-211l-36 -311q-3 -12 24 -31q29 -18 96 -37l-4 -43h-387l6 43q80 20 105 35q31 18 33 33l39 311h-213l-15 24l25 66h213l4 23q-6 25 -43 151q-23 78 -55 162l-62 151q-25 57 -59 119q-9 15 -18.5 24.5t-24.5 12.5q-20 4 -35 4q-10 0 -51 -4z" />
<glyph unicode="&#xa6;" horiz-adv-x="409" d="M39 -311l113 800q18 12 55 29t55 23l33 -25l-115 -801q-16 -10 -24 -14l-14.5 -7l-14.5 -7l-33 -13l-26 -10zM184 737l115 813q14 10 57 29q18 8 56 20l30 -22l-112 -811q-10 -10 -25 -16l-31 -13l-30 -12q-16 -6 -29 -10z" />
<glyph unicode="&#xa7;" horiz-adv-x="864" d="M133 86q4 41 8 68q4 20 17 77q9 40 18 62l37 -10q-2 -39 10 -82q10 -35 37 -68q20 -27 64 -47q37 -18 86 -18q63 0 110 34q46 34 55 105q6 43 -8 69q-12 23 -45 52q-23 20 -65 45q-25 14 -74 47q-66 43 -98 72q-43 37 -70 77.5t-39 92.5q-12 47 -2 112q6 43 21 72 q16 37 36 65q25 35 48 56q18 16 55 41q-29 47 -37 88q-10 51 -2 104q8 55 39 107q27 45 69 75q35 25 93 43q45 14 100 15q28 0 61 -6q23 -4 64 -21q33 -14 57 -27q25 -14 41 -32q4 -4 -2 -29q-6 -18 -18 -45q-16 -33 -25 -47l-20 -31l-33 8q-37 76 -76 107q-41 33 -86 33 q-57 0 -96 -29q-35 -27 -45 -82q-6 -37 2 -63q9 -28 31 -56q16 -23 55 -53q37 -29 78 -57q16 -10 33.5 -23.5l37 -28l29.5 -22.5q43 -33 76 -74q35 -45 45 -88q12 -53 4 -119q-12 -88 -53 -151.5t-86 -95.5q18 -23 28 -64q8 -33 2 -82q-8 -66 -34 -119q-25 -49 -58 -82 q-31 -31 -71 -51q-33 -16 -74 -26q-39 -10 -66 -13q-20 -2 -47 -2q-33 0 -100 25q-53 18 -113 59q-6 4 -4 33zM299 821q-6 -41 4 -80q8 -35 37 -69q20 -27 72 -66l104 -78q12 -8 22.5 -14t22.5 -12q14 -8 43 -29q35 25 53 51q16 25 25 70q6 51 -4 84q-12 37 -41 72 q-23 29 -78 71q-31 25 -110 78q-35 20 -68 53q-20 -6 -31 -20q-18 -25 -24 -35q-16 -35 -19 -39q-2 -10 -8 -37z" />
<glyph unicode="&#xa8;" horiz-adv-x="1040" d="M319 1176q0 25 11 55q8 23 26.5 49.5t38.5 38.5q23 14 51 14q31 0 50 -18q16 -16 16 -53q0 -31 -8 -56q-9 -28 -25 -49q-16 -23 -38.5 -37t-53.5 -14t-49.5 18.5t-18.5 51.5zM692 1176q0 25 10 55q9 28 25 49q16 23 39 39q20 14 51 14q33 0 51.5 -18.5t18.5 -52.5 q0 -25 -10 -56q-9 -28 -25 -49q-14 -20 -41 -37q-23 -14 -51 -14q-31 0 -49.5 18.5t-18.5 51.5z" />
<glyph unicode="&#xa9;" horiz-adv-x="1359" d="M94 526q0 90 23 187q20 88 65 178q41 80 105 158q59 70 137 127q72 51 166 84q90 31 188 30q111 0 205 -41t160 -112q61 -68 100 -172q37 -98 37 -213q0 -90 -23 -191q-23 -96 -63 -180q-51 -102 -102 -164q-63 -76 -138 -129q-84 -61 -166 -88q-92 -31 -194 -31 q-115 0 -207 43q-94 43 -158 117q-66 76 -100 178q-35 104 -35 219zM172 545q0 -101 31 -191q31 -88 86 -155q49 -61 137 -105q78 -39 180 -39q90 0 164 27q82 29 143 74q70 49 119 110q55 70 90 137q35 70 58 154q20 76 20 162q0 101 -30.5 190t-86.5 154q-57 66 -135 102 q-84 39 -180 39q-90 0 -164 -26.5t-143.5 -73.5t-118.5 -109q-61 -76 -92 -137q-35 -70 -57 -153q-21 -76 -21 -160zM336 526q0 66 10 115q10 47 39 113q25 57 68 108q43 53 108 103q16 14 53 32q39 18 66 27q23 6 68 14q34 6 61 6q45 0 74 -14q35 -18 55 -33q12 -10 43 -34 q23 -18 33 -21l-72 -47q-35 -23 -57 -23q-10 0 -23 15q-4 6 -16 16t-17 15q-6 6 -45 30q-23 14 -59 15q-41 0 -78 -19q-35 -18 -65 -51q-33 -37 -52 -74q-31 -61 -38 -86q-12 -33 -23 -90q-8 -41 -8 -84q0 -57 16 -98q16 -39 47 -78q27 -33 68 -51q35 -16 80 -17q15 0 37 7 q25 6 51 20q35 16 69 39q18 12 89 63q2 -4 8 -10t8 -10q2 -2 6 -8t6 -8q-49 -43 -125 -97q-51 -35 -96 -55q-51 -23 -76 -27q-35 -6 -69 -6q-31 0 -72 15q-47 16 -82 48.5t-64 92.5q-26 55 -26 147z" />
<glyph unicode="&#xaa;" horiz-adv-x="585" d="M59 606q2 4 5.5 13.5t5.5 13.5q8 16 12 26h448l19 -24q-6 -15 -12 -25q0 -2 -11 -24h-450zM106 897q0 90 39 162q41 76 117 127q20 12 33 18l35 17l37 12q25 4 34 4q25 0 43 -10q23 -12 37 -23q14 12 56 33l10 -20q-6 -4 -15 -13q-10 -10 -12 -14q-8 -14 -8 -19 q-4 -16 -6 -28q-6 -27 -14.5 -80l-12.5 -78q-4 -20 -8 -63q-2 -18 -2 -39q0 -61 6 -86q6 -23 19 -23q14 0 24 2q15 3 37 12l8 -20q-63 -39 -76 -43q-31 -12 -45 -12q-9 0 -18 6q-10 6 -16 24q-8 23 -11 52q-4 45 -4 84q-2 -4 -13 -23.5t-20 -30.5q-25 -37 -43 -55 q-27 -27 -49 -41q-27 -16 -47 -16q-14 0 -39 10q-14 6 -37 33q-14 16 -28 55q-11 29 -11 86zM180 938q0 -68 23 -113q20 -41 53 -41q10 0 31 17q12 10 39 41q14 16 39 57q31 51 36 64l9 51l8 53q2 8 5 23.5t3 21.5q2 14 6 31q-25 16 -39 24q-20 12 -47 13q-35 0 -67 -27 q-31 -25 -54 -63q-20 -35 -32.5 -78t-12.5 -74z" />
<glyph unicode="&#xab;" horiz-adv-x="880" d="M57 414q4 25 6 35q2 8 3 22q0 10 4 14l372 404l33 -29l-10 -18l-29 -45l-43 -68l-47 -74l-47 -75l-43 -68l-29 -45l-10 -16l148 -414l-41 -31zM385 414q4 25 6 35q4 16 4 22q0 12 2 14l373 404l35 -29l-12 -18l-29 -45l-43 -68l-47 -74l-47 -75l-43 -68l-29 -45l-10 -16 l147 -414l-41 -31z" />
<glyph unicode="&#xac;" horiz-adv-x="821" d="M51 530l19 43l22 45h647l23 -22l-37 -272q-16 -12 -47 -29q-18 -10 -51 -23l-21 25l31 209h-567z" />
<glyph unicode="&#xad;" horiz-adv-x="638" d="M43 479q12 29 20 43q4 6 11.5 20.5l11.5 22.5h475l19 -24q-12 -29 -21 -45l-20 -41h-478z" />
<glyph unicode="&#xae;" horiz-adv-x="702" d="M141 1083q8 68 41 136q31 63 78 110q46 46 105 74q55 27 122 27q63 0 115 -27q49 -27 84 -74t47 -110q12 -61 2 -136q-8 -68 -41 -135q-31 -63 -76 -108t-106 -74t-123 -29q-63 0 -114.5 29t-84 74t-45.5 108q-12 67 -4 135zM195 1083q-10 -63 2 -112q12 -55 39 -92 q31 -43 69 -64q45 -23 96.5 -22.5t100.5 23t86 63.5q37 40 61 92q23 49 33 112q10 61 -2 113q-12 55 -39 92q-27 39 -70 64q-39 23 -98 22q-57 0 -100 -22q-49 -27 -84 -64q-37 -40 -62 -92q-22 -47 -32 -113zM276 887l3 18q37 8 40 19l46 325l-39 -6l2 31q37 8 57.5 12 t65.5 4q37 0 59 -8q27 -10 39 -22q16 -16 22 -35q6 -20 4 -39q-6 -43 -36 -74q-27 -27 -70 -37l72 -141q6 -12 14 -12q16 0 31 6l4 -19l-4 -2q-6 -2 -12.5 -5l-13.5 -6t-13 -5q-25 -10 -31 -10q-10 0 -16 6q-4 4 -8 12l-72 170h-2q-10 0 -27 4l-20 -149q-2 -4 7 -9.5 t28 -9.5l-3 -18h-127zM395 1110q4 -2 13 -2h12q47 0 69.5 14.5t28.5 55.5q2 14 0 28q-2 10 -12 25q-10 12 -27 18q-18 6 -43 6h-10h-10z" />
<glyph unicode="&#xaf;" horiz-adv-x="800" d="M219 1182q2 6 10 22l13 29q2 6 7 15t7 12q8 16 12 22h547l19 -25q-2 -10 -9 -24l-7 -14.5l-7 -14.5q-8 -14 -14 -26q-4 -8 -13 -21h-548z" />
<glyph unicode="&#xb0;" horiz-adv-x="626" d="M178 918q0 63 29 124q27 55 72 101q41 41 94 67q49 25 94 25q29 0 57 -12q23 -10 47 -35q16 -16 31 -51q12 -31 12 -64q0 -47 -14 -88q-16 -47 -39 -78q-29 -39 -53 -61q-31 -27 -64 -47q-41 -25 -61 -31q-27 -8 -57.5 -8t-59.5 12q-31 14 -47 33q-23 27 -31 51 q-10 31 -10 62zM285 967q0 -31 4 -45q6 -25 14 -37q9 -15 25 -25q14 -8 34 -8q37 0 62 16q33 23 47 43q20 31 29 58q10 35 10 59q0 47 -23 82q-20 33 -59 33q-29 0 -51 -15q-29 -18 -47 -38q-20 -23 -33 -56q-12 -30 -12 -67z" />
<glyph unicode="&#xb1;" horiz-adv-x="768" d="M20 154l19 45q2 6 10 22.5l12 24.5h586l19 -25q-6 -18 -9 -22l-10 -27q-2 -4 -5 -11t-5 -11l-10 -21h-588zM90 659l19 46l22 45h234l38 272q6 2 48 14l49 15l20 -25l-39 -276h236l18 -25q-6 -18 -8 -23l-10 -24q-2 -4 -5 -11.5t-5 -11.5l-11 -20h-231l-39 -268 q-12 -8 -20 -11q-4 0 -13.5 -4t-13.5 -4t-13.5 -4t-13.5 -4t-11 -1t-11 -3l-21 20l39 279h-239z" />
<glyph unicode="&#xb2;" horiz-adv-x="575" d="M45 662q98 84 211 192q92 88 135 145q51 68 71.5 111t20.5 84q0 45 -26 66q-29 23 -80 22q-29 0 -47 -8q-14 -6 -35 -27q-15 -15 -24.5 -36.5t-12.5 -43.5q-22 -12 -49 -18q-37 -8 -55 -10l-17 18q6 29 31 64q23 33 65 61q45 31 89 47q55 20 102 21q41 0 72 -9 q39 -10 57 -24q25 -18 37 -43q14 -29 14 -62q0 -35 -20 -82q-18 -43 -68 -104q-41 -51 -133 -143q-76 -76 -213 -197h252q20 0 37 16q4 4 24 35q14 27 23 49l39 -6l-35 -172h-455z" />
<glyph unicode="&#xb3;" horiz-adv-x="575" d="M37 680l26 49q23 -18 50 -33q14 -8 43 -20q20 -8 41 -12q12 -2 41 -2q47 0 81.5 14t59.5 39q23 23 37 61q12 34 12 74q0 37 -10 57q-12 27 -31 41q-20 18 -41 23q-25 6 -47 6h-12h-8l-3 -1q-2 -1 -4 -1l-6 -1q-6 -1 -10 -1l-2 47q27 6 76 22q39 12 61 33q27 23 41 49 q16 29 17 68q0 37 -23 65q-18 25 -74 25q-41 0 -69 -25q-29 -27 -27 -65q-18 -8 -55 -16q-20 -4 -58 -9l-14 21q2 25 29 53q25 29 59 51q41 27 82 41q49 16 92 17q46 0 80 -13q29 -10 55 -32q22 -18 31 -43q10 -27 10 -54q0 -37 -10 -59q-14 -33 -33 -51q-25 -25 -49 -41 q-28 -18 -61 -31q31 -3 55 -18q29 -18 43 -35q18 -23 29 -51q10 -31 10 -58q0 -59 -21 -106q-23 -53 -61 -88q-41 -39 -98 -60q-55 -20 -127 -20q-53 0 -103 20q-53 23 -104 70z" />
<glyph unicode="&#xb4;" horiz-adv-x="604" d="M172 1061l272 397l25 -6q6 -2 33 -10q12 -4 33 -12q18 -8 22 -11l14 -45l-354 -348q-18 4 -24 10z" />
<glyph unicode="&#xb5;" horiz-adv-x="1050" d="M6 -471q6 49 19 129l26 156l13.5 78l15.5 92l29 172l28 163l25 148q2 27 10 80l12 78q4 20 9 73q4 45 4 62q0 29 -2 37q-4 16 -9 20q-2 2 -14 8q-4 2 -14 2q-2 0 -27 -4q-20 -4 -35 -8l-41 -12l-14 37l84 37q43 18 80 30l34.5 11.5t30.5 9.5q25 8 39 8q28 0 37 -18 q10 -20 10 -66q0 -16 -4 -70q0 -12 -2 -25.5t-5 -30.5l-5 -28q-6 -45 -14 -92q-4 -18 -8.5 -41.5t-8.5 -48.5q-8 -57 -10 -82q-4 -49 -4 -65q0 -59 8 -101q9 -46 25 -80q12 -29 39 -51q23 -18 47 -18q37 0 78 26q43 27 88 82q43 51 94 142q6 8 15 27.5t13 27.5 q2 16 6.5 34.5t8.5 41.5l16 102q4 27 15 92q4 29 4 66q0 20 -4 65q-2 33 -13 52l20.5 8t18.5 8q10 4 22.5 7t22.5 7l45 17l45 12q4 -4 7.5 -11t5.5 -10q4 -6 8 -18l-17 -80q-4 -25 -9 -52.5t-11 -57.5q-6 -33 -11 -65t-12 -60q-14 -78 -22 -129l-14 -113q-6 -52 -7 -86 q0 -53 2 -72q4 -29 9 -41q6 -15 12 -18q8 -4 14 -4q12 0 19 2q14 6 24 14q6 6 31 39q37 49 49 70l35 -29q-51 -90 -76 -127q-37 -53 -61 -78q-29 -29 -58 -41q-23 -10 -59 -10q-86 0 -88 285q-33 -61 -70 -115q-39 -55 -73 -90q-41 -41 -76 -59q-39 -20 -80 -21 q-35 0 -64 14q-35 16 -55 41q-23 27 -45 64q-10 18 -33 84l-8 -58q-14 -92 -10 -192q4 -94 12 -160q8 -61 23 -114q12 -43 18 -58l-17.5 -6t-23.5 -10q-25 -10 -51 -23l-51 -24q-14 -6 -22.5 -10.5l-12.5 -6.5z" />
<glyph unicode="&#xb6;" horiz-adv-x="1019" d="M92 903q12 88 53 156q45 76 105 123q66 53 145 80q86 29 176 28q6 0 21.5 -1t25.5 -1q20 0 62 -4q10 -2 33.5 -3t34.5 -1q10 -2 32.5 -2t32.5 -2l87 -8t75 -8h65l-6 -43q-78 -18 -102 -31q-39 -18 -41 -31l-182 -1300q-2 -10 30 -31q23 -12 97 -31l-7 -43h-530l6 43 q78 18 103 31q39 18 41 31l96 677q-25 -4 -37 -4q-6 0 -22.5 -1t-24.5 -1q-92 0 -160 23q-76 25 -125 72q-47 45 -74 118q-22 66 -10 164zM252 938q-8 -55 0 -113q8 -51 41 -104q33 -51 84 -80q55 -31 135 -31h43l84 590q-55 6 -96 6q-59 0 -107 -20q-49 -23 -88 -57.5 t-63 -86.5q-27 -55 -33 -104zM543 -145q-2 -8 10 -18.5t20 -12.5q6 2 25 12q14 8 16 19l185 1304l-37 12q-10 2 -18.5 5.5t-16.5 5.5z" />
<glyph unicode="&#xb7;" horiz-adv-x="409" d="M104 596q0 29 13 59q16 41 30 58q25 29 48 43q25 16 59 16q37 0 59.5 -26.5t22.5 -67.5q0 -27 -10.5 -61.5t-28.5 -59.5q-18 -23 -47 -43q-25 -16 -62 -16q-41 0 -61 26q-23 29 -23 72z" />
<glyph unicode="&#xb8;" horiz-adv-x="323" d="M-127 -336q57 -27 94 -26q41 0 70 12q25 10 41 35q14 20 14 47q0 25 -22.5 41t-69.5 12q4 8 23 65q2 4 9 24t9 30l12 49q4 12 6 25.5t4 25.5l68 -2q-4 -14 -7 -35.5t-5 -30t-7.5 -24.5t-7.5 -25q53 -4 84 -30q31 -29 31 -78q0 -53 -31 -96q-33 -47 -79 -70 q-45 -23 -111 -23q-59 0 -123 35z" />
<glyph unicode="&#xb9;" horiz-adv-x="575" d="M88 608l8 41q45 6 82 13q18 4 51 14q10 4 27 14q8 6 8 15l74 456q4 33 4 39q0 12 -6 21q-3 3 -12 6q-6 2 -27 2q-10 0 -47 -4q-25 -2 -70 -13l-8 41q4 0 68 21q27 8 79 26q78 27 80 29q55 23 62 27l18 -23l-98 -628q0 -10 2 -15q4 -8 18 -14q27 -10 43 -14q28 -6 74 -13 l-6 -41h-424z" />
<glyph unicode="&#xba;" horiz-adv-x="507" d="M59 606q2 4 5.5 13.5t5.5 13.5q8 16 12 26h369l18 -24q-6 -15 -12 -25q-2 -2 -11 -24h-370zM111 920q0 78 26 143q28 68 99 123q28 22 61 37q31 14 65 14q43 0 72 -14q31 -15 49 -43q16 -27 27 -64q8 -33 8 -82q0 -41 -8 -73q-12 -49 -23 -72q-12 -29 -38 -66 q-20 -29 -54 -55q-35 -27 -61 -39q-37 -16 -66 -16q-39 0 -67 16q-28 15 -49 43q-20 27 -31 66q-10 41 -10 82zM186 948q0 -41 9 -67q9 -31 24 -56q12 -20 39 -39q20 -14 45 -14q37 0 64 25q29 27 43 59q16 41 22 76q8 53 8 74q0 82 -30 124q-33 45 -84 46q-37 0 -66 -23 q-27 -20 -43 -57q-20 -43 -24 -74q-7 -40 -7 -74z" />
<glyph unicode="&#xbb;" horiz-adv-x="880" d="M59 37l263 414q-2 8 -11 28l-13 34.5l-15 41.5l-14.5 45t-20.5 55l-37 99q-8 23 -15.5 41t-13.5 34l-10 31l41 29l264 -404v-14q0 -6 -4 -22l-4 -35l-375 -408zM387 37l262 414q-2 8 -10 28q-10 31 -27 76l-37 100l-36 99l-27 75l-12 31l43 29l264 -404l-1 -5 q-1 -5 -1 -9q0 -14 -2 -22l-4 -35l-377 -408z" />
<glyph unicode="&#xbc;" horiz-adv-x="1107" d="M133 637l4 35q51 4 68 8q27 6 41 12q16 6 20 10q6 6 6 13l50 364q4 29 4 31q0 10 -7 16q-2 2 -10 7h-20q-23 0 -37 -3q-4 0 -57 -10l-7 33q8 2 26.5 8t27.5 8q41 12 63 21l62 24q41 16 49 21l14 -16l-68 -504q0 -6 3 -10q2 -6 16 -13q10 -6 35 -12q16 -4 59 -8l-4 -35 h-338zM137 0l850 1202l41 19q14 6 43 14l19 -29l-846 -1204q-16 -10 -43 -18q-37 -12 -45 -15zM571 180l306 383q12 4 22 9.5t23 9.5q33 12 41 16l16 -16l-49 -357h53l12 -14l-22 -27q-4 -4 -25 -20h-26l-15 -107l1 -2q1 -2 1 -4q0 -3 6 -6q14 -8 19 -8l33 -8l-4 -29h-246 l2 29q10 2 27.5 5t25.5 5l33 8q8 2 14 8q4 4 4 8l15 101h-250zM664 225h182l35 267z" />
<glyph unicode="&#xbd;" horiz-adv-x="1107" d="M133 637l4 35q51 4 68 8q27 6 41 12q16 6 20 10q6 6 6 13l50 364q4 29 4 31q0 10 -7 16q-2 2 -10 7h-20q-23 0 -37 -3q-4 0 -57 -10l-7 33q8 2 26.5 8t27.5 8q41 12 63 21l62 24q41 16 49 21l14 -16l-68 -504q0 -6 3 -10q2 -6 16 -13q10 -6 35 -12q16 -4 59 -8l-4 -35 h-338zM137 0l850 1202l41 19q14 6 43 14l19 -29l-846 -1204q-16 -10 -43 -18q-37 -12 -45 -15zM586 35l168 166q70 70 102 110q43 55 53 74q18 37 21 57q6 47 -12 72q-20 27 -70 27q-20 0 -36.5 -8.5t-29.5 -20.5q-10 -10 -22 -31q-6 -10 -10 -32q-39 -20 -84 -23l-13 12 q2 23 27 54q23 31 53 49q34 22 74 37q43 16 84 16q63 0 102 -35q39 -37 31 -102q-6 -33 -25 -66q-16 -31 -55 -76q-41 -49 -98 -102l-150 -147h197q16 0 29 12q6 6 18 26q8 14 14 39l31 -6l-24 -137h-365z" />
<glyph unicode="&#xbe;" horiz-adv-x="1107" d="M127 707l23 32q39 -31 73.5 -43t71.5 -12q55 0 98 33q40 31 49 92q6 33 -2 61q-4 18 -24 39q-14 14 -35 21q-29 8 -41 8h-12l-2 -1q-2 -1 -4 -1h-7l-12 -2l-2 37q53 14 76 26q29 14 45 33q16 16 22 33q4 10 9 31q3 15 0 30q-4 16 -13 29q-12 16 -22 21q-20 8 -39 8 q-39 0 -60 -21q-23 -23 -20 -51q-25 -12 -41 -14q-33 -4 -47 -6l-12 16q2 20 22 43q20 25 49 41q39 23 68 33q37 12 78 12q39 0 65 -12q31 -14 43 -29q14 -16 21 -43q6 -23 2 -49q-3 -18 -12 -37q-6 -12 -25 -35q-14 -16 -39 -30.5t-47 -22.5q25 -2 51 -16q25 -12 39 -33 q18 -25 23 -47q6 -25 2 -56q-6 -41 -25 -77q-16 -31 -49 -62q-31 -28 -74 -43q-41 -14 -90 -14q-45 0 -88 18q-51 23 -86 60zM137 0l850 1202l41 19q14 6 43 14l19 -29l-846 -1204q-16 -10 -43 -18q-37 -12 -45 -15zM571 180l306 383q12 4 22 9.5t23 9.5q33 12 41 16l16 -16 l-49 -357h53l12 -14l-22 -27q-4 -4 -25 -20h-26l-15 -107l1 -2q1 -2 1 -4q0 -3 6 -6q14 -8 19 -8l33 -8l-4 -29h-246l2 29q10 2 27.5 5t25.5 5l33 8q8 2 14 8q4 4 4 8l15 101h-250zM664 225h182l35 267z" />
<glyph unicode="&#xbf;" horiz-adv-x="811" d="M-16 -285q0 80 26 154q27 72 64 121q40 52 86 98q31 31 88 96q43 49 76 103q29 47 43 127l14 96q20 18 33 25q14 8 41 18l20 -23l-2 -116q-4 -70 -26.5 -123t-61.5 -107q-37 -52 -80 -98q-29 -31 -78 -96q-31 -41 -59 -103q-25 -51 -25 -116q0 -98 43 -151.5t131 -53.5 q43 0 74 18q33 20 51 54q23 41 27 73q6 47 -2 90q6 2 18.5 8.5t18.5 8.5q18 8 33 10q4 0 16 3t18.5 5t19.5 3t19 1l21 -30q0 -61 -29 -125q-27 -57 -80 -109q-55 -51 -125 -78q-76 -29 -166 -28q-59 0 -110 20q-45 18 -76 51q-29 31 -45 78q-16 45 -16 96zM352 750 q0 27 10 61q8 25 31 59q16 23 45 43q25 16 62 17q41 0 61 -27q23 -29 23 -72q0 -33 -11 -59q-14 -37 -32 -57q-22 -25 -49 -43q-25 -16 -58 -17q-37 0 -59 25q-23 27 -23 70z" />
<glyph unicode="&#xc0;" horiz-adv-x="1146" d="M-35 0l6 43q61 12 101 25q37 12 51 43l487 1118q12 12 31 24l37 25q18 12 37 22q6 4 16 9.5t14 7.5l216 -1206q4 -18 8 -25q8 -12 16 -18q10 -8 33 -15q27 -8 53 -10l-4 -43h-385l4 43q74 6 102 20q31 16 25 48l-57 333h-385l-144 -333q-16 -33 17 -45q35 -14 106 -23 l-6 -43h-379zM410 535h329l-94 544zM400 1589l12 47q2 2 6 5t9 6t9 5q2 2 14.5 9.5t18.5 11.5q18 10 35 18q8 4 16.5 9t14.5 8l311 -316q-14 -20 -22 -29q-12 -12 -23 -18z" />
<glyph unicode="&#xc1;" horiz-adv-x="1146" d="M-35 0l6 43q61 12 101 25q37 12 51 43l487 1118q12 12 31 24l37 25q18 12 37 22q6 4 16 9.5t14 7.5l216 -1206q4 -18 8 -25q8 -12 16 -18q10 -8 33 -15q27 -8 53 -10l-4 -43h-385l4 43q74 6 102 20q31 16 25 48l-57 333h-385l-144 -333q-16 -33 17 -45q35 -14 106 -23 l-6 -43h-379zM410 535h329l-94 544zM545 1392l391 316l23 -17l27 -18q6 -4 28 -21q8 -6 19 -16v-47l-455 -244q-10 6 -18 18q-7 9 -15 29z" />
<glyph unicode="&#xc2;" horiz-adv-x="1146" d="M-35 0l6 43q61 12 101 25q37 12 51 43l487 1118q12 12 31 24l37 25q18 12 37 22q6 4 16 9.5t14 7.5l216 -1206q4 -18 8 -25q8 -12 16 -18q10 -8 33 -15q27 -8 53 -10l-4 -43h-385l4 43q74 6 102 20q31 16 25 48l-57 333h-385l-144 -333q-16 -33 17 -45q35 -14 106 -23 l-6 -43h-379zM410 535h329l-94 544zM426 1390l275 301h92l193 -301l-13.5 -17.5t-9.5 -11.5q-6 -10 -23 -16l-215 205l-266 -205q-10 6 -16 16q-13 17 -17 29z" />
<glyph unicode="&#xc3;" horiz-adv-x="1146" d="M-35 0l6 43q61 12 101 25q37 12 51 43l487 1118q12 12 31 24l37 25q18 12 37 22q6 4 16 9.5t14 7.5l216 -1206q4 -18 8 -25q8 -12 16 -18q10 -8 33 -15q27 -8 53 -10l-4 -43h-385l4 43q74 6 102 20q31 16 25 48l-57 333h-385l-144 -333q-16 -33 17 -45q35 -14 106 -23 l-6 -43h-379zM410 535h329l-94 544zM402 1400q29 53 47 80q33 47 57 72q35 35 68 51q37 18 73.5 18.5t61.5 -16.5q39 -25 51 -37l23.5 -20l21.5 -19q18 -16 41 -16q34 0 74 31q39 31 78 88l45 -21q-22 -40 -49 -80q-33 -47 -58 -71q-37 -37 -65 -51q-37 -18 -76 -19 q-35 0 -57 16q-33 25 -49 39l-46 37q-23 16 -51 17q-33 0 -69 -31q-27 -23 -78 -88z" />
<glyph unicode="&#xc4;" horiz-adv-x="1146" d="M-35 0l6 43q61 12 101 25q37 12 51 43l487 1118q12 12 31 24l37 25q18 12 37 22q6 4 16 9.5t14 7.5l216 -1206q4 -18 8 -25q8 -12 16 -18q10 -8 33 -15q27 -8 53 -10l-4 -43h-385l4 43q74 6 102 20q31 16 25 48l-57 333h-385l-144 -333q-16 -33 17 -45q35 -14 106 -23 l-6 -43h-379zM410 535h329l-94 544zM439 1462q0 31 8 55q8 23 26 49q16 25 41 39q23 14 51.5 14t47 -18t18.5 -53q0 -31 -8 -55q-8 -23 -27 -50q-16 -23 -38.5 -37t-51.5 -14q-33 0 -51 19q-16 16 -16 51zM811 1462q0 31 9 55q9 28 24 49q16 23 39 39q20 14 53 14 q31 0 49.5 -18t18.5 -53q0 -31 -8 -55q-8 -23 -27 -50q-16 -23 -38.5 -37t-53.5 -14t-49 19q-17 16 -17 51z" />
<glyph unicode="&#xc5;" horiz-adv-x="1146" d="M-35 0l6 43q61 12 101 25q37 12 51 43l487 1118q12 12 31 24l37 25q18 12 37 22q6 4 16 9.5t14 7.5l216 -1206q4 -18 8 -25q8 -12 16 -18q10 -8 33 -15q27 -8 53 -10l-4 -43h-385l4 43q74 6 102 20q31 16 25 48l-57 333h-385l-144 -333q-16 -33 17 -45q35 -14 106 -23 l-6 -43h-379zM410 535h329l-94 544zM555 1468q0 49 17 90q18 47 49 84q29 35 72 61q39 25 88 25q53 0 84 -37q33 -39 32 -92q0 -43 -18 -86q-23 -53 -47 -82q-29 -35 -72 -61q-40 -25 -86 -25q-25 0 -49 10q-23 10 -37 27q-16 20 -24.5 38.5t-8.5 47.5zM639 1511 q0 -35 16.5 -63.5t47.5 -28.5q23 0 47 14q18 10 35 33q14 18 20 47q8 33 8 49q0 33 -16 61.5t-45 28.5q-28 0 -49 -12q-16 -10 -35 -35q-16 -25 -23 -45q-6 -24 -6 -49z" />
<glyph unicode="&#xc6;" horiz-adv-x="1462" d="M-35 0l6 43q61 12 99 25q33 10 51 43l514 1022q8 16 0 28.5t-29 20.5q-22 9 -55 18q-12 4 -42 9t-36 8l6 43h953l22 -25q-4 -16 -12 -57q-4 -20 -16.5 -61.5t-18.5 -59.5q-10 -31 -18 -47h-41q2 31 2 77q0 29 -7 48q-6 20 -20 26q-16 8 -29 8h-327l-60 -434h365l20 -28 q-2 -2 -22 -29q-4 -6 -13.5 -16.5t-13.5 -14.5q-8 -10 -24 -26q-8 -8 -25 -21q-12 16 -27 25q-20 12 -32 16q-23 8 -48 10q-37 4 -63 4h-127l-70 -501q-4 -16 2.5 -26.5t24.5 -21.5q18 -9 55 -12q49 -4 95 -4h114q51 0 72 4q35 6 55 23q25 18 47 53q29 47 51 92l37 -18 q-31 -123 -39 -152q-14 -51 -32 -92h-777l7 43q61 14 100 31q35 14 39 30l74 551h-242l-272 -544q-14 -27 10 -43q25 -14 96 -25l-4 -43h-375zM551 735h213l55 412q0 10 -8 16q-6 4 -18 4q-10 0 -24.5 -10t-23.5 -27z" />
<glyph unicode="&#xc7;" horiz-adv-x="993" d="M76 459q0 94 18.5 192.5t57.5 188.5q43 98 100 176q61 84 145 151q70 55 158 90q84 33 178 33t168 -28q70 -29 115 -72q4 -8 -6 -23q-10 -16 -29 -37l-37 -43q-8 -8 -19.5 -18t-13.5 -12l-30 8q-35 41 -99 74q-58 31 -141 30q-41 0 -90 -18q-45 -16 -90 -51 q-63 -47 -107 -123q-51 -88 -73 -156q-31 -90 -41 -162q-12 -80 -13 -143q0 -115 29 -188q31 -80 76 -131q43 -49 102 -76q55 -25 109 -25q59 0 135 35q82 39 190 125q6 -2 9 -8q2 -2 4 -6t4 -9q0 -2 4 -6t4 -6t1 -5t3 -5q-70 -68 -127 -115q-57 -45 -115 -73 q-45 -23 -102 -37q-41 -8 -59 -11l-5.5 -22t-3.5 -16l-12 -50q51 -2 82 -30q33 -29 33 -78q0 -53 -31 -96q-33 -47 -80 -70q-45 -23 -112 -23q-57 0 -121 35l-2 39q57 -27 94 -26q40 0 67 12t43 35q14 20 15 47q0 25 -22.5 41t-69.5 12q4 8 22 65q12 37 17 54l12 49 q2 6 6 22q-63 6 -113 29q-68 35 -120 96q-57 68 -87 152q-30 88 -30 207z" />
<glyph unicode="&#xc8;" horiz-adv-x="944" d="M0 0l6 43q61 14 100 30.5t41 30.5l146 1051q2 12 -29 31q-23 12 -96 31l6 43h737l25 -25q-4 -16 -12 -57q-4 -20 -17 -62l-11 -32.5l-9 -26.5q-10 -31 -19 -47h-43q4 31 4 77q0 23 -8 48q-6 20 -18 26q-16 8 -31 8h-336l-57 -434h373l20 -28q-2 -2 -22 -29 q-4 -6 -13.5 -14.5t-13.5 -14.5q-8 -10 -27 -28q-12 -12 -22 -21q-12 16 -35 27q-25 12 -43 16q-35 8 -66 10q-27 2 -94 2h-69l-68 -501q-4 -16 2 -26.5t25 -21.5q18 -9 55 -12q49 -4 96 -4h121q53 0 72 4q31 6 51 23q25 18 47 53q22 34 49 92l39 -18q-29 -115 -41 -152 q-6 -16 -12 -37.5t-10.5 -34t-8.5 -20.5h-784zM295 1589l12 47q2 2 6 5t9 6t9 5q2 2 14.5 9.5t18.5 11.5q18 10 35 18q8 4 16.5 9t14.5 8l311 -316q-14 -20 -22 -29q-12 -12 -23 -18z" />
<glyph unicode="&#xc9;" horiz-adv-x="944" d="M0 0l6 43q61 14 100 30.5t41 30.5l146 1051q2 12 -29 31q-23 12 -96 31l6 43h737l25 -25q-4 -16 -12 -57q-4 -20 -17 -62l-11 -32.5l-9 -26.5q-10 -31 -19 -47h-43q4 31 4 77q0 23 -8 48q-6 20 -18 26q-16 8 -31 8h-336l-57 -434h373l20 -28q-2 -2 -22 -29 q-4 -6 -13.5 -14.5t-13.5 -14.5q-8 -10 -27 -28q-12 -12 -22 -21q-12 16 -35 27q-25 12 -43 16q-35 8 -66 10q-27 2 -94 2h-69l-68 -501q-4 -16 2 -26.5t25 -21.5q18 -9 55 -12q49 -4 96 -4h121q53 0 72 4q31 6 51 23q25 18 47 53q22 34 49 92l39 -18q-29 -115 -41 -152 q-6 -16 -12 -37.5t-10.5 -34t-8.5 -20.5h-784zM440 1392l391 316l23 -17l27 -18q6 -4 28 -21q8 -6 19 -16v-47l-455 -244q-10 6 -18 18q-7 9 -15 29z" />
<glyph unicode="&#xca;" horiz-adv-x="944" d="M0 0l6 43q61 14 100 30.5t41 30.5l146 1051q2 12 -29 31q-23 12 -96 31l6 43h737l25 -25q-4 -16 -12 -57q-4 -20 -17 -62l-11 -32.5l-9 -26.5q-10 -31 -19 -47h-43q4 31 4 77q0 23 -8 48q-6 20 -18 26q-16 8 -31 8h-336l-57 -434h373l20 -28q-2 -2 -22 -29 q-4 -6 -13.5 -14.5t-13.5 -14.5q-8 -10 -27 -28q-12 -12 -22 -21q-12 16 -35 27q-25 12 -43 16q-35 8 -66 10q-27 2 -94 2h-69l-68 -501q-4 -16 2 -26.5t25 -21.5q18 -9 55 -12q49 -4 96 -4h121q53 0 72 4q31 6 51 23q25 18 47 53q22 34 49 92l39 -18q-29 -115 -41 -152 q-6 -16 -12 -37.5t-10.5 -34t-8.5 -20.5h-784zM319 1390l275 301h92l193 -301l-13.5 -17.5t-9.5 -11.5q-6 -10 -23 -16l-215 205l-266 -205q-10 6 -16 16q-13 17 -17 29z" />
<glyph unicode="&#xcb;" horiz-adv-x="944" d="M0 0l6 43q61 14 100 30.5t41 30.5l146 1051q2 12 -29 31q-23 12 -96 31l6 43h737l25 -25q-4 -16 -12 -57q-4 -20 -17 -62l-11 -32.5l-9 -26.5q-10 -31 -19 -47h-43q4 31 4 77q0 23 -8 48q-6 20 -18 26q-16 8 -31 8h-336l-57 -434h373l20 -28q-2 -2 -22 -29 q-4 -6 -13.5 -14.5t-13.5 -14.5q-8 -10 -27 -28q-12 -12 -22 -21q-12 16 -35 27q-25 12 -43 16q-35 8 -66 10q-27 2 -94 2h-69l-68 -501q-4 -16 2 -26.5t25 -21.5q18 -9 55 -12q49 -4 96 -4h121q53 0 72 4q31 6 51 23q25 18 47 53q22 34 49 92l39 -18q-29 -115 -41 -152 q-6 -16 -12 -37.5t-10.5 -34t-8.5 -20.5h-784zM334 1462q0 31 8 55q8 23 26 49q16 25 41 39q23 14 51.5 14t47 -18t18.5 -53q0 -31 -8 -55q-8 -23 -27 -50q-16 -23 -38.5 -37t-51.5 -14q-33 0 -51 19q-16 16 -16 51zM706 1462q0 31 9 55q9 28 24 49q16 23 39 39q20 14 53 14 q31 0 49.5 -18t18.5 -53q0 -31 -8 -55q-8 -23 -27 -50q-16 -23 -38.5 -37t-53.5 -14t-49 19q-17 16 -17 51z" />
<glyph unicode="&#xcc;" horiz-adv-x="571" d="M20 0l7 43q61 14 100 30.5t41 30.5l143 1051q2 12 -28 31q-23 14 -95 31l7 43h409l-6 -43q-74 -18 -100 -31q-39 -18 -41 -31l-146 -1051q-2 -12 29 -30q23 -12 96 -31l-6 -43h-410zM111 1589l12 47q2 2 6 5t9 6t9 5q2 2 14.5 9.5t18.5 11.5q18 10 35 18q8 4 16.5 9 t14.5 8l311 -316q-14 -20 -22 -29q-12 -12 -23 -18z" />
<glyph unicode="&#xcd;" horiz-adv-x="571" d="M20 0l7 43q61 14 100 30.5t41 30.5l143 1051q2 12 -28 31q-23 14 -95 31l7 43h409l-6 -43q-74 -18 -100 -31q-39 -18 -41 -31l-146 -1051q-2 -12 29 -30q23 -12 96 -31l-6 -43h-410zM256 1392l391 316l23 -17l27 -18q6 -4 28 -21q8 -6 19 -16v-47l-455 -244q-10 6 -18 18 q-7 9 -15 29z" />
<glyph unicode="&#xce;" horiz-adv-x="571" d="M20 0l7 43q61 14 100 30.5t41 30.5l143 1051q2 12 -28 31q-23 14 -95 31l7 43h409l-6 -43q-74 -18 -100 -31q-39 -18 -41 -31l-146 -1051q-2 -12 29 -30q23 -12 96 -31l-6 -43h-410zM135 1390l275 301h92l193 -301l-13.5 -17.5t-9.5 -11.5q-6 -10 -23 -16l-215 205 l-266 -205q-10 6 -16 16q-13 17 -17 29z" />
<glyph unicode="&#xcf;" horiz-adv-x="571" d="M20 0l7 43q61 14 100 30.5t41 30.5l143 1051q2 12 -28 31q-23 14 -95 31l7 43h409l-6 -43q-74 -18 -100 -31q-39 -18 -41 -31l-146 -1051q-2 -12 29 -30q23 -12 96 -31l-6 -43h-410zM150 1462q0 31 8 55q8 23 26 49q16 25 41 39q23 14 51.5 14t47 -18t18.5 -53 q0 -31 -8 -55q-8 -23 -27 -50q-16 -23 -38.5 -37t-51.5 -14q-33 0 -51 19q-16 16 -16 51zM522 1462q0 31 9 55q9 28 24 49q16 23 39 39q20 14 53 14q31 0 49.5 -18t18.5 -53q0 -31 -8 -55q-8 -23 -27 -50q-16 -23 -38.5 -37t-53.5 -14t-49 19q-17 16 -17 51z" />
<glyph unicode="&#xd0;" horiz-adv-x="1116" d="M0 0l6 43q61 14 100 30.5t41 30.5l70 510h-129l-16 25l14 33q6 20 14 33h129l68 489l-154 -18v63q106 27 228 39q113 12 215 12q119 0 209 -39q88 -37 153 -110q61 -68 96 -172q33 -98 33 -224q0 -98 -16 -178q-20 -94 -51 -172q-31 -76 -84 -155q-47 -72 -117 -125 q-72 -55 -150 -84q-82 -31 -178 -31h-481zM299 139q-2 -14 4 -24q10 -14 23 -19q23 -8 49 -10q20 -2 80 -2q74 0 137 29q61 29 113 75q51 49 90 111q37 61 67 137q25 66 39 146q14 86 14 145q0 109 -26.5 195t-79.5 151q-52 65 -129 98q-80 35 -176 35h-31q-6 0 -14 -1 t-15 -1l-67 -499h231l19 -23l-29 -68h-236z" />
<glyph unicode="&#xd1;" horiz-adv-x="1236" d="M0 0l6 43q63 8 100 29q35 18 37 32l146 1049q-25 29 -58 43q-25 10 -73 21l6 43h178h35q10 0 22 -9q2 -2 17 -24q4 -6 10 -17.5l14 -27.5l484 -924l123 897q0 8 -4.5 14.5t-20.5 16.5q-8 4 -39 16q-18 6 -59 15l6 43h364l-6 -43q-70 -10 -100 -27q-33 -18 -35 -35 l-164 -1186q-14 2 -39 6q-14 2 -30 13q-6 4 -25 22q-10 10 -25 35l-497 959l-123 -900q-3 -12 24 -30t97 -31l-6 -43h-365zM443 1400q29 53 47 80q33 47 57 72q35 35 68 51q37 18 73.5 18.5t61.5 -16.5q39 -25 51 -37l23.5 -20l21.5 -19q18 -16 41 -16q34 0 74 31 q39 31 78 88l45 -21q-22 -40 -49 -80q-33 -47 -58 -71q-37 -37 -65 -51q-37 -18 -76 -19q-35 0 -57 16q-33 25 -49 39l-46 37q-23 16 -51 17q-33 0 -69 -31q-27 -23 -78 -88z" />
<glyph unicode="&#xd2;" horiz-adv-x="1114" d="M90 485q0 63 12 133q14 78 33 142q23 74 51 137q27 57 72 121q57 74 90 106q49 49 105 86q53 35 118 58q68 23 134 22q98 0 169.5 -41t118.5 -112q49 -76 70 -164q23 -100 22 -199q0 -70 -12 -143q-14 -86 -35 -146q-27 -74 -57 -137q-29 -59 -80 -123q-37 -45 -90 -100 q-49 -47 -100 -82q-43 -27 -113 -53q-55 -20 -127 -21q-96 0 -168 41q-74 41 -119 111q-47 74 -71 166q-23 87 -23 198zM242 532q0 -84 20 -172q18 -78 55 -137q35 -55 86 -90q47 -33 113 -33q78 0 139.5 31t106.5 82q47 53 80 119q34 68 55 141q18 63 28.5 145t10.5 138 q0 86 -18 159q-18 72 -54 129q-33 53 -86 89q-51 33 -116 32q-74 0 -136 -30q-68 -33 -108 -78q-45 -47 -80 -115t-55 -133q-20 -70 -31 -143q-10 -79 -10 -134zM404 1589l12 47q2 2 6 5t9 6t9 5q2 2 14.5 9.5t18.5 11.5q18 10 35 18q8 4 16.5 9t14.5 8l311 -316 q-14 -20 -22 -29q-12 -12 -23 -18z" />
<glyph unicode="&#xd3;" horiz-adv-x="1114" d="M90 485q0 63 12 133q14 78 33 142q23 74 51 137q27 57 72 121q57 74 90 106q49 49 105 86q53 35 118 58q68 23 134 22q98 0 169.5 -41t118.5 -112q49 -76 70 -164q23 -100 22 -199q0 -70 -12 -143q-14 -86 -35 -146q-27 -74 -57 -137q-29 -59 -80 -123q-37 -45 -90 -100 q-49 -47 -100 -82q-43 -27 -113 -53q-55 -20 -127 -21q-96 0 -168 41q-74 41 -119 111q-47 74 -71 166q-23 87 -23 198zM242 532q0 -84 20 -172q18 -78 55 -137q35 -55 86 -90q47 -33 113 -33q78 0 139.5 31t106.5 82q47 53 80 119q34 68 55 141q18 63 28.5 145t10.5 138 q0 86 -18 159q-18 72 -54 129q-33 53 -86 89q-51 33 -116 32q-74 0 -136 -30q-68 -33 -108 -78q-45 -47 -80 -115t-55 -133q-20 -70 -31 -143q-10 -79 -10 -134zM549 1392l391 316l23 -17l27 -18q6 -4 28 -21q8 -6 19 -16v-47l-455 -244q-10 6 -18 18q-7 9 -15 29z" />
<glyph unicode="&#xd4;" horiz-adv-x="1114" d="M90 485q0 63 12 133q14 78 33 142q23 74 51 137q27 57 72 121q57 74 90 106q49 49 105 86q53 35 118 58q68 23 134 22q98 0 169.5 -41t118.5 -112q49 -76 70 -164q23 -100 22 -199q0 -70 -12 -143q-14 -86 -35 -146q-27 -74 -57 -137q-29 -59 -80 -123q-37 -45 -90 -100 q-49 -47 -100 -82q-43 -27 -113 -53q-55 -20 -127 -21q-96 0 -168 41q-74 41 -119 111q-47 74 -71 166q-23 87 -23 198zM242 532q0 -84 20 -172q18 -78 55 -137q35 -55 86 -90q47 -33 113 -33q78 0 139.5 31t106.5 82q47 53 80 119q34 68 55 141q18 63 28.5 145t10.5 138 q0 86 -18 159q-18 72 -54 129q-33 53 -86 89q-51 33 -116 32q-74 0 -136 -30q-68 -33 -108 -78q-45 -47 -80 -115t-55 -133q-20 -70 -31 -143q-10 -79 -10 -134zM430 1390l275 301h92l193 -301l-13.5 -17.5t-9.5 -11.5q-6 -10 -23 -16l-215 205l-266 -205q-10 6 -16 16 q-13 17 -17 29z" />
<glyph unicode="&#xd5;" horiz-adv-x="1114" d="M90 485q0 63 12 133q14 78 33 142q23 74 51 137q27 57 72 121q57 74 90 106q49 49 105 86q53 35 118 58q68 23 134 22q98 0 169.5 -41t118.5 -112q49 -76 70 -164q23 -100 22 -199q0 -70 -12 -143q-14 -86 -35 -146q-27 -74 -57 -137q-29 -59 -80 -123q-37 -45 -90 -100 q-49 -47 -100 -82q-43 -27 -113 -53q-55 -20 -127 -21q-96 0 -168 41q-74 41 -119 111q-47 74 -71 166q-23 87 -23 198zM242 532q0 -84 20 -172q18 -78 55 -137q35 -55 86 -90q47 -33 113 -33q78 0 139.5 31t106.5 82q47 53 80 119q34 68 55 141q18 63 28.5 145t10.5 138 q0 86 -18 159q-18 72 -54 129q-33 53 -86 89q-51 33 -116 32q-74 0 -136 -30q-68 -33 -108 -78q-45 -47 -80 -115t-55 -133q-20 -70 -31 -143q-10 -79 -10 -134zM406 1400q29 53 47 80q33 47 57 72q35 35 68 51q37 18 73.5 18.5t61.5 -16.5q39 -25 51 -37l23.5 -20l21.5 -19 q18 -16 41 -16q34 0 74 31q39 31 78 88l45 -21q-22 -40 -49 -80q-33 -47 -58 -71q-37 -37 -65 -51q-37 -18 -76 -19q-35 0 -57 16q-33 25 -49 39l-46 37q-23 16 -51 17q-33 0 -69 -31q-27 -23 -78 -88z" />
<glyph unicode="&#xd6;" horiz-adv-x="1114" d="M90 485q0 63 12 133q14 78 33 142q23 74 51 137q27 57 72 121q57 74 90 106q49 49 105 86q53 35 118 58q68 23 134 22q98 0 169.5 -41t118.5 -112q49 -76 70 -164q23 -100 22 -199q0 -70 -12 -143q-14 -86 -35 -146q-27 -74 -57 -137q-29 -59 -80 -123q-37 -45 -90 -100 q-49 -47 -100 -82q-43 -27 -113 -53q-55 -20 -127 -21q-96 0 -168 41q-74 41 -119 111q-47 74 -71 166q-23 87 -23 198zM242 532q0 -84 20 -172q18 -78 55 -137q35 -55 86 -90q47 -33 113 -33q78 0 139.5 31t106.5 82q47 53 80 119q34 68 55 141q18 63 28.5 145t10.5 138 q0 86 -18 159q-18 72 -54 129q-33 53 -86 89q-51 33 -116 32q-74 0 -136 -30q-68 -33 -108 -78q-45 -47 -80 -115t-55 -133q-20 -70 -31 -143q-10 -79 -10 -134zM443 1462q0 31 8 55q8 23 26 49q16 25 41 39q23 14 51.5 14t47 -18t18.5 -53q0 -31 -8 -55q-8 -23 -27 -50 q-16 -23 -38.5 -37t-51.5 -14q-33 0 -51 19q-16 16 -16 51zM815 1462q0 31 9 55q9 28 24 49q16 23 39 39q20 14 53 14q31 0 49.5 -18t18.5 -53q0 -31 -8 -55q-8 -23 -27 -50q-16 -23 -38.5 -37t-53.5 -14t-49 19q-17 16 -17 51z" />
<glyph unicode="&#xd7;" horiz-adv-x="768" d="M59 281l7 32l256 248l-187 248l4 33q18 9 43 18q10 4 26.5 8t18.5 4l176 -233l242 233q4 -2 18.5 -5t22.5 -7q14 -6 39 -18l-4 -33l-256 -248l186 -248l-4 -32q-12 -6 -45 -19q-10 -4 -23.5 -7t-17.5 -5l-178 233l-244 -233q-4 2 -17 5t-22 7q-29 13 -41 19z" />
<glyph unicode="&#xd8;" horiz-adv-x="1114" d="M27 -20l137 178q-37 68 -55.5 151.5t-18.5 175.5q0 63 12 133q14 78 33 142q23 74 51 137q27 57 72 121q57 74 90 106q49 49 105 86q53 35 118 58q68 23 134 22q82 0 141 -26q66 -29 106 -74l58 74q20 14 61 28l59 21l23 -33l-137 -180q33 -66 51 -150q18 -82 18 -176 q0 -70 -12 -143q-14 -86 -35 -146q-27 -74 -57 -137q-29 -59 -80 -123q-37 -45 -90 -100q-49 -47 -100 -82q-43 -27 -113 -53q-55 -20 -127 -21q-80 0 -139 27q-66 29 -107 74l-55 -72q-10 -10 -27 -16l-32 -13l-17.5 -6l-17.5 -6l-29 -10zM242 532q0 -125 34 -225l578 754 q-33 47 -84 75.5t-108 28.5q-74 0 -136 -30q-68 -33 -108 -78q-45 -47 -80 -115t-55 -133q-20 -70 -31 -143q-10 -79 -10 -134zM330 205q33 -49 82 -78q45 -27 104 -27q78 0 139.5 31t106.5 82q47 53 80 119q34 68 55 141q18 63 28.5 145t10.5 138q0 63 -8 106 q-12 61 -23 94z" />
<glyph unicode="&#xd9;" horiz-adv-x="1226" d="M168 1217l6 43h410l-6 -43q-70 -16 -101 -31q-39 -18 -41 -31l-88 -645q-6 -55 -6 -57v-56q0 -76 16 -127q18 -59 52 -98q37 -43 84 -63q51 -23 114 -23q59 0 119 33q53 31 98 84q39 47 70 123q27 68 37 143l92 686q2 10 -27 31q-20 14 -92 31l6 43h375l-6 -43 q-74 -18 -98 -31q-35 -18 -37 -31l-90 -643q-18 -132 -62 -233q-45 -104 -106 -170q-65 -68 -148 -105q-78 -35 -182 -35q-84 0 -151.5 24.5t-116.5 74.5q-47 47 -76 118q-27 68 -27 162q0 59 9 115l98 692q2 12 -29 31q-22 13 -96 31zM461 1589l12 47q2 2 6 5t9 6t9 5 q2 2 14.5 9.5t18.5 11.5q18 10 35 18q8 4 16.5 9t14.5 8l311 -316q-14 -20 -22 -29q-12 -12 -23 -18z" />
<glyph unicode="&#xda;" horiz-adv-x="1226" d="M168 1217l6 43h410l-6 -43q-70 -16 -101 -31q-39 -18 -41 -31l-88 -645q-6 -55 -6 -57v-56q0 -76 16 -127q18 -59 52 -98q37 -43 84 -63q51 -23 114 -23q59 0 119 33q53 31 98 84q39 47 70 123q27 68 37 143l92 686q2 10 -27 31q-20 14 -92 31l6 43h375l-6 -43 q-74 -18 -98 -31q-35 -18 -37 -31l-90 -643q-18 -132 -62 -233q-45 -104 -106 -170q-65 -68 -148 -105q-78 -35 -182 -35q-84 0 -151.5 24.5t-116.5 74.5q-47 47 -76 118q-27 68 -27 162q0 59 9 115l98 692q2 12 -29 31q-22 13 -96 31zM606 1392l391 316l23 -17l27 -18 q6 -4 28 -21q8 -6 19 -16v-47l-455 -244q-10 6 -18 18q-7 9 -15 29z" />
<glyph unicode="&#xdb;" horiz-adv-x="1226" d="M168 1217l6 43h410l-6 -43q-70 -16 -101 -31q-39 -18 -41 -31l-88 -645q-6 -55 -6 -57v-56q0 -76 16 -127q18 -59 52 -98q37 -43 84 -63q51 -23 114 -23q59 0 119 33q53 31 98 84q39 47 70 123q27 68 37 143l92 686q2 10 -27 31q-20 14 -92 31l6 43h375l-6 -43 q-74 -18 -98 -31q-35 -18 -37 -31l-90 -643q-18 -132 -62 -233q-45 -104 -106 -170q-65 -68 -148 -105q-78 -35 -182 -35q-84 0 -151.5 24.5t-116.5 74.5q-47 47 -76 118q-27 68 -27 162q0 59 9 115l98 692q2 12 -29 31q-22 13 -96 31zM487 1390l275 301h92l193 -301 l-13.5 -17.5t-9.5 -11.5q-6 -10 -23 -16l-215 205l-266 -205q-10 6 -16 16q-13 17 -17 29z" />
<glyph unicode="&#xdc;" horiz-adv-x="1226" d="M168 1217l6 43h410l-6 -43q-70 -16 -101 -31q-39 -18 -41 -31l-88 -645q-6 -55 -6 -57v-56q0 -76 16 -127q18 -59 52 -98q37 -43 84 -63q51 -23 114 -23q59 0 119 33q53 31 98 84q39 47 70 123q27 68 37 143l92 686q2 10 -27 31q-20 14 -92 31l6 43h375l-6 -43 q-74 -18 -98 -31q-35 -18 -37 -31l-90 -643q-18 -132 -62 -233q-45 -104 -106 -170q-65 -68 -148 -105q-78 -35 -182 -35q-84 0 -151.5 24.5t-116.5 74.5q-47 47 -76 118q-27 68 -27 162q0 59 9 115l98 692q2 12 -29 31q-22 13 -96 31zM500 1462q0 31 8 55q8 23 26 49 q16 25 41 39q23 14 51.5 14t47 -18t18.5 -53q0 -31 -8 -55q-8 -23 -27 -50q-16 -23 -38.5 -37t-51.5 -14q-33 0 -51 19q-16 16 -16 51zM872 1462q0 31 9 55q9 28 24 49q16 23 39 39q20 14 53 14q31 0 49.5 -18t18.5 -53q0 -31 -8 -55q-8 -23 -27 -50q-16 -23 -38.5 -37 t-53.5 -14t-49 19q-17 16 -17 51z" />
<glyph unicode="&#xdd;" horiz-adv-x="1144" d="M102 1235q6 2 27 7t33 7q23 4 63 13q39 8 62 10q37 4 47 4q27 0 51 -39q23 -35 45 -78q33 -61 49 -96q33 -70 47 -105q39 -92 43 -106l33 -96q8 -23 23 -78l309 473q18 27 -6 43q-18 12 -90 23l6 43h360l-6 -43q-43 -8 -98 -27q-33 -10 -53 -39l-390 -608l-59 -428 q0 -4 6 -15q6 -8 23 -18q23 -14 43 -21q23 -8 69 -18l-6 -43h-446l6 43q80 16 123 39q33 16 37 33l59 436q-12 51 -47 158q-14 47 -64 165q-31 78 -71 158q-39 80 -70 123q-8 14 -22 25q-12 10 -27 12q-20 4 -41 4q-14 0 -59 -4zM536 1392l391 316l23 -17l27 -18 q6 -4 28 -21q8 -6 19 -16v-47l-455 -244q-10 6 -18 18q-7 9 -15 29z" />
<glyph unicode="&#xde;" horiz-adv-x="964" d="M4 0l6 43q61 14 101 31q35 14 39 30l145 1051q2 12 -29 31q-23 14 -94 31l6 43h432l-6 -43q-70 -14 -78 -17l-51 -16q-10 -4 -26 -15q-10 -6 -11 -14l-20 -145q53 10 139 10q94 0 160 -23q72 -25 121 -67.5t73 -104.5q27 -68 27 -135q0 -90 -33 -164q-37 -84 -90 -137 q-55 -55 -135 -90t-168 -35q-45 0 -78 8q-43 10 -63 25l-11 74q37 -18 70 -25q23 -4 66 -4q68 0 122 25q59 27 97 65q40 43 61 98q20 53 20.5 121t-22.5 123q-20 51 -63 90q-39 37 -97 56q-55 18 -118 18q-31 0 -45 -2q-29 -4 -43 -8l-113 -824q-4 -6 4 -14q6 -6 23 -14 q4 -2 47 -17q12 -4 73 -16l-6 -43h-432z" />
<glyph unicode="&#xdf;" horiz-adv-x="997" d="M-150 -422q51 29 91 88q43 68 71 137q27 66 51 166q18 70 29 170l88 760q10 84 31 158q27 94 51 141q29 59 80 123q46 58 111 104q18 14 55 39q14 10 57 29q28 12 55.5 18.5t49.5 6.5q66 0 114 -25q51 -27 86 -70q33 -41 52 -94q18 -52 18 -104q0 -84 -27 -148 q-25 -57 -65 -98q-37 -37 -84 -66l-86 -51q-41 -27 -66 -55q-27 -33 -26 -76q0 -35 24 -63q29 -33 64 -56l82 -53q43 -28 80 -61q41 -37 63 -80q25 -45 25 -107q0 -70 -23 -125q-25 -61 -70 -112t-108 -82q-70 -33 -150 -33q-43 0 -84 14q-37 12 -73 37q-27 16 -54 47 q-20 23 -20 47q0 6 12 29q16 29 27 41q20 25 33 35q16 14 28 14q6 0 12.5 -12t14.5 -31q6 -12 23 -41q10 -18 30.5 -38.5t40.5 -30.5q25 -12 58 -13q82 0 124.5 45t42.5 131q0 61 -24 103q-23 37 -62 70q-41 33 -81 57q-49 29 -80 51q-35 27 -62 66q-25 37 -24 88 q0 63 14 100q14 35 41 70q25 31 53 51q8 6 64 39q18 10 34.5 21.5t28.5 17.5q31 18 55 43q23 23 39 59q14 31 15 84q0 51 -11 88q-14 49 -34 78q-27 37 -62 57.5t-88 20.5q-57 0 -102 -39q-47 -41 -80 -101q-37 -68 -57 -143q-23 -80 -31 -162l-88 -759q-12 -102 -45 -213 q-29 -96 -78 -191q-41 -80 -111 -160q-57 -66 -135 -114z" />
<glyph unicode="&#xe0;" d="M53 305q0 76 18.5 154t55.5 145q35 63 90 129q45 53 125 109q20 14 59 35q34 18 68 30q23 8 68 21q31 8 65 8q20 0 41 -6q25 -6 39 -15l37 -18l31 -20l49 30l53 29l20 -35q-25 -20 -28 -24q-6 -6 -19 -27q-8 -14 -14 -35q-12 -41 -14 -55q-18 -88 -29 -148 q-20 -127 -23 -143l-14 -117q-6 -52 -6 -73q0 -43 4 -97q4 -41 8 -61q6 -25 16.5 -35t20.5 -10q20 0 47 6q37 8 68 22l12 -36q-74 -51 -141 -82q-57 -27 -82 -27q-18 0 -34.5 12.5t-29.5 46.5q-14 41 -20 97q-8 82 -8 157q-14 -27 -64 -100q-39 -59 -80 -102 q-53 -55 -88 -80q-47 -31 -88 -31q-35 0 -71.5 18.5t-67.5 61.5q-33 47 -53 106q-21 62 -21 160zM190 379q0 -74 11 -117q12 -53 30 -90q14 -29 45 -55q23 -20 56 -21q25 0 59 31q41 39 72 78q33 43 74 108.5t65 116.5q4 25 16 94l17 94q4 23 8 43.5t8 38.5q6 37 11 60 q-20 16 -33 24q-25 16 -39 23l-43 18q-23 6 -47 6q-45 0 -86 -22q-43 -23 -76 -59q-29 -31 -62 -86q-29 -49 -47 -97q-20 -53 -28 -100q-11 -55 -11 -88zM309 1411l31 37q4 2 14 3t16 1q25 4 39 4q8 0 20.5 1t18.5 1h33l139 -411q-25 -14 -33 -17q-16 -4 -28 -4z" />
<glyph unicode="&#xe1;" d="M53 305q0 76 18.5 154t55.5 145q35 63 90 129q45 53 125 109q20 14 59 35q34 18 68 30q23 8 68 21q31 8 65 8q20 0 41 -6q25 -6 39 -15l37 -18l31 -20l49 30l53 29l20 -35q-25 -20 -28 -24q-6 -6 -19 -27q-8 -14 -14 -35q-12 -41 -14 -55q-18 -88 -29 -148 q-20 -127 -23 -143l-14 -117q-6 -52 -6 -73q0 -43 4 -97q4 -41 8 -61q6 -25 16.5 -35t20.5 -10q20 0 47 6q37 8 68 22l12 -36q-74 -51 -141 -82q-57 -27 -82 -27q-18 0 -34.5 12.5t-29.5 46.5q-14 41 -20 97q-8 82 -8 157q-14 -27 -64 -100q-39 -59 -80 -102 q-53 -55 -88 -80q-47 -31 -88 -31q-35 0 -71.5 18.5t-67.5 61.5q-33 47 -53 106q-21 62 -21 160zM190 379q0 -74 11 -117q12 -53 30 -90q14 -29 45 -55q23 -20 56 -21q25 0 59 31q41 39 72 78q33 43 74 108.5t65 116.5q4 25 16 94l17 94q4 23 8 43.5t8 38.5q6 37 11 60 q-20 16 -33 24q-25 16 -39 23l-43 18q-23 6 -47 6q-45 0 -86 -22q-43 -23 -76 -59q-29 -31 -62 -86q-29 -49 -47 -97q-20 -53 -28 -100q-11 -55 -11 -88zM495 1061l273 397l24 -6q4 -2 33 -10q12 -4 33 -12q18 -8 22 -11l15 -45l-354 -348q-18 4 -25 10z" />
<glyph unicode="&#xe2;" d="M53 305q0 76 18.5 154t55.5 145q35 63 90 129q45 53 125 109q20 14 59 35q34 18 68 30q23 8 68 21q31 8 65 8q20 0 41 -6q25 -6 39 -15l37 -18l31 -20l49 30l53 29l20 -35q-25 -20 -28 -24q-6 -6 -19 -27q-8 -14 -14 -35q-12 -41 -14 -55q-18 -88 -29 -148 q-20 -127 -23 -143l-14 -117q-6 -52 -6 -73q0 -43 4 -97q4 -41 8 -61q6 -25 16.5 -35t20.5 -10q20 0 47 6q37 8 68 22l12 -36q-74 -51 -141 -82q-57 -27 -82 -27q-18 0 -34.5 12.5t-29.5 46.5q-14 41 -20 97q-8 82 -8 157q-14 -27 -64 -100q-39 -59 -80 -102 q-53 -55 -88 -80q-47 -31 -88 -31q-35 0 -71.5 18.5t-67.5 61.5q-33 47 -53 106q-21 62 -21 160zM190 379q0 -74 11 -117q12 -53 30 -90q14 -29 45 -55q23 -20 56 -21q25 0 59 31q41 39 72 78q33 43 74 108.5t65 116.5q4 25 16 94l17 94q4 23 8 43.5t8 38.5q6 37 11 60 q-20 16 -33 24q-25 16 -39 23l-43 18q-23 6 -47 6q-45 0 -86 -22q-43 -23 -76 -59q-29 -31 -62 -86q-29 -49 -47 -97q-20 -53 -28 -100q-11 -55 -11 -88zM280 1071l285 371h92l183 -371q-4 -6 -9.5 -12t-7.5 -10.5t-4 -6.5q-6 -8 -24 -16l-207 264l-275 -264q-6 4 -14 16 q-17 27 -19 29z" />
<glyph unicode="&#xe3;" d="M53 305q0 76 18.5 154t55.5 145q35 63 90 129q45 53 125 109q20 14 59 35q34 18 68 30q23 8 68 21q31 8 65 8q20 0 41 -6q25 -6 39 -15l37 -18l31 -20l49 30l53 29l20 -35q-25 -20 -28 -24q-6 -6 -19 -27q-8 -14 -14 -35q-12 -41 -14 -55q-18 -88 -29 -148 q-20 -127 -23 -143l-14 -117q-6 -52 -6 -73q0 -43 4 -97q4 -41 8 -61q6 -25 16.5 -35t20.5 -10q20 0 47 6q37 8 68 22l12 -36q-74 -51 -141 -82q-57 -27 -82 -27q-18 0 -34.5 12.5t-29.5 46.5q-14 41 -20 97q-8 82 -8 157q-14 -27 -64 -100q-39 -59 -80 -102 q-53 -55 -88 -80q-47 -31 -88 -31q-35 0 -71.5 18.5t-67.5 61.5q-33 47 -53 106q-21 62 -21 160zM190 379q0 -74 11 -117q12 -53 30 -90q14 -29 45 -55q23 -20 56 -21q25 0 59 31q41 39 72 78q33 43 74 108.5t65 116.5q4 25 16 94l17 94q4 23 8 43.5t8 38.5q6 37 11 60 q-20 16 -33 24q-25 16 -39 23l-43 18q-23 6 -47 6q-45 0 -86 -22q-43 -23 -76 -59q-29 -31 -62 -86q-29 -49 -47 -97q-20 -53 -28 -100q-11 -55 -11 -88zM260 1114q29 53 47 80q29 39 59 72q35 35 68 51q37 18 74 18q35 0 59 -16q39 -25 51 -37l23.5 -20.5t21.5 -18.5 q18 -16 43 -16q31 0 74 33q37 29 76 86l45 -21q-29 -53 -47 -80q-33 -47 -58 -71q-31 -31 -67 -50q-41 -20 -74 -20q-35 0 -57 16q-33 25 -49 39q-12 10 -47 37q-23 16 -50 16q-35 0 -71 -30q-27 -23 -78 -88z" />
<glyph unicode="&#xe4;" d="M53 305q0 76 18.5 154t55.5 145q35 63 90 129q45 53 125 109q20 14 59 35q34 18 68 30q23 8 68 21q31 8 65 8q20 0 41 -6q25 -6 39 -15l37 -18l31 -20l49 30l53 29l20 -35q-25 -20 -28 -24q-6 -6 -19 -27q-8 -14 -14 -35q-12 -41 -14 -55q-18 -88 -29 -148 q-20 -127 -23 -143l-14 -117q-6 -52 -6 -73q0 -43 4 -97q4 -41 8 -61q6 -25 16.5 -35t20.5 -10q20 0 47 6q37 8 68 22l12 -36q-74 -51 -141 -82q-57 -27 -82 -27q-18 0 -34.5 12.5t-29.5 46.5q-14 41 -20 97q-8 82 -8 157q-14 -27 -64 -100q-39 -59 -80 -102 q-53 -55 -88 -80q-47 -31 -88 -31q-35 0 -71.5 18.5t-67.5 61.5q-33 47 -53 106q-21 62 -21 160zM190 379q0 -74 11 -117q12 -53 30 -90q14 -29 45 -55q23 -20 56 -21q25 0 59 31q41 39 72 78q33 43 74 108.5t65 116.5q4 25 16 94l17 94q4 23 8 43.5t8 38.5q6 37 11 60 q-20 16 -33 24q-25 16 -39 23l-43 18q-23 6 -47 6q-45 0 -86 -22q-43 -23 -76 -59q-29 -31 -62 -86q-29 -49 -47 -97q-20 -53 -28 -100q-11 -55 -11 -88zM297 1176q0 25 10 55q9 28 25 49q16 25 41 39q23 14 51 14q31 0 49 -18q16 -16 16 -53q0 -31 -8 -56q-9 -28 -25 -49 q-14 -20 -40 -37q-23 -14 -52 -14q-31 0 -49 18.5t-18 51.5zM669 1176q0 25 11 55q9 28 24 49q16 23 39 39q20 14 51 14t49.5 -18.5t18.5 -52.5q0 -31 -8 -56q-9 -28 -25 -49q-14 -20 -41 -37q-23 -14 -53 -14q-29 0 -47.5 18.5t-18.5 51.5z" />
<glyph unicode="&#xe5;" d="M53 305q0 76 18.5 154t55.5 145q35 63 90 129q45 53 125 109q20 14 59 35q34 18 68 30q23 8 68 21q31 8 65 8q20 0 41 -6q25 -6 39 -15l37 -18l31 -20l49 30l53 29l20 -35q-25 -20 -28 -24q-6 -6 -19 -27q-8 -14 -14 -35q-12 -41 -14 -55q-18 -88 -29 -148 q-20 -127 -23 -143l-14 -117q-6 -52 -6 -73q0 -43 4 -97q4 -41 8 -61q6 -25 16.5 -35t20.5 -10q20 0 47 6q37 8 68 22l12 -36q-74 -51 -141 -82q-57 -27 -82 -27q-18 0 -34.5 12.5t-29.5 46.5q-14 41 -20 97q-8 82 -8 157q-14 -27 -64 -100q-39 -59 -80 -102 q-53 -55 -88 -80q-47 -31 -88 -31q-35 0 -71.5 18.5t-67.5 61.5q-33 47 -53 106q-21 62 -21 160zM190 379q0 -74 11 -117q12 -53 30 -90q14 -29 45 -55q23 -20 56 -21q25 0 59 31q41 39 72 78q33 43 74 108.5t65 116.5q4 25 16 94l17 94q4 23 8 43.5t8 38.5q6 37 11 60 q-20 16 -33 24q-25 16 -39 23l-43 18q-23 6 -47 6q-45 0 -86 -22q-43 -23 -76 -59q-29 -31 -62 -86q-29 -49 -47 -97q-20 -53 -28 -100q-11 -55 -11 -88zM407 1149q0 49 17 90q18 47 49 84q29 35 72 61q39 25 88 25q53 0 84 -37q33 -39 32 -92q0 -43 -18 -86 q-23 -53 -47 -82q-29 -35 -72 -61q-40 -25 -86 -25q-25 0 -49 10q-23 10 -37 27q-16 20 -24.5 38.5t-8.5 47.5zM491 1192q0 -35 16.5 -63.5t47.5 -28.5q23 0 47 14q18 10 35 33q14 18 20 47q8 33 8 49q0 33 -16 61.5t-45 28.5q-28 0 -49 -12q-16 -10 -35 -35 q-16 -25 -23 -45q-6 -24 -6 -49z" />
<glyph unicode="&#xe6;" horiz-adv-x="1323" d="M53 305q0 86 17 154q20 86 53 145q35 63 90 129q45 53 125 109l31.5 18t27.5 17q33 18 64 30q23 8 67 21q31 8 64 8q18 0 41 -6q25 -6 39 -15l37 -18q10 -6 19 -12t15 -11q14 12 48 33l51 29l20 -35q-20 -16 -26 -22q-10 -10 -17 -23l-14 -29q-6 -14 -12 -41 q35 35 67.5 59.5t52.5 35.5q41 20 62 28q41 16 63 21q35 6 64 6q41 0 74 -16q35 -16 53 -39q20 -23 30.5 -58t10.5 -63.5t-6.5 -59t-26.5 -63.5q-20 -35 -57 -70q-33 -33 -97 -73q-41 -27 -147 -80q-49 -25 -209 -86q6 -63 23 -103q20 -53 41 -80q25 -33 51 -51 q28 -18 55 -18q10 0 51 4q23 2 70 20q37 14 88 43q45 25 111 78q10 -6 18 -20q4 -8 12 -21q-84 -72 -145 -114q-57 -39 -113 -68q-39 -18 -88 -31q-35 -8 -76 -8q-29 0 -71 16q-37 14 -76 54q-37 37 -62 96q-25 57 -30 145q-20 -37 -66 -100q-41 -55 -82 -100 q-49 -53 -90 -80q-46 -31 -86 -31q-35 0 -71.5 18.5t-67.5 61.5q-25 35 -49 106q-21 62 -21 160zM190 379q0 -59 11 -117q8 -51 28 -90q16 -31 43 -55q23 -20 54 -21q27 0 59.5 31t73.5 84q37 49 73 111q39 66 66 120l8 50.5t8 44.5l15 94q6 43 12 78l5 30.5t3 20.5v2 q-20 16 -33 24q-25 16 -38 23q-29 12 -43 16q-23 6 -46 6q-45 0 -86 -22q-39 -20 -73 -59q-33 -35 -60 -86q-23 -43 -43 -96.5t-28 -100.5q-9 -43 -9 -88zM725 403q152 59 209 93q72 41 115 79q39 37 51 70q10 29 10 70q0 35 -8 53q-12 29 -21 37q-14 14 -30 20q-14 6 -33 6 q-16 0 -47 -12q-33 -12 -60 -37q-37 -33 -65 -73q-37 -53 -58 -93q-18 -37 -40 -104q-21 -60 -23 -109z" />
<glyph unicode="&#xe7;" horiz-adv-x="794" d="M53 322q0 74 15 139q16 78 45 139q31 66 82 131q47 59 124 111q10 6 62 35q35 18 70 30q25 8 73 21q33 8 66 8q47 0 78 -16q39 -20 61 -39l49 -41q23 -20 35 -25l-45 -33q-29 -20 -45 -30l-41 -23q-16 -8 -33 -8q-12 0 -26 16l-39 39q-16 16 -47 37q-29 18 -60 18 q-45 0 -84 -22.5t-69 -58.5q-25 -31 -54 -86q-23 -45 -39 -101q-15 -52 -24 -104q-8 -47 -8 -101q0 -68 14 -116q14 -51 41 -90q20 -33 61 -56q35 -20 80 -20q18 0 45 6q25 6 66 22q23 10 82 46q27 16 98 71l16 -22q2 -4 7.5 -9.5t7.5 -9.5q-78 -72 -139 -114 q-66 -47 -113 -66q-45 -20 -84 -31q-4 -25 -6 -33t-7.5 -24t-7.5 -25q53 -4 84 -30q31 -29 31 -78q0 -53 -31 -96q-33 -47 -79 -70q-45 -23 -111 -23q-59 0 -123 35l-2 39q57 -27 94 -26q43 0 70 12q25 10 41 35q14 20 14 47q0 25 -22.5 41t-69.5 12q4 8 23 65q2 4 9 24 t9 30q2 8 5 24.5t5 24.5l2 6h-12q-37 0 -76 16q-45 20 -80 60q-41 47 -63 112q-25 71 -25 175z" />
<glyph unicode="&#xe8;" horiz-adv-x="804" d="M63 303q0 77 19 154q18 74 55 145q41 78 86 131t119 113q20 18 51 35q27 14 62 28q41 16 63 21q35 6 64 6q43 0 75 -16q31 -14 52 -39q20 -23 30.5 -58t10.5 -63.5t-6.5 -59t-26.5 -63.5q-20 -35 -58 -70q-33 -33 -96 -73q-41 -27 -147 -80q-49 -25 -209 -86 q6 -57 24 -103q20 -53 41 -80q27 -35 50 -51q28 -18 55 -18q10 0 51 4q23 2 70 20q37 14 88 43q45 25 110 78q4 -2 19 -20q10 -12 12 -21q-96 -82 -145 -114q-68 -45 -113 -68q-39 -18 -88 -31q-35 -8 -76 -8q-33 0 -76 18q-39 16 -77.5 59.5t-63.5 106.5q-25 65 -25 160z M207 403q143 57 207 93q72 41 114 79q39 37 52 70q10 29 10 70q0 35 -8 53q-12 29 -21 37q-14 14 -29 20q-16 6 -34 6q-16 0 -47 -12q-33 -12 -60 -37q-37 -33 -65 -73q-31 -43 -55.5 -92.5t-43.5 -104.5q-16 -52 -20 -109zM268 1411l31 37q4 2 14 3t16 1q25 4 39 4 q8 0 20.5 1t18.5 1h33l139 -411q-25 -14 -33 -17q-16 -4 -28 -4z" />
<glyph unicode="&#xe9;" horiz-adv-x="804" d="M63 303q0 77 19 154q18 74 55 145q41 78 86 131t119 113q20 18 51 35q27 14 62 28q41 16 63 21q35 6 64 6q43 0 75 -16q31 -14 52 -39q20 -23 30.5 -58t10.5 -63.5t-6.5 -59t-26.5 -63.5q-20 -35 -58 -70q-33 -33 -96 -73q-41 -27 -147 -80q-49 -25 -209 -86 q6 -57 24 -103q20 -53 41 -80q27 -35 50 -51q28 -18 55 -18q10 0 51 4q23 2 70 20q37 14 88 43q45 25 110 78q4 -2 19 -20q10 -12 12 -21q-96 -82 -145 -114q-68 -45 -113 -68q-39 -18 -88 -31q-35 -8 -76 -8q-33 0 -76 18q-39 16 -77.5 59.5t-63.5 106.5q-25 65 -25 160z M207 403q143 57 207 93q72 41 114 79q39 37 52 70q10 29 10 70q0 35 -8 53q-12 29 -21 37q-14 14 -29 20q-16 6 -34 6q-16 0 -47 -12q-33 -12 -60 -37q-37 -33 -65 -73q-31 -43 -55.5 -92.5t-43.5 -104.5q-16 -52 -20 -109zM454 1061l273 397l24 -6q4 -2 33 -10 q12 -4 33 -12q18 -8 22 -11l15 -45l-354 -348q-18 4 -25 10z" />
<glyph unicode="&#xea;" horiz-adv-x="804" d="M63 303q0 77 19 154q18 74 55 145q41 78 86 131t119 113q20 18 51 35q27 14 62 28q41 16 63 21q35 6 64 6q43 0 75 -16q31 -14 52 -39q20 -23 30.5 -58t10.5 -63.5t-6.5 -59t-26.5 -63.5q-20 -35 -58 -70q-33 -33 -96 -73q-41 -27 -147 -80q-49 -25 -209 -86 q6 -57 24 -103q20 -53 41 -80q27 -35 50 -51q28 -18 55 -18q10 0 51 4q23 2 70 20q37 14 88 43q45 25 110 78q4 -2 19 -20q10 -12 12 -21q-96 -82 -145 -114q-68 -45 -113 -68q-39 -18 -88 -31q-35 -8 -76 -8q-33 0 -76 18q-39 16 -77.5 59.5t-63.5 106.5q-25 65 -25 160z M207 403q143 57 207 93q72 41 114 79q39 37 52 70q10 29 10 70q0 35 -8 53q-12 29 -21 37q-14 14 -29 20q-16 6 -34 6q-16 0 -47 -12q-33 -12 -60 -37q-37 -33 -65 -73q-31 -43 -55.5 -92.5t-43.5 -104.5q-16 -52 -20 -109zM241 1071l285 371h92l183 -371q-4 -6 -9.5 -12 t-7.5 -10.5t-4 -6.5q-6 -8 -24 -16l-207 264l-275 -264q-6 4 -14 16q-17 27 -19 29z" />
<glyph unicode="&#xeb;" horiz-adv-x="804" d="M63 303q0 77 19 154q18 74 55 145q41 78 86 131t119 113q20 18 51 35q27 14 62 28q41 16 63 21q35 6 64 6q43 0 75 -16q31 -14 52 -39q20 -23 30.5 -58t10.5 -63.5t-6.5 -59t-26.5 -63.5q-20 -35 -58 -70q-33 -33 -96 -73q-41 -27 -147 -80q-49 -25 -209 -86 q6 -57 24 -103q20 -53 41 -80q27 -35 50 -51q28 -18 55 -18q10 0 51 4q23 2 70 20q37 14 88 43q45 25 110 78q4 -2 19 -20q10 -12 12 -21q-96 -82 -145 -114q-68 -45 -113 -68q-39 -18 -88 -31q-35 -8 -76 -8q-33 0 -76 18q-39 16 -77.5 59.5t-63.5 106.5q-25 65 -25 160z M207 403q143 57 207 93q72 41 114 79q39 37 52 70q10 29 10 70q0 35 -8 53q-12 29 -21 37q-14 14 -29 20q-16 6 -34 6q-16 0 -47 -12q-33 -12 -60 -37q-37 -33 -65 -73q-31 -43 -55.5 -92.5t-43.5 -104.5q-16 -52 -20 -109zM256 1176q0 25 10 55q9 28 25 49q16 25 41 39 q23 14 51 14q31 0 49 -18q16 -16 16 -53q0 -31 -8 -56q-9 -28 -25 -49q-14 -20 -40 -37q-23 -14 -52 -14q-31 0 -49 18.5t-18 51.5zM628 1176q0 25 11 55q9 28 24 49q16 23 39 39q20 14 51 14t49.5 -18.5t18.5 -52.5q0 -31 -8 -56q-9 -28 -25 -49q-14 -20 -41 -37 q-23 -14 -53 -14q-29 0 -47.5 18.5t-18.5 51.5z" />
<glyph unicode="&#xec;" horiz-adv-x="503" d="M70 840l84 37l77 30l64 21q25 8 39 8q27 0 39 -18.5t12 -65.5q0 -12 -8 -86q-6 -57 -19 -127l-24 -145q-6 -43 -14.5 -83t-12.5 -65q-12 -72 -18 -125q-8 -74 -8 -86q0 -29 6 -45q6 -14 24 -14q35 0 60 8q59 20 69 25l15 -37q-47 -29 -84 -49l-70 -35q-35 -16 -55 -23 q-25 -6 -47 -6q-31 0 -54 31q-20 29 -20 86q0 12 8 86q6 55 19 123q10 68 22 141l12.5 69.5l12.5 69.5q12 70 18 119q8 70 8 76q0 20 -4 36.5t-8 20.5q-6 6 -12 8t-17 2q-4 0 -24.5 -4t-32.5 -8l-43 -12zM117 1411l31 37q4 2 14 3t16 1q25 4 39 4q8 0 20.5 1t18.5 1h33 l139 -411q-25 -14 -33 -17q-16 -4 -28 -4z" />
<glyph unicode="&#xed;" horiz-adv-x="503" d="M70 840l84 37l77 30l64 21q25 8 39 8q27 0 39 -18.5t12 -65.5q0 -12 -8 -86q-6 -57 -19 -127l-24 -145q-6 -43 -14.5 -83t-12.5 -65q-12 -72 -18 -125q-8 -74 -8 -86q0 -29 6 -45q6 -14 24 -14q35 0 60 8q59 20 69 25l15 -37q-47 -29 -84 -49l-70 -35q-35 -16 -55 -23 q-25 -6 -47 -6q-31 0 -54 31q-20 29 -20 86q0 12 8 86q6 55 19 123q10 68 22 141l12.5 69.5l12.5 69.5q12 70 18 119q8 70 8 76q0 20 -4 36.5t-8 20.5q-6 6 -12 8t-17 2q-4 0 -24.5 -4t-32.5 -8l-43 -12zM303 1061l273 397l24 -6q4 -2 33 -10q12 -4 33 -12q18 -8 22 -11 l15 -45l-354 -348q-18 4 -25 10z" />
<glyph unicode="&#xee;" horiz-adv-x="503" d="M70 840l84 37l77 30l64 21q25 8 39 8q27 0 39 -18.5t12 -65.5q0 -12 -8 -86q-6 -57 -19 -127l-24 -145q-6 -43 -14.5 -83t-12.5 -65q-12 -72 -18 -125q-8 -74 -8 -86q0 -29 6 -45q6 -14 24 -14q35 0 60 8q59 20 69 25l15 -37q-47 -29 -84 -49l-70 -35q-35 -16 -55 -23 q-25 -6 -47 -6q-31 0 -54 31q-20 29 -20 86q0 12 8 86q6 55 19 123q10 68 22 141l12.5 69.5l12.5 69.5q12 70 18 119q8 70 8 76q0 20 -4 36.5t-8 20.5q-6 6 -12 8t-17 2q-4 0 -24.5 -4t-32.5 -8l-43 -12zM88 1071l285 371h92l183 -371q-4 -6 -9.5 -12t-7.5 -10.5t-4 -6.5 q-6 -8 -24 -16l-207 264l-275 -264q-6 4 -14 16q-17 27 -19 29z" />
<glyph unicode="&#xef;" horiz-adv-x="503" d="M70 840l84 37l77 30l64 21q25 8 39 8q27 0 39 -18.5t12 -65.5q0 -12 -8 -86q-6 -57 -19 -127l-24 -145q-6 -43 -14.5 -83t-12.5 -65q-12 -72 -18 -125q-8 -74 -8 -86q0 -29 6 -45q6 -14 24 -14q35 0 60 8q59 20 69 25l15 -37q-47 -29 -84 -49l-70 -35q-35 -16 -55 -23 q-25 -6 -47 -6q-31 0 -54 31q-20 29 -20 86q0 12 8 86q6 55 19 123q10 68 22 141l12.5 69.5l12.5 69.5q12 70 18 119q8 70 8 76q0 20 -4 36.5t-8 20.5q-6 6 -12 8t-17 2q-4 0 -24.5 -4t-32.5 -8l-43 -12zM105 1176q0 25 10 55q9 28 25 49q16 25 41 39q23 14 51 14 q31 0 49 -18q16 -16 16 -53q0 -31 -8 -56q-9 -28 -25 -49q-14 -20 -40 -37q-23 -14 -52 -14q-31 0 -49 18.5t-18 51.5zM477 1176q0 25 11 55q9 28 24 49q16 23 39 39q20 14 51 14t49.5 -18.5t18.5 -52.5q0 -31 -8 -56q-9 -28 -25 -49q-14 -20 -41 -37q-23 -14 -53 -14 q-29 0 -47.5 18.5t-18.5 51.5z" />
<glyph unicode="&#xf0;" horiz-adv-x="884" d="M53 324q0 72 17 153q14 72 47 144q35 78 71 127q41 55 90.5 98t108.5 67q53 23 117 23q25 0 55 -10q27 -8 53 -29q33 -25 52 -43q31 -31 43 -49q-12 102 -45 180q-33 80 -91 152l-213 -97q-20 4 -24 4q-8 0 -17 5q-2 2 -8 3t-8 1q-4 0 -9 3t-11 5l-5 35l240 108l-16 18 q-16 17 -27 25q-33 25 -51.5 33t-59.5 16q-31 6 -69 0v41l188 72q31 -25 84 -74q14 -12 72 -75l197 88q22 -3 30 -7q2 0 9.5 -1t9.5 -3l12 -6q8 -4 16 -6l2 -35l-223 -100q78 -113 117 -236q37 -119 37 -247q0 -104 -19 -201q-18 -94 -53 -180t-80 -152q-39 -57 -100 -115 q-51 -47 -113 -73q-63 -27 -117 -27q-76 0 -131 27q-57 27 -98 77q-37 47 -59 115q-21 64 -21 146zM193 397q0 -63 16 -129q14 -55 45 -104q31 -47 63 -70q39 -27 78 -26q74 0 125 45q57 51 92 116q37 72 60 162q22 89 30 178q-8 53 -34 103q-29 53 -58 82q-37 37 -71 53 q-39 18 -76 18q-47 0 -82 -20q-41 -25 -68 -53q-29 -33 -51 -76q-25 -49 -39 -92q-16 -51 -22 -95q-8 -65 -8 -92z" />
<glyph unicode="&#xf1;" horiz-adv-x="1011" d="M47 842l84 35q43 18 80 30l34.5 11.5t30.5 9.5q25 8 39 8q10 0 23 -4q6 -2 10 -17q4 -16 4 -34q0 -6 1 -24.5t1 -33.5q0 -4 -1 -14t-1 -16.5t-1 -19.5t-1 -21q0 -12 -4 -41q-2 -14 -2 -33q61 74 109 117q53 47 108 79.5t103 47.5q45 14 94 14q33 0 55 -8q27 -10 41 -31 q16 -23 24.5 -53.5t8.5 -81.5q0 -34 -6 -86q-2 -16 -17 -113q-4 -31 -22 -125q-8 -39 -23 -123q-16 -100 -16 -104q-6 -47 -6 -76q0 -33 10 -47q8 -12 27 -12q27 0 53 8q47 14 71 25l15 -37q-88 -53 -154 -84q-59 -29 -102 -29q-37 0 -55.5 30.5t-18.5 86.5q0 18 6 65 q2 14 4 30.5t6.5 40.5t6.5 38l22 131l23 133l8 54t8 59q6 49 6 73q0 74 -16 107q-14 29 -60 29q-8 0 -45 -17q-31 -14 -73 -47q-49 -39 -86 -80q-51 -57 -82 -112q-27 -47 -45 -115q-12 -47 -35 -164q-18 -106 -21 -154q-3 -61 -3 -88q0 -19 1 -34q-4 -2 -15 -6.5t-17 -8.5 q-10 -4 -20.5 -9t-20.5 -9q-20 -8 -39 -17q-6 -4 -16.5 -9l-14.5 -7l-33 31q10 47 27 143q16 90 26 154l25 153q4 29 10 77l8 63q10 68 13 110q4 66 4 72q0 29 -2 37t-8 20q-2 4 -11 8q-4 2 -16 2q-2 0 -27 -4q-8 -2 -35 -10q-20 -6 -45 -12zM293 1114q29 53 47 80 q29 39 59 72q35 35 68 51q37 18 74 18q35 0 59 -16q39 -25 51 -37l23.5 -20.5t21.5 -18.5q18 -16 43 -16q31 0 74 33q37 29 76 86l45 -21q-29 -53 -47 -80q-33 -47 -58 -71q-31 -31 -67 -50q-41 -20 -74 -20q-35 0 -57 16q-33 25 -49 39q-12 10 -47 37q-23 16 -50 16 q-35 0 -71 -30q-27 -23 -78 -88z" />
<glyph unicode="&#xf2;" horiz-adv-x="862" d="M53 344q0 72 12.5 139.5t38.5 126.5q29 66 72 119q46 58 111 111q53 41 112 67q63 29 123 29q76 0 133 -29q55 -29 90 -78q33 -49 50 -118q16 -72 16 -152q0 -72 -14 -135q-14 -59 -45 -133q-27 -61 -72 -123q-43 -58 -98 -105q-20 -16 -56 -40q-25 -16 -57 -33 q-20 -10 -61 -23q-27 -8 -62 -8q-74 0 -125 29q-57 31 -92 82q-41 57 -57 123q-19 69 -19 151zM197 399q0 -66 16 -127t47 -104q35 -49 68 -70q43 -27 86 -26q47 0 82 20q39 23 65 55q25 29 49 80q20 39 33 92q12 51 19 97q6 49 6 88q0 154 -56 233q-57 82 -159 82 q-74 0 -121 -41q-49 -43 -78 -104q-31 -66 -43 -137q-14 -87 -14 -138zM264 1411l31 37q4 2 14 3t16 1q25 4 39 4q8 0 20.5 1t18.5 1h33l139 -411q-25 -14 -33 -17q-16 -4 -28 -4z" />
<glyph unicode="&#xf3;" horiz-adv-x="862" d="M53 344q0 72 12.5 139.5t38.5 126.5q29 66 72 119q46 58 111 111q53 41 112 67q63 29 123 29q76 0 133 -29q55 -29 90 -78q33 -49 50 -118q16 -72 16 -152q0 -72 -14 -135q-14 -59 -45 -133q-27 -61 -72 -123q-43 -58 -98 -105q-20 -16 -56 -40q-25 -16 -57 -33 q-20 -10 -61 -23q-27 -8 -62 -8q-74 0 -125 29q-57 31 -92 82q-41 57 -57 123q-19 69 -19 151zM197 399q0 -66 16 -127t47 -104q35 -49 68 -70q43 -27 86 -26q47 0 82 20q39 23 65 55q25 29 49 80q20 39 33 92q12 51 19 97q6 49 6 88q0 154 -56 233q-57 82 -159 82 q-74 0 -121 -41q-49 -43 -78 -104q-31 -66 -43 -137q-14 -87 -14 -138zM450 1061l273 397l24 -6q4 -2 33 -10q12 -4 33 -12q18 -8 22 -11l15 -45l-354 -348q-18 4 -25 10z" />
<glyph unicode="&#xf4;" horiz-adv-x="862" d="M53 344q0 72 12.5 139.5t38.5 126.5q29 66 72 119q46 58 111 111q53 41 112 67q63 29 123 29q76 0 133 -29q55 -29 90 -78q33 -49 50 -118q16 -72 16 -152q0 -72 -14 -135q-14 -59 -45 -133q-27 -61 -72 -123q-43 -58 -98 -105q-20 -16 -56 -40q-25 -16 -57 -33 q-20 -10 -61 -23q-27 -8 -62 -8q-74 0 -125 29q-57 31 -92 82q-41 57 -57 123q-19 69 -19 151zM197 399q0 -66 16 -127t47 -104q35 -49 68 -70q43 -27 86 -26q47 0 82 20q39 23 65 55q25 29 49 80q20 39 33 92q12 51 19 97q6 49 6 88q0 154 -56 233q-57 82 -159 82 q-74 0 -121 -41q-49 -43 -78 -104q-31 -66 -43 -137q-14 -87 -14 -138zM235 1071l285 371h92l183 -371q-4 -6 -9.5 -12t-7.5 -10.5t-4 -6.5q-6 -8 -24 -16l-207 264l-275 -264q-6 4 -14 16q-17 27 -19 29z" />
<glyph unicode="&#xf5;" horiz-adv-x="862" d="M53 344q0 72 12.5 139.5t38.5 126.5q29 66 72 119q46 58 111 111q53 41 112 67q63 29 123 29q76 0 133 -29q55 -29 90 -78q33 -49 50 -118q16 -72 16 -152q0 -72 -14 -135q-14 -59 -45 -133q-27 -61 -72 -123q-43 -58 -98 -105q-20 -16 -56 -40q-25 -16 -57 -33 q-20 -10 -61 -23q-27 -8 -62 -8q-74 0 -125 29q-57 31 -92 82q-41 57 -57 123q-19 69 -19 151zM197 399q0 -66 16 -127t47 -104q35 -49 68 -70q43 -27 86 -26q47 0 82 20q39 23 65 55q25 29 49 80q20 39 33 92q12 51 19 97q6 49 6 88q0 154 -56 233q-57 82 -159 82 q-74 0 -121 -41q-49 -43 -78 -104q-31 -66 -43 -137q-14 -87 -14 -138zM215 1114q29 53 47 80q29 39 59 72q35 35 68 51q37 18 74 18q35 0 59 -16q39 -25 51 -37l23.5 -20.5t21.5 -18.5q18 -16 43 -16q31 0 74 33q37 29 76 86l45 -21q-29 -53 -47 -80q-33 -47 -58 -71 q-31 -31 -67 -50q-41 -20 -74 -20q-35 0 -57 16q-33 25 -49 39q-12 10 -47 37q-23 16 -50 16q-35 0 -71 -30q-27 -23 -78 -88z" />
<glyph unicode="&#xf6;" horiz-adv-x="862" d="M53 344q0 72 12.5 139.5t38.5 126.5q29 66 72 119q46 58 111 111q53 41 112 67q63 29 123 29q76 0 133 -29q55 -29 90 -78q33 -49 50 -118q16 -72 16 -152q0 -72 -14 -135q-14 -59 -45 -133q-27 -61 -72 -123q-43 -58 -98 -105q-20 -16 -56 -40q-25 -16 -57 -33 q-20 -10 -61 -23q-27 -8 -62 -8q-74 0 -125 29q-57 31 -92 82q-41 57 -57 123q-19 69 -19 151zM197 399q0 -66 16 -127t47 -104q35 -49 68 -70q43 -27 86 -26q47 0 82 20q39 23 65 55q25 29 49 80q20 39 33 92q12 51 19 97q6 49 6 88q0 154 -56 233q-57 82 -159 82 q-74 0 -121 -41q-49 -43 -78 -104q-31 -66 -43 -137q-14 -87 -14 -138zM252 1176q0 25 10 55q9 28 25 49q16 25 41 39q23 14 51 14q31 0 49 -18q16 -16 16 -53q0 -31 -8 -56q-9 -28 -25 -49q-14 -20 -40 -37q-23 -14 -52 -14q-31 0 -49 18.5t-18 51.5zM624 1176q0 25 11 55 q9 28 24 49q16 23 39 39q20 14 51 14t49.5 -18.5t18.5 -52.5q0 -31 -8 -56q-9 -28 -25 -49q-14 -20 -41 -37q-23 -14 -53 -14q-29 0 -47.5 18.5t-18.5 51.5z" />
<glyph unicode="&#xf7;" horiz-adv-x="768" d="M70 528q4 8 8 20.5t10 26.5l23 46h585l19 -25q-6 -18 -8 -23l-11 -24q-2 -4 -5 -12.5t-5 -12.5q-4 -6 -6 -10l-4 -8h-588zM285 307q2 18 12 41q6 14 22 35q6 8 31 23q16 10 33 10q61 0 49 -76q-4 -29 -10 -43t-23 -35q-10 -12 -30 -24q-14 -8 -33 -9q-33 0 -45 20.5 t-6 57.5zM352 786q3 22 13 43q6 14 22 35q8 10 29 23q14 8 35 8q61 0 49 -76q-3 -22 -13 -43q-6 -14 -22 -35q-6 -8 -31 -22q-14 -8 -33 -8q-33 0 -43 18q-12 20 -6 57z" />
<glyph unicode="&#xf8;" horiz-adv-x="862" d="M-14 -31l116 144q-25 49 -36 106q-12 59 -13 125q0 72 12.5 139.5t38.5 126.5q29 66 72 119q46 58 111 111q53 41 112 67q63 29 123 29q61 0 111 -18q45 -16 82 -54l20 25l26.5 17.5l33.5 21.5q31 20 59 30l23 -32l-109 -135q25 -53 33 -105q10 -66 10 -127 q0 -72 -14 -135q-14 -59 -45 -133q-27 -61 -72 -123q-43 -58 -98 -105q-20 -16 -56 -40q-25 -16 -57 -33q-20 -10 -61 -23q-27 -8 -62 -8q-57 0 -108 23q-43 18 -84 59l-27 -33q-9 -9 -25 -18q-31 -18 -34 -21q-12 -6 -33 -18q-14 -8 -29 -12zM197 399q0 -39 6 -75 q8 -45 16 -68l393 481q-55 82 -159 82q-74 0 -121 -41q-49 -43 -78 -104q-31 -66 -43 -137q-14 -87 -14 -138zM258 170q27 -45 70 -71.5t86 -26.5q47 0 82 20q39 23 65 55q25 29 49 80q20 39 33 92q12 51 19 97q6 49 6 88q0 88 -17 145z" />
<glyph unicode="&#xf9;" horiz-adv-x="1021" d="M39 840l84 37q43 18 80 30l63 21q25 8 39 8q31 0 39 -18q10 -20 10 -66q0 -29 -6 -76q-10 -82 -14 -102q-4 -31 -10.5 -63.5l-10.5 -53.5q-8 -47 -18 -117q-4 -20 -14 -102q-6 -47 -7 -76q0 -98 21 -139q20 -43 57 -43q16 0 54 20q27 14 73 62q41 41 92 114 q57 82 103 170q6 43 14 86q6 35 14 86q0 6 5.5 34t7.5 42q4 49 4 66q0 29 -2 37q-4 16 -8 20q-6 6 -10.5 8t-16.5 2q-4 0 -24.5 -4t-30.5 -8q-25 -8 -39 -12l-15 37l82 37q33 14 76 30q12 4 32.5 11.5t29.5 9.5q23 8 38 8q28 0 37 -18q8 -16 9 -66q0 -29 -7 -76 q-10 -82 -14 -102q-12 -74 -20 -115q-6 -31 -21 -117q-4 -25 -14 -106q-6 -49 -6 -82q0 -86 14 -135q12 -43 37 -43q27 0 53 6q16 4 62 22l14 -36q-70 -47 -137 -82q-53 -27 -95 -27q-20 0 -38.5 18.5t-30.5 57.5q-12 40 -19 104q-3 32 -3 71t3 87q-40 -74 -86 -135 q-51 -68 -94 -109q-47 -45 -100 -69q-51 -25 -107 -25q-18 0 -45 16q-31 20 -49 45q-20 31 -37 78q-16 49 -16 107q0 29 6 76q2 8 5 43.5t7 56.5l18.5 108.5l18.5 108.5q4 16 14 96q4 29 5 66q0 29 -2 37q-4 16 -9 20q-2 2 -14 8q-4 2 -16 2q-2 0 -27 -4q-16 -2 -33 -8 l-43 -12zM340 1411l31 37q4 2 14 3t16 1q25 4 39 4q8 0 20.5 1t18.5 1h33l139 -411q-25 -14 -33 -17q-16 -4 -28 -4z" />
<glyph unicode="&#xfa;" horiz-adv-x="1021" d="M39 840l84 37q43 18 80 30l63 21q25 8 39 8q31 0 39 -18q10 -20 10 -66q0 -29 -6 -76q-10 -82 -14 -102q-4 -31 -10.5 -63.5l-10.5 -53.5q-8 -47 -18 -117q-4 -20 -14 -102q-6 -47 -7 -76q0 -98 21 -139q20 -43 57 -43q16 0 54 20q27 14 73 62q41 41 92 114 q57 82 103 170q6 43 14 86q6 35 14 86q0 6 5.5 34t7.5 42q4 49 4 66q0 29 -2 37q-4 16 -8 20q-6 6 -10.5 8t-16.5 2q-4 0 -24.5 -4t-30.5 -8q-25 -8 -39 -12l-15 37l82 37q33 14 76 30q12 4 32.5 11.5t29.5 9.5q23 8 38 8q28 0 37 -18q8 -16 9 -66q0 -29 -7 -76 q-10 -82 -14 -102q-12 -74 -20 -115q-6 -31 -21 -117q-4 -25 -14 -106q-6 -49 -6 -82q0 -86 14 -135q12 -43 37 -43q27 0 53 6q16 4 62 22l14 -36q-70 -47 -137 -82q-53 -27 -95 -27q-20 0 -38.5 18.5t-30.5 57.5q-12 40 -19 104q-3 32 -3 71t3 87q-40 -74 -86 -135 q-51 -68 -94 -109q-47 -45 -100 -69q-51 -25 -107 -25q-18 0 -45 16q-31 20 -49 45q-20 31 -37 78q-16 49 -16 107q0 29 6 76q2 8 5 43.5t7 56.5l18.5 108.5l18.5 108.5q4 16 14 96q4 29 5 66q0 29 -2 37q-4 16 -9 20q-2 2 -14 8q-4 2 -16 2q-2 0 -27 -4q-16 -2 -33 -8 l-43 -12zM526 1061l273 397l24 -6q4 -2 33 -10q12 -4 33 -12q18 -8 22 -11l15 -45l-354 -348q-18 4 -25 10z" />
<glyph unicode="&#xfb;" horiz-adv-x="1021" d="M39 840l84 37q43 18 80 30l63 21q25 8 39 8q31 0 39 -18q10 -20 10 -66q0 -29 -6 -76q-10 -82 -14 -102q-4 -31 -10.5 -63.5l-10.5 -53.5q-8 -47 -18 -117q-4 -20 -14 -102q-6 -47 -7 -76q0 -98 21 -139q20 -43 57 -43q16 0 54 20q27 14 73 62q41 41 92 114 q57 82 103 170q6 43 14 86q6 35 14 86q0 6 5.5 34t7.5 42q4 49 4 66q0 29 -2 37q-4 16 -8 20q-6 6 -10.5 8t-16.5 2q-4 0 -24.5 -4t-30.5 -8q-25 -8 -39 -12l-15 37l82 37q33 14 76 30q12 4 32.5 11.5t29.5 9.5q23 8 38 8q28 0 37 -18q8 -16 9 -66q0 -29 -7 -76 q-10 -82 -14 -102q-12 -74 -20 -115q-6 -31 -21 -117q-4 -25 -14 -106q-6 -49 -6 -82q0 -86 14 -135q12 -43 37 -43q27 0 53 6q16 4 62 22l14 -36q-70 -47 -137 -82q-53 -27 -95 -27q-20 0 -38.5 18.5t-30.5 57.5q-12 40 -19 104q-3 32 -3 71t3 87q-40 -74 -86 -135 q-51 -68 -94 -109q-47 -45 -100 -69q-51 -25 -107 -25q-18 0 -45 16q-31 20 -49 45q-20 31 -37 78q-16 49 -16 107q0 29 6 76q2 8 5 43.5t7 56.5l18.5 108.5l18.5 108.5q4 16 14 96q4 29 5 66q0 29 -2 37q-4 16 -9 20q-2 2 -14 8q-4 2 -16 2q-2 0 -27 -4q-16 -2 -33 -8 l-43 -12zM313 1071l285 371h92l183 -371q-4 -6 -9.5 -12t-7.5 -10.5t-4 -6.5q-6 -8 -24 -16l-207 264l-275 -264q-6 4 -14 16q-17 27 -19 29z" />
<glyph unicode="&#xfc;" horiz-adv-x="1021" d="M39 840l84 37q43 18 80 30l63 21q25 8 39 8q31 0 39 -18q10 -20 10 -66q0 -29 -6 -76q-10 -82 -14 -102q-4 -31 -10.5 -63.5l-10.5 -53.5q-8 -47 -18 -117q-4 -20 -14 -102q-6 -47 -7 -76q0 -98 21 -139q20 -43 57 -43q16 0 54 20q27 14 73 62q41 41 92 114 q57 82 103 170q6 43 14 86q6 35 14 86q0 6 5.5 34t7.5 42q4 49 4 66q0 29 -2 37q-4 16 -8 20q-6 6 -10.5 8t-16.5 2q-4 0 -24.5 -4t-30.5 -8q-25 -8 -39 -12l-15 37l82 37q33 14 76 30q12 4 32.5 11.5t29.5 9.5q23 8 38 8q28 0 37 -18q8 -16 9 -66q0 -29 -7 -76 q-10 -82 -14 -102q-12 -74 -20 -115q-6 -31 -21 -117q-4 -25 -14 -106q-6 -49 -6 -82q0 -86 14 -135q12 -43 37 -43q27 0 53 6q16 4 62 22l14 -36q-70 -47 -137 -82q-53 -27 -95 -27q-20 0 -38.5 18.5t-30.5 57.5q-12 40 -19 104q-3 32 -3 71t3 87q-40 -74 -86 -135 q-51 -68 -94 -109q-47 -45 -100 -69q-51 -25 -107 -25q-18 0 -45 16q-31 20 -49 45q-20 31 -37 78q-16 49 -16 107q0 29 6 76q2 8 5 43.5t7 56.5l18.5 108.5l18.5 108.5q4 16 14 96q4 29 5 66q0 29 -2 37q-4 16 -9 20q-2 2 -14 8q-4 2 -16 2q-2 0 -27 -4q-16 -2 -33 -8 l-43 -12zM328 1176q0 25 10 55q9 28 25 49q16 25 41 39q23 14 51 14q31 0 49 -18q16 -16 16 -53q0 -31 -8 -56q-9 -28 -25 -49q-14 -20 -40 -37q-23 -14 -52 -14q-31 0 -49 18.5t-18 51.5zM700 1176q0 25 11 55q9 28 24 49q16 23 39 39q20 14 51 14t49.5 -18.5t18.5 -52.5 q0 -31 -8 -56q-9 -28 -25 -49q-14 -20 -41 -37q-23 -14 -53 -14q-29 0 -47.5 18.5t-18.5 51.5z" />
<glyph unicode="&#xfd;" horiz-adv-x="925" d="M-180 -449q0 14 8 33t25 45q15 25 30 43q18 20 31 27l41 -25q25 -12 35 -14q20 -4 33 -4h32q84 0 160 78q84 86 162 223q-8 45 -25 129l-33 152l-36 153q-20 86 -37 146q-18 68 -37 122q-20 61 -33 86q-18 45 -39 66q-16 16 -33 16q-6 0 -26 -4q-25 -4 -33 -8 q-25 -8 -39 -12l-12 37q23 8 80 37q39 18 69 30q8 4 26.5 10.5t27.5 10.5q18 8 34 8q15 0 25 -6q12 -8 20 -23q10 -16 19 -39l22 -59q31 -94 41 -127l45 -160q4 -18 20.5 -79.5l25.5 -96.5q33 -139 40 -180l64 127l63 131q37 76 56 121l45 108q25 66 31 84q10 31 10 54 q0 49 -53 53h-7q-29 0 -84 -23l-18 37q61 37 127 60q55 18 88 18q23 0 33 -2q14 -2 24 -10q12 -9 19 -25q6 -14 6 -39q0 -37 -19 -88q-27 -76 -59 -143l-110 -221l-164 -326q-72 -139 -133 -238q-70 -111 -138 -184q-72 -78 -145.5 -119t-161.5 -41q-37 0 -55 4 q-31 6 -47.5 12.5t-30.5 16.5q-10 8 -10 18zM510 1061l273 397l24 -6q4 -2 33 -10q12 -4 33 -12q18 -8 22 -11l15 -45l-354 -348q-18 4 -25 10z" />
<glyph unicode="&#xfe;" horiz-adv-x="964" d="M-2 -471l35 207l20 123.5l21 128.5q6 41 20.5 117.5t26.5 158.5l45 283q12 74 21.5 141.5t19.5 126.5l33 236q15 108 24 184q8 68 8 111q0 20 -4 36q-2 10 -12 21q-4 4 -16 8q-6 2 -21 2q-6 0 -26 -4q-8 -2 -16.5 -5t-16.5 -5q-18 -6 -41 -13l-13 39q14 6 43 17.5 l44 17.5l81 31q12 4 36 11t32 9q25 8 41 9q33 0 41 -21q8 -18 8 -72q0 -18 -6 -84q-2 -18 -5 -42.5t-8 -59.5t-7 -59l-35 -234q-6 -51 -23.5 -156.5t-21.5 -138.5q70 102 118 152q63 63 101 86q45 27 84 37q33 8 67 8q39 0 72 -21q41 -27 61 -59q27 -45 41 -96 q14 -55 15 -133q0 -96 -29 -211q-31 -123 -90 -228q-18 -33 -55 -82q-25 -33 -68 -71q-35 -31 -82 -55q-41 -20 -90 -21q-31 0 -61 18q-37 23 -60 48q-31 35 -53 67l-49 80q-6 -23 -15 -82q-4 -27 -16 -84q-35 -215 -41 -315q-6 -119 2 -137q-4 0 -8 -2.5t-7 -3.5t-9.5 -2 t-10.5 -3q-20 -6 -41 -14q-8 -2 -22 -8l-19 -8q-25 -8 -32 -13zM270 307q14 -27 43 -69q23 -33 62 -72t74 -57q41 -23 79 -23q25 0 52 10q23 8 43 29q27 27 36 43q14 20 27 51q14 31 29 82q8 31 16 84q6 43 6 80q0 12 1 34.5t1 32.5q0 70 -12 121q-14 59 -29 86 q-18 33 -40.5 49.5t-47.5 16.5q-29 0 -65 -23q-43 -27 -84 -67q-43 -43 -86 -105q-41 -57 -76 -135z" />
<glyph unicode="&#xff;" horiz-adv-x="925" d="M-180 -449q0 14 8 33t25 45q15 25 30 43q18 20 31 27l41 -25q25 -12 35 -14q20 -4 33 -4h32q84 0 160 78q84 86 162 223q-8 45 -25 129l-33 152l-36 153q-20 86 -37 146q-18 68 -37 122q-20 61 -33 86q-18 45 -39 66q-16 16 -33 16q-6 0 -26 -4q-25 -4 -33 -8 q-25 -8 -39 -12l-12 37q23 8 80 37q39 18 69 30q8 4 26.5 10.5t27.5 10.5q18 8 34 8q15 0 25 -6q12 -8 20 -23q10 -16 19 -39l22 -59q31 -94 41 -127l45 -160q4 -18 20.5 -79.5l25.5 -96.5q33 -139 40 -180l64 127l63 131q37 76 56 121l45 108q25 66 31 84q10 31 10 54 q0 49 -53 53h-7q-29 0 -84 -23l-18 37q61 37 127 60q55 18 88 18q23 0 33 -2q14 -2 24 -10q12 -9 19 -25q6 -14 6 -39q0 -37 -19 -88q-27 -76 -59 -143l-110 -221l-164 -326q-72 -139 -133 -238q-70 -111 -138 -184q-72 -78 -145.5 -119t-161.5 -41q-37 0 -55 4 q-31 6 -47.5 12.5t-30.5 16.5q-10 8 -10 18zM312 1176q0 25 10 55q9 28 25 49q16 25 41 39q23 14 51 14q31 0 49 -18q16 -16 16 -53q0 -31 -8 -56q-9 -28 -25 -49q-14 -20 -40 -37q-23 -14 -52 -14q-31 0 -49 18.5t-18 51.5zM684 1176q0 25 11 55q9 28 24 49q16 23 39 39 q20 14 51 14t49.5 -18.5t18.5 -52.5q0 -31 -8 -56q-9 -28 -25 -49q-14 -20 -41 -37q-23 -14 -53 -14q-29 0 -47.5 18.5t-18.5 51.5z" />
<glyph unicode="&#x100;" horiz-adv-x="1146" d="M-35 0l6 43q61 12 101 25q37 12 51 43l487 1118q12 12 31 24l37 25q18 12 37 22q6 4 16 9.5t14 7.5l216 -1206q4 -18 8 -25q8 -12 16 -18q10 -8 33 -15q27 -8 53 -10l-4 -43h-385l4 43q74 6 102 20q31 16 25 48l-57 333h-385l-144 -333q-16 -33 17 -45q35 -14 106 -23 l-6 -43h-379zM410 535h329l-94 544zM422 1468q2 6 10 22q2 8 6.5 14.5t6.5 12.5l14 29q8 16 12 22h547l20 -24q-2 -4 -5 -12.5t-5 -12.5l-7 -14t-7 -15q-8 -14 -14 -26q-4 -8 -13 -21h-549z" />
<glyph unicode="&#x101;" d="M53 305q0 76 18.5 154t55.5 145q35 63 90 129q45 53 125 109q20 14 59 35q34 18 68 30q23 8 68 21q31 8 65 8q20 0 41 -6q25 -6 39 -15l37 -18l31 -20l49 30l53 29l20 -35q-25 -20 -28 -24q-6 -6 -19 -27q-8 -14 -14 -35q-12 -41 -14 -55q-18 -88 -29 -148 q-20 -127 -23 -143l-14 -117q-6 -52 -6 -73q0 -43 4 -97q4 -41 8 -61q6 -25 16.5 -35t20.5 -10q20 0 47 6q37 8 68 22l12 -36q-74 -51 -141 -82q-57 -27 -82 -27q-18 0 -34.5 12.5t-29.5 46.5q-14 41 -20 97q-8 82 -8 157q-14 -27 -64 -100q-39 -59 -80 -102 q-53 -55 -88 -80q-47 -31 -88 -31q-35 0 -71.5 18.5t-67.5 61.5q-33 47 -53 106q-21 62 -21 160zM190 379q0 -74 11 -117q12 -53 30 -90q14 -29 45 -55q23 -20 56 -21q25 0 59 31q41 39 72 78q33 43 74 108.5t65 116.5q4 25 16 94l17 94q4 23 8 43.5t8 38.5q6 37 11 60 q-20 16 -33 24q-25 16 -39 23l-43 18q-23 6 -47 6q-45 0 -86 -22q-43 -23 -76 -59q-29 -31 -62 -86q-29 -49 -47 -97q-20 -53 -28 -100q-11 -55 -11 -88zM282 1182q2 6 10 22l13 29q4 10 12 27q2 4 14 22h547l19 -25q-2 -10 -9 -24l-7 -14.5l-7 -14.5q-8 -14 -14 -26 q-4 -8 -13 -21h-548z" />
<glyph unicode="&#x102;" horiz-adv-x="1146" d="M-35 0l6 43q61 12 101 25q37 12 51 43l487 1118q12 12 31 24l37 25q18 12 37 22q6 4 16 9.5t14 7.5l216 -1206q4 -18 8 -25q8 -12 16 -18q10 -8 33 -15q27 -8 53 -10l-4 -43h-385l4 43q74 6 102 20q31 16 25 48l-57 333h-385l-144 -333q-16 -33 17 -45q35 -14 106 -23 l-6 -43h-379zM410 535h329l-94 544zM453 1654q14 18 27 27q4 4 14 9l14 7q18 -68 37 -94q23 -35 53 -61q25 -23 60 -33t59 -10q27 0 68 10q37 8 71 33q29 18 68 61q37 39 64 94q20 -12 24 -16q10 -10 19 -27q-35 -76 -78 -135q-39 -55 -82 -88q-41 -31 -84 -47 q-41 -14 -82 -14q-45 0 -82 14q-45 16 -72 47q-31 35 -55 88q-25 55 -43 135z" />
<glyph unicode="&#x103;" d="M53 305q0 76 18.5 154t55.5 145q35 63 90 129q45 53 125 109q20 14 59 35q34 18 68 30q23 8 68 21q31 8 65 8q20 0 41 -6q25 -6 39 -15l37 -18l31 -20l49 30l53 29l20 -35q-25 -20 -28 -24q-6 -6 -19 -27q-8 -14 -14 -35q-12 -41 -14 -55q-18 -88 -29 -148 q-20 -127 -23 -143l-14 -117q-6 -52 -6 -73q0 -43 4 -97q4 -41 8 -61q6 -25 16.5 -35t20.5 -10q20 0 47 6q37 8 68 22l12 -36q-74 -51 -141 -82q-57 -27 -82 -27q-18 0 -34.5 12.5t-29.5 46.5q-14 41 -20 97q-8 82 -8 157q-14 -27 -64 -100q-39 -59 -80 -102 q-53 -55 -88 -80q-47 -31 -88 -31q-35 0 -71.5 18.5t-67.5 61.5q-33 47 -53 106q-21 62 -21 160zM190 379q0 -74 11 -117q12 -53 30 -90q14 -29 45 -55q23 -20 56 -21q25 0 59 31q41 39 72 78q33 43 74 108.5t65 116.5q4 25 16 94l17 94q4 23 8 43.5t8 38.5q6 37 11 60 q-20 16 -33 24q-25 16 -39 23l-43 18q-23 6 -47 6q-45 0 -86 -22q-43 -23 -76 -59q-29 -31 -62 -86q-29 -49 -47 -97q-20 -53 -28 -100q-11 -55 -11 -88zM305 1335q14 18 27 27q4 4 14 9l14 7q18 -68 37 -94q23 -35 53 -61q25 -23 60 -33t59 -10q27 0 68 10q37 8 71 33 q29 18 68 61q37 39 64 94q20 -12 24 -16q10 -10 19 -27q-35 -76 -78 -135q-39 -55 -82 -88q-41 -31 -84 -47q-41 -14 -82 -14q-45 0 -82 14q-45 16 -72 47q-31 35 -55 88q-25 55 -43 135z" />
<glyph unicode="&#x106;" horiz-adv-x="993" d="M76 459q0 94 18.5 192.5t57.5 188.5q43 98 100 176q61 84 145 151q70 55 158 90q84 33 178 33t168 -28q70 -29 115 -72q1 -2 1 -5q0 -7 -7 -18q-10 -16 -29 -37l-37 -43q-8 -8 -19.5 -18t-13.5 -12l-30 8q-35 41 -99 74q-58 31 -141 30q-41 0 -90 -18q-45 -16 -90 -51 q-63 -47 -107 -123q-51 -88 -73 -156q-31 -90 -41 -162q-12 -80 -13 -143q0 -115 29 -188q31 -80 76 -131q43 -49 102 -76q55 -25 109 -25q59 0 135 35q82 39 190 125q6 -2 9 -8q2 -2 4 -6t4 -9q0 -2 4 -6t4 -6t1 -5t3 -5q-70 -68 -127 -115q-57 -45 -115 -73 q-53 -27 -102 -39q-41 -10 -96 -11q-78 0 -144 33q-72 35 -120 94q-57 68 -87 152q-30 88 -30 207zM534 1392l391 316l23 -17l27 -18q6 -4 28 -21q8 -6 19 -16v-47l-455 -244q-10 6 -18 18q-7 9 -15 29z" />
<glyph unicode="&#x107;" horiz-adv-x="794" d="M53 322q0 74 15 139q16 78 45 139q31 66 82 131q47 59 124 111q10 6 62 35q35 18 70 30q25 8 73 21q33 8 66 8q47 0 78 -16q39 -20 61 -39l49 -41q23 -20 35 -25l-45 -33q-29 -20 -45 -30l-41 -23q-16 -8 -33 -8q-12 0 -26 16l-39 39q-16 16 -47 37q-29 18 -60 18 q-45 0 -84 -22.5t-69 -58.5q-25 -31 -54 -86q-23 -45 -39 -101q-15 -52 -24 -104q-8 -47 -8 -101q0 -68 14 -116q14 -51 41 -90q20 -33 61 -56q35 -20 80 -20q18 0 45 6q25 6 66 22q23 10 82 46q27 16 98 71l16 -22q2 -4 7.5 -9.5t7.5 -9.5q-78 -72 -139 -114 q-57 -39 -113 -68q-35 -18 -92 -31q-35 -8 -76 -8q-37 0 -76 16q-45 20 -80 60q-41 47 -63 112q-25 71 -25 175zM475 1061l273 397l24 -6q4 -2 33 -10q12 -4 33 -12q18 -8 22 -11l15 -45l-354 -348q-18 4 -25 10z" />
<glyph unicode="&#x108;" horiz-adv-x="993" d="M76 459q0 94 18.5 192.5t57.5 188.5q43 98 100 176q61 84 145 151q70 55 158 90q84 33 178 33t168 -28q70 -29 115 -72q1 -2 1 -5q0 -7 -7 -18q-10 -16 -29 -37l-37 -43q-8 -8 -19.5 -18t-13.5 -12l-30 8q-35 41 -99 74q-58 31 -141 30q-41 0 -90 -18q-45 -16 -90 -51 q-63 -47 -107 -123q-51 -88 -73 -156q-31 -90 -41 -162q-12 -80 -13 -143q0 -115 29 -188q31 -80 76 -131q43 -49 102 -76q55 -25 109 -25q59 0 135 35q82 39 190 125q6 -2 9 -8q2 -2 4 -6t4 -9q0 -2 4 -6t4 -6t1 -5t3 -5q-70 -68 -127 -115q-57 -45 -115 -73 q-53 -27 -102 -39q-41 -10 -96 -11q-78 0 -144 33q-72 35 -120 94q-57 68 -87 152q-30 88 -30 207zM415 1390l275 301h92l193 -301l-13.5 -17.5t-9.5 -11.5q-6 -10 -23 -16l-215 205l-266 -205q-10 6 -16 16q-13 17 -17 29z" />
<glyph unicode="&#x109;" horiz-adv-x="794" d="M53 322q0 74 15 139q16 78 45 139q31 66 82 131q47 59 124 111q10 6 62 35q35 18 70 30q25 8 73 21q33 8 66 8q47 0 78 -16q39 -20 61 -39l49 -41q23 -20 35 -25l-45 -33q-29 -20 -45 -30l-41 -23q-16 -8 -33 -8q-12 0 -26 16l-39 39q-16 16 -47 37q-29 18 -60 18 q-45 0 -84 -22.5t-69 -58.5q-25 -31 -54 -86q-23 -45 -39 -101q-15 -52 -24 -104q-8 -47 -8 -101q0 -68 14 -116q14 -51 41 -90q20 -33 61 -56q35 -20 80 -20q18 0 45 6q25 6 66 22q23 10 82 46q27 16 98 71l16 -22q2 -4 7.5 -9.5t7.5 -9.5q-78 -72 -139 -114 q-57 -39 -113 -68q-35 -18 -92 -31q-35 -8 -76 -8q-37 0 -76 16q-45 20 -80 60q-41 47 -63 112q-25 71 -25 175zM262 1071l285 371h92l183 -371q-4 -6 -9.5 -12t-7.5 -10.5t-4 -6.5q-6 -8 -24 -16l-207 264l-275 -264q-6 4 -14 16q-17 27 -19 29z" />
<glyph unicode="&#x10a;" horiz-adv-x="993" d="M76 459q0 94 18.5 192.5t57.5 188.5q43 98 100 176q61 84 145 151q70 55 158 90q84 33 178 33t168 -28q70 -29 115 -72q1 -2 1 -5q0 -7 -7 -18q-10 -16 -29 -37l-37 -43q-8 -8 -19.5 -18t-13.5 -12l-30 8q-35 41 -99 74q-58 31 -141 30q-41 0 -90 -18q-45 -16 -90 -51 q-63 -47 -107 -123q-51 -88 -73 -156q-31 -90 -41 -162q-12 -80 -13 -143q0 -115 29 -188q31 -80 76 -131q43 -49 102 -76q55 -25 109 -25q59 0 135 35q82 39 190 125q6 -2 9 -8q2 -2 4 -6t4 -9q0 -2 4 -6t4 -6t1 -5t3 -5q-70 -68 -127 -115q-57 -45 -115 -73 q-53 -27 -102 -39q-41 -10 -96 -11q-78 0 -144 33q-72 35 -120 94q-57 68 -87 152q-30 88 -30 207zM616 1462q0 25 10 55q9 28 25 49q16 23 39 39q20 14 51 14q29 0 47 -18q16 -16 16 -53q0 -31 -8 -55q-9 -28 -24 -50q-12 -18 -39 -37q-20 -14 -51 -14q-29 0 -47.5 18.5 t-18.5 51.5z" />
<glyph unicode="&#x10b;" horiz-adv-x="794" d="M53 322q0 74 15 139q16 78 45 139q31 66 82 131q47 59 124 111q10 6 62 35q35 18 70 30q25 8 73 21q33 8 66 8q47 0 78 -16q39 -20 61 -39l49 -41q23 -20 35 -25l-45 -33q-29 -20 -45 -30l-41 -23q-16 -8 -33 -8q-12 0 -26 16l-39 39q-16 16 -47 37q-29 18 -60 18 q-45 0 -84 -22.5t-69 -58.5q-25 -31 -54 -86q-23 -45 -39 -101q-15 -52 -24 -104q-8 -47 -8 -101q0 -68 14 -116q14 -51 41 -90q20 -33 61 -56q35 -20 80 -20q18 0 45 6q25 6 66 22q23 10 82 46q27 16 98 71l16 -22q2 -4 7.5 -9.5t7.5 -9.5q-78 -72 -139 -114 q-57 -39 -113 -68q-35 -18 -92 -31q-35 -8 -76 -8q-37 0 -76 16q-45 20 -80 60q-41 47 -63 112q-25 71 -25 175zM467 1176q0 31 8 55q8 23 26.5 49.5t37.5 38.5q20 14 51 14q29 0 47.5 -18.5t18.5 -52.5q0 -31 -9 -56q-9 -28 -24 -49q-12 -18 -39 -37q-20 -14 -51 -14 t-49 18q-17 17 -17 52z" />
<glyph unicode="&#x10c;" horiz-adv-x="993" d="M76 459q0 94 18.5 192.5t57.5 188.5q43 98 100 176q61 84 145 151q70 55 158 90q84 33 178 33t168 -28q70 -29 115 -72q1 -2 1 -5q0 -7 -7 -18q-10 -16 -29 -37l-37 -43q-8 -8 -19.5 -18t-13.5 -12l-30 8q-35 41 -99 74q-58 31 -141 30q-41 0 -90 -18q-45 -16 -90 -51 q-63 -47 -107 -123q-51 -88 -73 -156q-31 -90 -41 -162q-12 -80 -13 -143q0 -115 29 -188q31 -80 76 -131q43 -49 102 -76q55 -25 109 -25q59 0 135 35q82 39 190 125q6 -2 9 -8q2 -2 4 -6t4 -9q0 -2 4 -6t4 -6t1 -5t3 -5q-70 -68 -127 -115q-57 -45 -115 -73 q-53 -27 -102 -39q-41 -10 -96 -11q-78 0 -144 33q-72 35 -120 94q-57 68 -87 152q-30 88 -30 207zM452 1671q18 20 23 24q2 2 10 9.5l12 11.5l215 -205l269 205q4 -4 9 -10.5t7 -8.5t14 -26l-272 -301h-92z" />
<glyph unicode="&#x10d;" horiz-adv-x="794" d="M53 322q0 74 15 139q16 78 45 139q31 66 82 131q47 59 124 111q10 6 62 35q35 18 70 30q25 8 73 21q33 8 66 8q47 0 78 -16q39 -20 61 -39l49 -41q23 -20 35 -25l-45 -33q-29 -20 -45 -30l-41 -23q-16 -8 -33 -8q-12 0 -26 16l-39 39q-16 16 -47 37q-29 18 -60 18 q-45 0 -84 -22.5t-69 -58.5q-25 -31 -54 -86q-23 -45 -39 -101q-15 -52 -24 -104q-8 -47 -8 -101q0 -68 14 -116q14 -51 41 -90q20 -33 61 -56q35 -20 80 -20q18 0 45 6q25 6 66 22q23 10 82 46q27 16 98 71l16 -22q2 -4 7.5 -9.5t7.5 -9.5q-78 -72 -139 -114 q-57 -39 -113 -68q-35 -18 -92 -31q-35 -8 -76 -8q-37 0 -76 16q-45 20 -80 60q-41 47 -63 112q-25 71 -25 175zM305 1401l23 26q4 2 11 10q7 5 11 9l209 -244l275 244q4 -4 9 -10l7 -8.5t14 -26.5l-278 -350h-92z" />
<glyph unicode="&#x10e;" horiz-adv-x="1116" d="M0 0l6 43q61 14 100 30.5t41 30.5l150 1090l-154 -18v63q106 27 228 39q113 12 215 12q119 0 209 -39q88 -37 153 -110q61 -68 96 -172q33 -98 33 -224q0 -98 -16 -178q-20 -94 -51 -172q-31 -76 -84 -155q-47 -72 -117 -125q-72 -55 -150 -84q-82 -31 -178 -31h-481z M299 139q-2 -14 4 -24q10 -14 23 -19q23 -8 49 -10q20 -2 80 -2q74 0 137 29q61 29 113 75q51 49 90 111q37 61 67 137q25 66 39 146q14 86 14 145q0 109 -26.5 195t-79.5 151q-52 65 -129 98q-80 35 -176 35h-31q-6 0 -14 -1t-15 -1zM426 1671q18 20 23 24q2 2 10 9.5 l12 11.5l215 -205l269 205q4 -4 9 -10.5t7 -8.5t14 -26l-272 -301h-92z" />
<glyph unicode="&#x110;" horiz-adv-x="1116" d="M0 0l6 43q61 14 100 30.5t41 30.5l70 510h-129l-16 25l14 33q6 20 14 33h129l68 489l-154 -18v63q106 27 228 39q113 12 215 12q119 0 209 -39q88 -37 153 -110q61 -68 96 -172q33 -98 33 -224q0 -98 -16 -178q-20 -94 -51 -172q-31 -76 -84 -155q-47 -72 -117 -125 q-72 -55 -150 -84q-82 -31 -178 -31h-481zM299 139q-2 -14 4 -24q10 -14 23 -19q23 -8 49 -10q20 -2 80 -2q74 0 137 29q61 29 113 75q51 49 90 111q37 61 67 137q25 66 39 146q14 86 14 145q0 109 -26.5 195t-79.5 151q-52 65 -129 98q-80 35 -176 35h-31q-6 0 -14 -1 t-15 -1l-67 -499h231l19 -23l-29 -68h-236z" />
<glyph unicode="&#x111;" horiz-adv-x="968" d="M53 315q0 88 17 154q20 78 51 141q33 66 88 127q52 58 123 105q33 23 61 35q53 25 66 28q23 8 67 21q31 8 66 8q25 0 51 -16q41 -25 51 -35l19 116l16 113h-272l-19 25q8 20 15 32l16 33h272q4 27 9 82q4 49 4 62q0 20 -4.5 36.5t-8.5 20.5t-16 8q-6 2 -16 2q-2 0 -27 -4 q-10 -2 -18.5 -5t-16.5 -5l-45 -13l-12 39l84 35q43 18 80 31l63 20q25 8 41 9q29 0 41 -19q14 -23 14 -63q0 -16 -8 -99q-10 -98 -16 -137h139l19 -22l-31 -68h-142l-26 -156l-12.5 -79.5t-14.5 -81.5q-14 -80 -26 -156q-23 -137 -23 -141q-14 -104 -16 -117q-6 -53 -6 -82 q0 -115 12 -168t33 -53q25 0 53 6q37 8 63 20l13 -36q-86 -57 -140 -82q-59 -27 -88 -27q-18 0 -34 16q-18 16 -29 52q-12 37 -19 100q-6 61 -6 154q-29 -55 -73 -121q-37 -55 -82 -103q-41 -43 -88 -71q-45 -27 -89 -27q-35 0 -73 21q-37 20 -72 63q-34 43 -55 111 q-23 71 -23 161zM190 379q0 -65 13 -117q10 -45 37 -90q18 -31 49 -55q27 -20 57 -21q27 0 60 25q27 18 69 69q31 35 72 105l74 129q10 74 20 137l27 162l-37 37q-20 18 -41 35q-27 18 -47 26q-27 10 -54 10q-45 0 -86 -22q-39 -20 -73 -59q-33 -35 -60 -86 q-23 -43 -43 -96.5t-28 -100.5q-9 -43 -9 -88z" />
<glyph unicode="&#x112;" horiz-adv-x="944" d="M0 0l6 43q61 14 100 30.5t41 30.5l146 1051q2 12 -29 31q-23 12 -96 31l6 43h737l25 -25q-4 -16 -12 -57q-4 -20 -17 -62l-11 -32.5l-9 -26.5q-10 -31 -19 -47h-43q4 31 4 77q0 23 -8 48q-6 20 -18 26q-16 8 -31 8h-336l-57 -434h373l20 -28q-2 -2 -22 -29 q-4 -6 -13.5 -14.5t-13.5 -14.5q-8 -10 -27 -28q-12 -12 -22 -21q-12 16 -35 27q-25 12 -43 16q-35 8 -66 10q-27 2 -94 2h-69l-68 -501q-4 -16 2 -26.5t25 -21.5q18 -9 55 -12q49 -4 96 -4h121q53 0 72 4q31 6 51 23q25 18 47 53q22 34 49 92l39 -18q-29 -115 -41 -152 q-6 -16 -12 -37.5t-10.5 -34t-8.5 -20.5h-784zM317 1468q2 6 10 22q2 8 6.5 14.5t6.5 12.5l14 29q8 16 12 22h547l20 -24q-2 -4 -5 -12.5t-5 -12.5l-7 -14t-7 -15q-8 -14 -14 -26q-4 -8 -13 -21h-549z" />
<glyph unicode="&#x113;" horiz-adv-x="804" d="M63 303q0 77 19 154q18 74 55 145q41 78 86 131t119 113q20 18 51 35q27 14 62 28q41 16 63 21q35 6 64 6q43 0 75 -16q31 -14 52 -39q20 -23 30.5 -58t10.5 -63.5t-6.5 -59t-26.5 -63.5q-20 -35 -58 -70q-33 -33 -96 -73q-41 -27 -147 -80q-49 -25 -209 -86 q6 -57 24 -103q20 -53 41 -80q27 -35 50 -51q28 -18 55 -18q10 0 51 4q23 2 70 20q37 14 88 43q45 25 110 78q4 -2 19 -20q10 -12 12 -21q-96 -82 -145 -114q-68 -45 -113 -68q-39 -18 -88 -31q-35 -8 -76 -8q-33 0 -76 18q-39 16 -77.5 59.5t-63.5 106.5q-25 65 -25 160z M207 403q143 57 207 93q72 41 114 79q39 37 52 70q10 29 10 70q0 35 -8 53q-12 29 -21 37q-14 14 -29 20q-16 6 -34 6q-16 0 -47 -12q-33 -12 -60 -37q-37 -33 -65 -73q-31 -43 -55.5 -92.5t-43.5 -104.5q-16 -52 -20 -109zM241 1182q2 6 10 22l13 29q4 10 12 27q2 4 14 22 h547l19 -25q-2 -10 -9 -24l-7 -14.5l-7 -14.5q-8 -14 -14 -26q-4 -8 -13 -21h-548z" />
<glyph unicode="&#x114;" horiz-adv-x="944" d="M0 0l6 43q61 14 100 30.5t41 30.5l146 1051q2 12 -29 31q-23 12 -96 31l6 43h737l25 -25q-4 -16 -12 -57q-4 -20 -17 -62l-11 -32.5l-9 -26.5q-10 -31 -19 -47h-43q4 31 4 77q0 23 -8 48q-6 20 -18 26q-16 8 -31 8h-336l-57 -434h373l20 -28q-2 -2 -22 -29 q-4 -6 -13.5 -14.5t-13.5 -14.5q-8 -10 -27 -28q-12 -12 -22 -21q-12 16 -35 27q-25 12 -43 16q-35 8 -66 10q-27 2 -94 2h-69l-68 -501q-4 -16 2 -26.5t25 -21.5q18 -9 55 -12q49 -4 96 -4h121q53 0 72 4q31 6 51 23q25 18 47 53q22 34 49 92l39 -18q-29 -115 -41 -152 q-6 -16 -12 -37.5t-10.5 -34t-8.5 -20.5h-784zM346 1654q14 18 27 27q4 4 14 9l14 7q18 -68 37 -94q23 -35 53 -61q25 -23 60 -33t59 -10q27 0 68 10q37 8 71 33q29 18 68 61q37 39 64 94q20 -12 24 -16q10 -10 19 -27q-35 -76 -78 -135q-39 -55 -82 -88q-41 -31 -84 -47 q-41 -14 -82 -14q-45 0 -82 14q-45 16 -72 47q-31 35 -55 88q-25 55 -43 135z" />
<glyph unicode="&#x115;" horiz-adv-x="804" d="M63 303q0 77 19 154q18 74 55 145q41 78 86 131t119 113q20 18 51 35q27 14 62 28q41 16 63 21q35 6 64 6q43 0 75 -16q31 -14 52 -39q20 -23 30.5 -58t10.5 -63.5t-6.5 -59t-26.5 -63.5q-20 -35 -58 -70q-33 -33 -96 -73q-41 -27 -147 -80q-49 -25 -209 -86 q6 -57 24 -103q20 -53 41 -80q27 -35 50 -51q28 -18 55 -18q10 0 51 4q23 2 70 20q37 14 88 43q45 25 110 78q4 -2 19 -20q10 -12 12 -21q-96 -82 -145 -114q-68 -45 -113 -68q-39 -18 -88 -31q-35 -8 -76 -8q-33 0 -76 18q-39 16 -77.5 59.5t-63.5 106.5q-25 65 -25 160z M207 403q143 57 207 93q72 41 114 79q39 37 52 70q10 29 10 70q0 35 -8 53q-12 29 -21 37q-14 14 -29 20q-16 6 -34 6q-16 0 -47 -12q-33 -12 -60 -37q-37 -33 -65 -73q-31 -43 -55.5 -92.5t-43.5 -104.5q-16 -52 -20 -109zM266 1335q14 18 27 27q4 4 14 9l14 7 q18 -68 37 -94q23 -35 53 -61q25 -23 60 -33t59 -10q27 0 68 10q37 8 71 33q29 18 68 61q37 39 64 94q20 -12 24 -16q10 -10 19 -27q-35 -76 -78 -135q-39 -55 -82 -88q-41 -31 -84 -47q-41 -14 -82 -14q-45 0 -82 14q-45 16 -72 47q-31 35 -55 88q-25 55 -43 135z" />
<glyph unicode="&#x116;" horiz-adv-x="944" d="M0 0l6 43q61 14 100 30.5t41 30.5l146 1051q2 12 -29 31q-23 12 -96 31l6 43h737l25 -25q-4 -16 -12 -57q-4 -20 -17 -62l-11 -32.5l-9 -26.5q-10 -31 -19 -47h-43q4 31 4 77q0 23 -8 48q-6 20 -18 26q-16 8 -31 8h-336l-57 -434h373l20 -28q-2 -2 -22 -29 q-4 -6 -13.5 -14.5t-13.5 -14.5q-8 -10 -27 -28q-12 -12 -22 -21q-12 16 -35 27q-25 12 -43 16q-35 8 -66 10q-27 2 -94 2h-69l-68 -501q-4 -16 2 -26.5t25 -21.5q18 -9 55 -12q49 -4 96 -4h121q53 0 72 4q31 6 51 23q25 18 47 53q22 34 49 92l39 -18q-29 -115 -41 -152 q-6 -16 -12 -37.5t-10.5 -34t-8.5 -20.5h-784zM520 1462q0 25 10 55q9 28 25 49q16 23 39 39q20 14 51 14q29 0 47 -18q16 -16 16 -53q0 -31 -8 -55q-9 -28 -24 -50q-12 -18 -39 -37q-20 -14 -51 -14q-29 0 -47.5 18.5t-18.5 51.5z" />
<glyph unicode="&#x117;" horiz-adv-x="804" d="M63 303q0 77 19 154q18 74 55 145q41 78 86 131t119 113q20 18 51 35q27 14 62 28q41 16 63 21q35 6 64 6q43 0 75 -16q31 -14 52 -39q20 -23 30.5 -58t10.5 -63.5t-6.5 -59t-26.5 -63.5q-20 -35 -58 -70q-33 -33 -96 -73q-41 -27 -147 -80q-49 -25 -209 -86 q6 -57 24 -103q20 -53 41 -80q27 -35 50 -51q28 -18 55 -18q10 0 51 4q23 2 70 20q37 14 88 43q45 25 110 78q4 -2 19 -20q10 -12 12 -21q-96 -82 -145 -114q-68 -45 -113 -68q-39 -18 -88 -31q-35 -8 -76 -8q-33 0 -76 18q-39 16 -77.5 59.5t-63.5 106.5q-25 65 -25 160z M207 403q143 57 207 93q72 41 114 79q39 37 52 70q10 29 10 70q0 35 -8 53q-12 29 -21 37q-14 14 -29 20q-16 6 -34 6q-16 0 -47 -12q-33 -12 -60 -37q-37 -33 -65 -73q-31 -43 -55.5 -92.5t-43.5 -104.5q-16 -52 -20 -109zM446 1176q0 31 8 55q8 23 26.5 49.5t37.5 38.5 q20 14 51 14q29 0 47.5 -18.5t18.5 -52.5q0 -31 -9 -56q-9 -28 -24 -49q-12 -18 -39 -37q-20 -14 -51 -14t-49 18q-17 17 -17 52z" />
<glyph unicode="&#x11a;" horiz-adv-x="944" d="M0 0l6 43q61 14 100 30.5t41 30.5l146 1051q2 12 -29 31q-23 12 -96 31l6 43h737l25 -25q-4 -16 -12 -57q-4 -20 -17 -62l-11 -32.5l-9 -26.5q-10 -31 -19 -47h-43q4 31 4 77q0 23 -8 48q-6 20 -18 26q-16 8 -31 8h-336l-57 -434h373l20 -28q-2 -2 -22 -29 q-4 -6 -13.5 -14.5t-13.5 -14.5q-8 -10 -27 -28q-12 -12 -22 -21q-12 16 -35 27q-25 12 -43 16q-35 8 -66 10q-27 2 -94 2h-69l-68 -501q-4 -16 2 -26.5t25 -21.5q18 -9 55 -12q49 -4 96 -4h121q53 0 72 4q31 6 51 23q25 18 47 53q22 34 49 92l39 -18q-29 -115 -41 -152 q-6 -16 -12 -37.5t-10.5 -34t-8.5 -20.5h-784zM358 1671q18 20 23 24q2 2 10 9.5l12 11.5l215 -205l269 205q4 -4 9 -10.5t7 -8.5t14 -26l-272 -301h-92z" />
<glyph unicode="&#x11b;" horiz-adv-x="804" d="M63 303q0 77 19 154q18 74 55 145q41 78 86 131t119 113q20 18 51 35q27 14 62 28q41 16 63 21q35 6 64 6q43 0 75 -16q31 -14 52 -39q20 -23 30.5 -58t10.5 -63.5t-6.5 -59t-26.5 -63.5q-20 -35 -58 -70q-33 -33 -96 -73q-41 -27 -147 -80q-49 -25 -209 -86 q6 -57 24 -103q20 -53 41 -80q27 -35 50 -51q28 -18 55 -18q10 0 51 4q23 2 70 20q37 14 88 43q45 25 110 78q4 -2 19 -20q10 -12 12 -21q-96 -82 -145 -114q-68 -45 -113 -68q-39 -18 -88 -31q-35 -8 -76 -8q-33 0 -76 18q-39 16 -77.5 59.5t-63.5 106.5q-25 65 -25 160z M207 403q143 57 207 93q72 41 114 79q39 37 52 70q10 29 10 70q0 35 -8 53q-12 29 -21 37q-14 14 -29 20q-16 6 -34 6q-16 0 -47 -12q-33 -12 -60 -37q-37 -33 -65 -73q-31 -43 -55.5 -92.5t-43.5 -104.5q-16 -52 -20 -109zM284 1401l23 26q4 2 11 10q7 5 11 9l209 -244 l275 244q4 -4 9 -10l7 -8.5t14 -26.5l-278 -350h-92z" />
<glyph unicode="&#x11c;" horiz-adv-x="1071" d="M76 473q0 90 22.5 190.5t61.5 186.5q35 80 96 164q47 66 125 129q86 68 188 106q106 41 224 41q20 0 65 -8q39 -6 70 -18q23 -8 67 -33q37 -20 60 -43q6 -6 -4 -23q-10 -14 -29 -37q-12 -14 -39 -41q-14 -14 -35 -30l-28 6q-16 23 -56 51q-31 23 -61 35q-25 10 -72 16 q-39 6 -84 6q-33 0 -92 -26q-45 -20 -109 -70q-49 -39 -92 -106q-43 -70 -69 -144q-31 -86 -45.5 -159.5t-14.5 -149.5q0 -109 33 -186.5t84 -128.5q57 -57 113 -78q66 -25 125 -25q51 0 106 17q49 14 86 41l41 301q0 14 -4 20q-8 12 -26.5 20.5t-67.5 18.5q-57 12 -119 23 l6 43h461l-6 -43q-53 -14 -78 -37t-29 -45l-10 -70l-12 -88q-2 -20 -4 -43t-6 -43q-2 -14 -5.5 -33.5t-3.5 -25.5q-66 -51 -135 -97q-68 -43 -104 -57q-45 -18 -88 -25q-40 -6 -80 -6q-86 0 -160 33q-77 34 -135 98q-61 68 -96 158t-35 215zM448 1390l275 301h92l193 -301 l-13.5 -17.5t-9.5 -11.5q-6 -10 -23 -16l-215 205l-266 -205q-10 6 -16 16q-13 17 -17 29z" />
<glyph unicode="&#x11d;" horiz-adv-x="909" d="M-4 -378.5q0 18.5 12 38.5q10 18 31 39l33 33q14 12 22 12q6 0 17 -10l10 -10.5t12 -14.5q8 -10 29 -31q16 -16 43 -32q25 -14 59 -25q37 -10 82 -10q96 0 156 88q57 86 86 254q6 31 14 104q4 31 8 97l6 90l5 92q-18 -39 -76 -129q-35 -53 -90 -121q-45 -53 -97 -92 q-47 -35 -92 -35q-35 0 -71 18q-35 18 -70 62q-31 39 -53 106q-20 61 -21 160q0 76 19 154q20 86 53 145q37 68 92 129q51 57 129 109l31.5 18t27.5 17q29 18 66 30q23 8 68 21q31 8 65 8q22 0 43 -6q18 -6 41 -17q12 -6 37 -22q8 -6 16.5 -11.5t16.5 -11.5q23 23 49 39 l51 29l23 -35q-35 -29 -54 -70q-20 -43 -28 -112q-14 -104 -21 -217q-8 -139 -10 -183q0 -18 -12 -163q-6 -88 -21 -156q-18 -104 -63 -194.5t-106.5 -158t-139.5 -108.5q-76 -39 -154 -39q-41 0 -90 13q-51 12 -90 30q-43 20 -67 39q-27 21 -27 39.5zM190 379 q0 -65 13 -117q14 -63 30 -90q20 -35 47 -55.5t58 -20.5q23 0 57 33q27 25 78 90q35 45 84 129q37 61 76 156l8 80q2 41 12 88q4 29 9 41q2 6 6 17t6 18q-14 12 -33 26q-16 14 -39 27q-25 14 -47.5 22t-52.5 8q-45 0 -86 -22q-43 -23 -76 -59q-35 -37 -64 -86 q-25 -39 -45 -97q-25 -63 -30 -100q-11 -55 -11 -88zM245 1071l285 371h92l183 -371q-4 -6 -9.5 -12t-7.5 -10.5t-4 -6.5q-6 -8 -24 -16l-207 264l-275 -264q-6 4 -14 16q-17 27 -19 29z" />
<glyph unicode="&#x11e;" horiz-adv-x="1071" d="M76 473q0 90 22.5 190.5t61.5 186.5q35 80 96 164q47 66 125 129q86 68 188 106q106 41 224 41q20 0 65 -8q39 -6 70 -18q23 -8 67 -33q37 -20 60 -43q6 -6 -4 -23q-10 -14 -29 -37q-12 -14 -39 -41q-14 -14 -35 -30l-28 6q-16 23 -56 51q-31 23 -61 35q-25 10 -72 16 q-39 6 -84 6q-33 0 -92 -26q-45 -20 -109 -70q-49 -39 -92 -106q-43 -70 -69 -144q-31 -86 -45.5 -159.5t-14.5 -149.5q0 -109 33 -186.5t84 -128.5q57 -57 113 -78q66 -25 125 -25q51 0 106 17q49 14 86 41l41 301q0 14 -4 20q-8 12 -26.5 20.5t-67.5 18.5q-57 12 -119 23 l6 43h461l-6 -43q-53 -14 -78 -37t-29 -45l-10 -70l-12 -88q-2 -20 -4 -43t-6 -43q-2 -14 -5.5 -33.5t-3.5 -25.5q-66 -51 -135 -97q-68 -43 -104 -57q-45 -18 -88 -25q-40 -6 -80 -6q-86 0 -160 33q-77 34 -135 98q-61 68 -96 158t-35 215zM475 1654q14 18 27 27q4 4 14 9 l14 7q18 -68 37 -94q23 -35 53 -61q25 -23 60 -33t59 -10q27 0 68 10q37 8 71 33q29 18 68 61q37 39 64 94q20 -12 24 -16q10 -10 19 -27q-35 -76 -78 -135q-39 -55 -82 -88q-41 -31 -84 -47q-41 -14 -82 -14q-45 0 -82 14q-45 16 -72 47q-31 35 -55 88q-25 55 -43 135z" />
<glyph unicode="&#x11f;" horiz-adv-x="909" d="M-4 -378.5q0 18.5 12 38.5q10 18 31 39l33 33q14 12 22 12q6 0 17 -10l10 -10.5t12 -14.5q8 -10 29 -31q16 -16 43 -32q25 -14 59 -25q37 -10 82 -10q96 0 156 88q57 86 86 254q6 31 14 104q4 31 8 97l6 90l5 92q-18 -39 -76 -129q-35 -53 -90 -121q-45 -53 -97 -92 q-47 -35 -92 -35q-35 0 -71 18q-35 18 -70 62q-31 39 -53 106q-20 61 -21 160q0 76 19 154q20 86 53 145q37 68 92 129q51 57 129 109l31.5 18t27.5 17q29 18 66 30q23 8 68 21q31 8 65 8q22 0 43 -6q18 -6 41 -17q12 -6 37 -22q8 -6 16.5 -11.5t16.5 -11.5q23 23 49 39 l51 29l23 -35q-35 -29 -54 -70q-20 -43 -28 -112q-14 -104 -21 -217q-8 -139 -10 -183q0 -18 -12 -163q-6 -88 -21 -156q-18 -104 -63 -194.5t-106.5 -158t-139.5 -108.5q-76 -39 -154 -39q-41 0 -90 13q-51 12 -90 30q-43 20 -67 39q-27 21 -27 39.5zM190 379 q0 -65 13 -117q14 -63 30 -90q20 -35 47 -55.5t58 -20.5q23 0 57 33q27 25 78 90q35 45 84 129q37 61 76 156l8 80q2 41 12 88q4 29 9 41q2 6 6 17t6 18q-14 12 -33 26q-16 14 -39 27q-25 14 -47.5 22t-52.5 8q-45 0 -86 -22q-43 -23 -76 -59q-35 -37 -64 -86 q-25 -39 -45 -97q-25 -63 -30 -100q-11 -55 -11 -88zM270 1335q14 18 27 27q4 4 14 9l14 7q18 -68 37 -94q23 -35 53 -61q25 -23 60 -33t59 -10q27 0 68 10q37 8 71 33q29 18 68 61q37 39 64 94q20 -12 24 -16q10 -10 19 -27q-35 -76 -78 -135q-39 -55 -82 -88 q-41 -31 -84 -47q-41 -14 -82 -14q-45 0 -82 14q-45 16 -72 47q-31 35 -55 88q-25 55 -43 135z" />
<glyph unicode="&#x120;" horiz-adv-x="1071" d="M76 473q0 90 22.5 190.5t61.5 186.5q35 80 96 164q47 66 125 129q86 68 188 106q106 41 224 41q20 0 65 -8q39 -6 70 -18q23 -8 67 -33q37 -20 60 -43q6 -6 -4 -23q-10 -14 -29 -37q-12 -14 -39 -41q-14 -14 -35 -30l-28 6q-16 23 -56 51q-31 23 -61 35q-25 10 -72 16 q-39 6 -84 6q-33 0 -92 -26q-45 -20 -109 -70q-49 -39 -92 -106q-43 -70 -69 -144q-31 -86 -45.5 -159.5t-14.5 -149.5q0 -109 33 -186.5t84 -128.5q57 -57 113 -78q66 -25 125 -25q51 0 106 17q49 14 86 41l41 301q0 14 -4 20q-8 12 -26.5 20.5t-67.5 18.5q-57 12 -119 23 l6 43h461l-6 -43q-53 -14 -78 -37t-29 -45l-10 -70l-12 -88q-2 -20 -4 -43t-6 -43q-2 -14 -5.5 -33.5t-3.5 -25.5q-66 -51 -135 -97q-68 -43 -104 -57q-45 -18 -88 -25q-40 -6 -80 -6q-86 0 -160 33q-77 34 -135 98q-61 68 -96 158t-35 215zM649 1462q0 25 10 55q9 28 25 49 q16 23 39 39q20 14 51 14q29 0 47 -18q16 -16 16 -53q0 -31 -8 -55q-9 -28 -24 -50q-12 -18 -39 -37q-20 -14 -51 -14q-29 0 -47.5 18.5t-18.5 51.5z" />
<glyph unicode="&#x121;" horiz-adv-x="909" d="M-4 -378.5q0 18.5 12 38.5q10 18 31 39l33 33q14 12 22 12q6 0 17 -10l10 -10.5t12 -14.5q8 -10 29 -31q16 -16 43 -32q25 -14 59 -25q37 -10 82 -10q96 0 156 88q57 86 86 254q6 31 14 104q4 31 8 97l6 90l5 92q-18 -39 -76 -129q-35 -53 -90 -121q-45 -53 -97 -92 q-47 -35 -92 -35q-35 0 -71 18q-35 18 -70 62q-31 39 -53 106q-20 61 -21 160q0 76 19 154q20 86 53 145q37 68 92 129q51 57 129 109l31.5 18t27.5 17q29 18 66 30q23 8 68 21q31 8 65 8q22 0 43 -6q18 -6 41 -17q12 -6 37 -22q8 -6 16.5 -11.5t16.5 -11.5q23 23 49 39 l51 29l23 -35q-35 -29 -54 -70q-20 -43 -28 -112q-14 -104 -21 -217q-8 -139 -10 -183q0 -18 -12 -163q-6 -88 -21 -156q-18 -104 -63 -194.5t-106.5 -158t-139.5 -108.5q-76 -39 -154 -39q-41 0 -90 13q-51 12 -90 30q-43 20 -67 39q-27 21 -27 39.5zM190 379 q0 -65 13 -117q14 -63 30 -90q20 -35 47 -55.5t58 -20.5q23 0 57 33q27 25 78 90q35 45 84 129q37 61 76 156l8 80q2 41 12 88q4 29 9 41q2 6 6 17t6 18q-14 12 -33 26q-16 14 -39 27q-25 14 -47.5 22t-52.5 8q-45 0 -86 -22q-43 -23 -76 -59q-35 -37 -64 -86 q-25 -39 -45 -97q-25 -63 -30 -100q-11 -55 -11 -88zM450 1176q0 31 8 55q8 23 26.5 49.5t37.5 38.5q20 14 51 14q29 0 47.5 -18.5t18.5 -52.5q0 -31 -9 -56q-9 -28 -24 -49q-12 -18 -39 -37q-20 -14 -51 -14t-49 18q-17 17 -17 52z" />
<glyph unicode="&#x124;" horiz-adv-x="1234" d="M0 0l6 43q61 14 100 30.5t41 30.5l146 1051q2 12 -29 31q-23 12 -96 31l6 43h410l-6 -43q-74 -18 -101 -31q-39 -18 -41 -31l-61 -450h557l61 450q2 12 -28 31q-23 14 -95 31l4 43h412l-6 -43q-74 -18 -100 -31q-39 -18 -41 -31l-146 -1051q-2 -12 29 -30q23 -12 96 -31 l-6 -43h-410l7 43q61 14 100 31q35 14 39 30l70 510h-556l-69 -510q-2 -12 29 -30q23 -14 94 -31l-6 -43h-410zM467 1390l275 301h92l193 -301l-13.5 -17.5t-9.5 -11.5q-6 -10 -23 -16l-215 205l-266 -205q-10 6 -16 16q-13 17 -17 29z" />
<glyph unicode="&#x125;" horiz-adv-x="1011" d="M86 -10q8 53 23 133q8 41 14 86t14 90q20 115 33 201l33 211l30 207q16 109 25 184q2 20 8 72.5t8 76.5q6 63 7 95q0 20 -4.5 36.5t-8.5 20.5t-12 8q-4 2 -16 2q-4 0 -29 -4q-8 -2 -18.5 -5t-20.5 -5l-47 -13l-12 39l84 35q43 18 79 31q12 4 35 11t31 9q25 8 41 9 q28 0 43 -19q16 -20 16 -63q0 -25 -6 -80q-2 -10 -16 -127q-16 -129 -21 -154q-16 -109 -24 -159l-11.5 -74t-9.5 -66l-16 -100q66 80 115 121q63 53 110 80q55 31 105 43q57 14 94 14q63 0 90 -39t27 -137q0 -34 -7 -86q-2 -16 -16 -113l-20 -125q-10 -63 -21 -121 q-16 -100 -16 -104q-6 -47 -6 -76q0 -35 12 -47t24 -12q31 0 58 8q31 9 67 25l15 -37q-72 -43 -154 -84q-57 -29 -102 -29q-29 0 -51 31q-23 33 -23 86q0 18 6 65q2 14 4 30.5t6 40.5t7 38q10 61 20 131l20 133q2 14 8.5 54t8.5 59q6 49 6 73q0 47 -2 64q-2 14 -12 41 q-6 14 -21 22q-12 6 -35 7q-16 0 -47 -15q-27 -12 -76 -47q-20 -14 -86 -80q-49 -49 -84 -110q-27 -47 -45 -119q-14 -55 -32 -162l-15 -96q-2 -16 -4 -44t-2 -32q-4 -45 -4 -57q0 -33 2 -47q-4 -2 -15 -6.5t-18 -8.5q-10 -4 -19 -9t-20 -9q-6 -2 -18 -7t-22 -10 q-6 -4 -16.5 -9l-14.5 -7zM387 1651l275 301h92l193 -301l-13.5 -17.5t-9.5 -11.5q-6 -10 -23 -16l-215 205l-266 -205q-10 6 -16 16q-13 17 -17 29z" />
<glyph unicode="&#x128;" horiz-adv-x="571" d="M20 0l7 43q61 14 100 30.5t41 30.5l143 1051q2 12 -28 31q-23 14 -95 31l7 43h409l-6 -43q-74 -18 -100 -31q-39 -18 -41 -31l-146 -1051q-2 -12 29 -30q23 -12 96 -31l-6 -43h-410zM113 1400q29 53 47 80q33 47 57 72q35 35 68 51q37 18 73.5 18.5t61.5 -16.5 q39 -25 51 -37l23.5 -20l21.5 -19q18 -16 41 -16q34 0 74 31q39 31 78 88l45 -21q-22 -40 -49 -80q-33 -47 -58 -71q-37 -37 -65 -51q-37 -18 -76 -19q-35 0 -57 16q-33 25 -49 39l-46 37q-23 16 -51 17q-33 0 -69 -31q-27 -23 -78 -88z" />
<glyph unicode="&#x129;" horiz-adv-x="503" d="M70 840l84 37l77 30l64 21q25 8 39 8q27 0 39 -18.5t12 -65.5q0 -12 -8 -86q-6 -57 -19 -127l-24 -145q-6 -43 -14.5 -83t-12.5 -65q-12 -72 -18 -125q-8 -74 -8 -86q0 -29 6 -45q6 -14 24 -14q35 0 60 8q59 20 69 25l15 -37q-47 -29 -84 -49l-70 -35q-35 -16 -55 -23 q-25 -6 -47 -6q-31 0 -54 31q-20 29 -20 86q0 12 8 86q6 55 19 123q10 68 22 141l12.5 69.5l12.5 69.5q12 70 18 119q8 70 8 76q0 20 -4 36.5t-8 20.5q-6 6 -12 8t-17 2q-4 0 -24.5 -4t-32.5 -8l-43 -12zM68 1114q29 53 47 80q29 39 59 72q35 35 68 51q37 18 74 18 q35 0 59 -16q39 -25 51 -37l23.5 -20.5t21.5 -18.5q18 -16 43 -16q31 0 74 33q37 29 76 86l45 -21q-29 -53 -47 -80q-33 -47 -58 -71q-31 -31 -67 -50q-41 -20 -74 -20q-35 0 -57 16q-33 25 -49 39q-12 10 -47 37q-23 16 -50 16q-35 0 -71 -30q-27 -23 -78 -88z" />
<glyph unicode="&#x12a;" horiz-adv-x="571" d="M20 0l7 43q61 14 100 30.5t41 30.5l143 1051q2 12 -28 31q-23 14 -95 31l7 43h409l-6 -43q-74 -18 -100 -31q-39 -18 -41 -31l-146 -1051q-2 -12 29 -30q23 -12 96 -31l-6 -43h-410zM197 1501q2 6 10 22l12 29q2 6 7 15t7 12q8 16 13 22h428l18 -25q-2 -4 -5 -12t-5 -12 l-7 -14.5l-7 -14.5l-15 -26l-10 -21h-430z" />
<glyph unicode="&#x12b;" horiz-adv-x="503" d="M70 840l84 37l77 30l64 21q25 8 39 8q27 0 39 -18.5t12 -65.5q0 -12 -8 -86q-6 -57 -19 -127l-24 -145q-6 -43 -14.5 -83t-12.5 -65q-12 -72 -18 -125q-8 -74 -8 -86q0 -29 6 -45q6 -14 24 -14q35 0 60 8q59 20 69 25l15 -37q-47 -29 -84 -49l-70 -35q-35 -16 -55 -23 q-25 -6 -47 -6q-31 0 -54 31q-20 29 -20 86q0 12 8 86q6 55 19 123q10 68 22 141l12.5 69.5l12.5 69.5q12 70 18 119q8 70 8 76q0 20 -4 36.5t-8 20.5q-6 6 -12 8t-17 2q-4 0 -24.5 -4t-32.5 -8l-43 -12zM150 1182q2 6 10 22l12 29q2 6 7 15t7 12q8 16 13 22h428l18 -25 q-2 -4 -5 -12t-5 -12l-7 -14.5l-7 -14.5l-15 -26l-10 -21h-430z" />
<glyph unicode="&#x12c;" horiz-adv-x="571" d="M20 0l7 43q61 14 100 30.5t41 30.5l143 1051q2 12 -28 31q-23 14 -95 31l7 43h409l-6 -43q-74 -18 -100 -31q-39 -18 -41 -31l-146 -1051q-2 -12 29 -30q23 -12 96 -31l-6 -43h-410zM162 1654q14 18 27 27q4 4 14 9l14 7q18 -68 37 -94q23 -35 53 -61q25 -23 60 -33 t59 -10q27 0 68 10q37 8 71 33q29 18 68 61q37 39 64 94q20 -12 24 -16q10 -10 19 -27q-35 -76 -78 -135q-39 -55 -82 -88q-41 -31 -84 -47q-41 -14 -82 -14q-45 0 -82 14q-45 16 -72 47q-31 35 -55 88q-25 55 -43 135z" />
<glyph unicode="&#x12d;" horiz-adv-x="503" d="M70 840l84 37l77 30l64 21q25 8 39 8q27 0 39 -18.5t12 -65.5q0 -12 -8 -86q-6 -57 -19 -127l-24 -145q-6 -43 -14.5 -83t-12.5 -65q-12 -72 -18 -125q-8 -74 -8 -86q0 -29 6 -45q6 -14 24 -14q35 0 60 8q59 20 69 25l15 -37q-47 -29 -84 -49l-70 -35q-35 -16 -55 -23 q-25 -6 -47 -6q-31 0 -54 31q-20 29 -20 86q0 12 8 86q6 55 19 123q10 68 22 141l12.5 69.5l12.5 69.5q12 70 18 119q8 70 8 76q0 20 -4 36.5t-8 20.5q-6 6 -12 8t-17 2q-4 0 -24.5 -4t-32.5 -8l-43 -12zM113 1335q14 18 27 27q4 4 14 9l14 7q18 -68 37 -94q23 -35 53 -61 q25 -23 60 -33t59 -10q27 0 68 10q37 8 71 33q29 18 68 61q37 39 64 94q20 -12 24 -16q10 -10 19 -27q-35 -76 -78 -135q-39 -55 -82 -88q-41 -31 -84 -47q-41 -14 -82 -14q-45 0 -82 14q-45 16 -72 47q-31 35 -55 88q-25 55 -43 135z" />
<glyph unicode="&#x130;" horiz-adv-x="571" d="M20 0l7 43q61 14 100 30.5t41 30.5l143 1051q2 12 -28 31q-23 14 -95 31l7 43h409l-6 -43q-74 -18 -100 -31q-39 -18 -41 -31l-146 -1051q-2 -12 29 -30q23 -12 96 -31l-6 -43h-410zM336 1462q0 25 10 55q9 28 25 49q16 23 39 39q20 14 51 14q29 0 47 -18q16 -16 16 -53 q0 -31 -8 -55q-9 -28 -24 -50q-12 -18 -39 -37q-20 -14 -51 -14q-29 0 -47.5 18.5t-18.5 51.5z" />
<glyph unicode="&#x131;" horiz-adv-x="503" d="M70 840l84 37l77 30l64 21q25 8 39 8q27 0 39 -18.5t12 -65.5q0 -12 -8 -86q-6 -57 -19 -127l-24 -145q-6 -43 -14.5 -83t-12.5 -65q-12 -72 -18 -125q-8 -74 -8 -86q0 -29 6 -45q6 -14 24 -14q35 0 60 8q59 20 69 25l15 -37q-47 -29 -84 -49l-70 -35q-35 -16 -55 -23 q-25 -6 -47 -6q-31 0 -54 31q-20 29 -20 86q0 12 8 86q6 55 19 123q10 68 22 141l12.5 69.5l12.5 69.5q12 70 18 119q8 70 8 76q0 20 -4 36.5t-8 20.5q-6 6 -12 8t-17 2q-4 0 -24.5 -4t-32.5 -8l-43 -12z" />
<glyph unicode="&#x132;" horiz-adv-x="1150" d="M20 0l7 43q61 14 100 30.5t41 30.5l143 1051q2 12 -28 31q-23 14 -95 31l7 43h409l-6 -43q-74 -18 -100 -31q-39 -18 -41 -31l-146 -1051q-2 -12 29 -30q23 -12 96 -31l-6 -43h-410zM309 -301q0 10 14 27q10 12 35 32.5t39 28.5q20 12 33 12q10 0 20 -10q9 -9 25 -18 q27 -16 37 -21q18 -8 51 -8q29 0 53 16q31 20 57 62q33 51 56 121q27 84 41 192l141 1022q0 6 -6 12q-8 8 -25 17q-10 6 -51 16q-16 4 -88 17l4 43h457l-6 -43q-70 -16 -101 -31q-39 -18 -41 -31l-131 -950q-12 -100 -43 -199q-25 -80 -57.5 -133t-71.5 -92q-43 -43 -78 -70 q-18 -14 -59 -39q-20 -12 -61 -28q-29 -12 -60 -19q-27 -6 -45 -6q-27 0 -53 10q-29 10 -43 21q-12 8 -31 26q-12 13 -12 23z" />
<glyph unicode="&#x133;" horiz-adv-x="1005" d="M70 840l84 37l77 30l64 21q25 8 39 8q27 0 39 -18.5t12 -65.5q0 -12 -8 -86q-6 -57 -19 -127l-24 -145q-6 -43 -14.5 -83t-12.5 -65q-12 -72 -18 -125q-8 -74 -8 -86q0 -29 6 -45q6 -14 24 -14q35 0 60 8q59 20 69 25l15 -37q-47 -29 -84 -49l-70 -35q-35 -16 -55 -23 q-25 -6 -47 -6q-31 0 -54 31q-20 29 -20 86q0 12 8 86q6 55 19 123q10 68 22 141l12.5 69.5l12.5 69.5q12 70 18 119q8 70 8 76q0 20 -4 36.5t-8 20.5q-6 6 -12 8t-17 2q-4 0 -24.5 -4t-32.5 -8l-43 -12zM295 1176q0 31 8 55q9 28 25 49q16 23 39 39q20 14 51 14 q29 0 47 -18q16 -16 16 -53q0 -31 -8 -56q-9 -28 -24 -49q-12 -18 -39 -37q-20 -14 -52 -14q-29 0 -47 18q-16 17 -16 52zM119 -424q0 10 14 35q10 18 31 39q25 25 37 35q16 14 29 14q6 0 18 -12q18 -18 33 -29q27 -18 51 -29q31 -12 74 -12q86 0 139 102q55 104 86 291 q18 109 23 142q14 104 16 124q4 31 8 101l8 74q0 6 4 42.5t7 57.5q2 31 6 63.5t6 61.5q4 37 4 51q0 8 1 18.5t1 14.5q0 29 -2 37q-4 14 -10 20q-4 4 -13 8q-4 2 -16 2q-4 0 -25 -4q-27 -4 -34 -8q-12 -4 -41 -12l-15 37l84 37q49 20 78 30l64 21q25 8 38 8q25 0 41 -12 q14 -12 15 -54q0 -20 -2 -39q-4 -31 -6 -63l-9 -80q-2 -23 -5 -43t-5 -41q-2 -27 -8 -74q-4 -39 -6 -57q0 -8 -3 -35.5l-5 -44.5q-2 -23 -11 -96q-6 -51 -12 -111q-4 -39 -16 -120q-23 -121 -51 -197q-31 -80 -64 -133q-34 -55 -74 -92q-29 -27 -82 -68q-18 -14 -59 -35 q-31 -15 -61 -24q-31 -8 -60 -13q-37 -4 -45 -4q-31 0 -57 8q-41 12 -58 21q-25 12 -43 24.5t-18 22.5zM772 1176q0 31 8 55q9 28 25 49q16 23 39 39q20 14 51 14t49.5 -18.5t18.5 -52.5q0 -25 -10 -56q-9 -28 -25 -49q-12 -18 -39 -37q-20 -14 -51 -14q-66 0 -66 70z" />
<glyph unicode="&#x139;" horiz-adv-x="917" d="M0 0l6 43q61 14 100 30.5t41 30.5l146 1051q2 12 -29 31q-23 12 -96 31l6 43h410l-6 -43q-74 -18 -101 -31q-39 -18 -41 -31l-137 -1001q-2 -16 4 -31q6 -12 25 -19q31 -10 51 -12q23 -2 82 -2h127q51 0 71 4q31 6 54 23q25 18 47 53q22 34 49 92l39 -18 q-29 -115 -41 -152q-25 -74 -33 -92h-774zM405 1392l391 316l23 -17l27 -18q6 -4 28 -21q8 -6 19 -16v-47l-455 -244q-10 6 -18 18q-7 9 -15 29z" />
<glyph unicode="&#x13a;" horiz-adv-x="479" d="M102 78q0 25 7 86q0 10 20 141q4 25 10 76t17 108l32 203q8 49 15.5 100.5l15.5 104.5q27 176 29 190q12 90 18 156q8 90 8 103q0 20 -4 36q-2 10 -12 21q-4 4 -16 8q-6 2 -19 2q-2 0 -26 -4q-4 0 -33 -10l-45 -13l-15 39l84 35q43 18 80 31l64 20q25 8 41 9q29 0 45 -19 q16 -20 16 -63q0 -18 -8 -109q-6 -66 -18 -155q-2 -14 -29 -191l-33 -207q-8 -47 -15 -98t-16 -105q-2 -14 -13 -84.5t-15 -103.5q-12 -88 -19 -149q-8 -86 -8 -101q0 -33 10 -47q9 -12 25 -12q27 0 53 8q57 16 76 25l12 -37q-25 -14 -86 -52q-49 -29 -69 -36 q-31 -12 -55.5 -18.5t-51.5 -6.5q-28 0 -49 31q-23 33 -23 88zM252 1712l391 316l23 -17l27 -18q6 -4 28 -21q8 -6 19 -16v-47l-455 -244q-10 6 -18 18q-7 9 -15 29z" />
<glyph unicode="&#x141;" horiz-adv-x="917" d="M0 0l6 43q61 14 100 30.5t41 30.5l58 414l-121 -63l-23 22l9 25q2 6 7 14t7 14.5t8 14.5t8 12q6 12 13 18l106 56l74 524q2 12 -29 31q-23 12 -96 31l6 43h410l-6 -43q-74 -18 -101 -31q-39 -18 -41 -31l-61 -442l262 135l20 -25q-2 -6 -10 -22q-2 -4 -6 -13.5t-6 -13.5 q-12 -23 -14 -26q-12 -16 -15 -19l-246 -129l-61 -446q-2 -16 4 -31q6 -12 25 -19q31 -10 51 -12q23 -2 82 -2h127q51 0 71 4q31 6 54 23q25 18 47 53q22 34 49 92l39 -18q-29 -115 -41 -152q-25 -74 -33 -92h-774z" />
<glyph unicode="&#x142;" horiz-adv-x="520" d="M43 565q2 16 4 21q0 6 4 14q0 2 3 8t5 10.5l15 32.5l143 101l29 188q15 92 24 172q2 10 8.5 63.5t8.5 77.5q8 82 8 93q0 12 -6 36q-4 14 -10 21q-4 4 -17 8q-6 2 -18 2q-2 0 -27 -4q-8 -2 -35 -10q-31 -10 -43 -13l-14 39l84 35q49 23 78 31l34.5 11t30.5 9q25 8 41 9 q29 0 45 -19q16 -20 17 -63q0 -37 -6 -95q-2 -23 -8.5 -68.5t-8.5 -64.5q-4 -29 -13 -86t-11 -77q-8 -47 -14.5 -92.5l-12.5 -88.5l141 101l25 -23l-8 -26q-2 -6 -7 -15q-2 -4 -6 -16q-2 -2 -6 -10.5t-8 -14.5l-147 -104l-31 -199l-15.5 -95t-13.5 -85q-12 -83 -18 -148 q-6 -63 -6 -96q0 -37 8 -47q10 -12 26 -12q27 0 54 8q57 16 75 25l13 -37l-30.5 -17.5l-33 -19.5l-24.5 -15q-53 -31 -68 -36q-31 -12 -55.5 -18.5t-50.5 -6.5q-31 0 -52 31q-20 29 -20 88q0 23 6 78q10 94 16 131q10 76 25 168q6 41 14.5 89t16.5 99l-140 -98z" />
<glyph unicode="&#x143;" horiz-adv-x="1236" d="M0 0l6 43q63 8 100 29q35 18 37 32l146 1049q-25 29 -58 43q-25 10 -73 21l6 43h178h35q10 0 22 -9q2 -2 17 -24q4 -6 10 -17.5l14 -27.5l484 -924l123 897q0 8 -4.5 14.5t-20.5 16.5q-8 4 -39 16q-18 6 -59 15l6 43h364l-6 -43q-70 -10 -100 -27q-33 -18 -35 -35 l-164 -1186q-14 2 -39 6q-14 2 -30 13q-6 4 -25 22q-10 10 -25 35l-497 959l-123 -900q-3 -12 24 -30t97 -31l-6 -43h-365zM586 1392l391 316l23 -17l27 -18q6 -4 28 -21q8 -6 19 -16v-47l-455 -244q-10 6 -18 18q-7 9 -15 29z" />
<glyph unicode="&#x144;" horiz-adv-x="1011" d="M47 842l84 35q43 18 80 30l34.5 11.5t30.5 9.5q25 8 39 8q10 0 23 -4q6 -2 10 -17q4 -16 4 -34q0 -6 1 -24.5t1 -33.5q0 -4 -1 -14t-1 -16.5t-1 -19.5t-1 -21q0 -12 -4 -41q-2 -14 -2 -33q61 74 109 117q53 47 108 79.5t103 47.5q45 14 94 14q33 0 55 -8q27 -10 41 -31 q16 -23 24.5 -53.5t8.5 -81.5q0 -34 -6 -86q-2 -16 -17 -113q-4 -31 -22 -125q-8 -39 -23 -123q-16 -100 -16 -104q-6 -47 -6 -76q0 -33 10 -47q8 -12 27 -12q27 0 53 8q47 14 71 25l15 -37q-88 -53 -154 -84q-59 -29 -102 -29q-37 0 -55.5 30.5t-18.5 86.5q0 18 6 65 q2 14 4 30.5t6.5 40.5t6.5 38l22 131l23 133l8 54t8 59q6 49 6 73q0 74 -16 107q-14 29 -60 29q-8 0 -45 -17q-31 -14 -73 -47q-49 -39 -86 -80q-51 -57 -82 -112q-27 -47 -45 -115q-12 -47 -35 -164q-18 -106 -21 -154q-3 -61 -3 -88q0 -19 1 -34q-4 -2 -15 -6.5t-17 -8.5 q-10 -4 -20.5 -9t-20.5 -9q-20 -8 -39 -17q-6 -4 -16.5 -9l-14.5 -7l-33 31q10 47 27 143q16 90 26 154l25 153q4 29 10 77l8 63q10 68 13 110q4 66 4 72q0 29 -2 37t-8 20q-2 4 -11 8q-4 2 -16 2q-2 0 -27 -4q-8 -2 -35 -10q-20 -6 -45 -12zM530 1061l273 397l24 -6 q4 -2 33 -10q12 -4 33 -12q18 -8 22 -11l15 -45l-354 -348q-18 4 -25 10z" />
<glyph unicode="&#x147;" horiz-adv-x="1236" d="M0 0l6 43q63 8 100 29q35 18 37 32l146 1049q-25 29 -58 43q-25 10 -73 21l6 43h178h35q10 0 22 -9q2 -2 17 -24q4 -6 10 -17.5l14 -27.5l484 -924l123 897q0 8 -4.5 14.5t-20.5 16.5q-8 4 -39 16q-18 6 -59 15l6 43h364l-6 -43q-70 -10 -100 -27q-33 -18 -35 -35 l-164 -1186q-14 2 -39 6q-14 2 -30 13q-6 4 -25 22q-10 10 -25 35l-497 959l-123 -900q-3 -12 24 -30t97 -31l-6 -43h-365zM504 1671q18 20 23 24q2 2 10 9.5l12 11.5l215 -205l269 205q4 -4 9 -10.5t7 -8.5t14 -26l-272 -301h-92z" />
<glyph unicode="&#x148;" horiz-adv-x="1011" d="M47 842l84 35q43 18 80 30l34.5 11.5t30.5 9.5q25 8 39 8q10 0 23 -4q6 -2 10 -17q4 -16 4 -34q0 -6 1 -24.5t1 -33.5q0 -4 -1 -14t-1 -16.5t-1 -19.5t-1 -21q0 -12 -4 -41q-2 -14 -2 -33q61 74 109 117q53 47 108 79.5t103 47.5q45 14 94 14q33 0 55 -8q27 -10 41 -31 q16 -23 24.5 -53.5t8.5 -81.5q0 -34 -6 -86q-2 -16 -17 -113q-4 -31 -22 -125q-8 -39 -23 -123q-16 -100 -16 -104q-6 -47 -6 -76q0 -33 10 -47q8 -12 27 -12q27 0 53 8q47 14 71 25l15 -37q-88 -53 -154 -84q-59 -29 -102 -29q-37 0 -55.5 30.5t-18.5 86.5q0 18 6 65 q2 14 4 30.5t6.5 40.5t6.5 38l22 131l23 133l8 54t8 59q6 49 6 73q0 74 -16 107q-14 29 -60 29q-8 0 -45 -17q-31 -14 -73 -47q-49 -39 -86 -80q-51 -57 -82 -112q-27 -47 -45 -115q-12 -47 -35 -164q-18 -106 -21 -154q-3 -61 -3 -88q0 -19 1 -34q-4 -2 -15 -6.5t-17 -8.5 q-10 -4 -20.5 -9t-20.5 -9q-20 -8 -39 -17q-6 -4 -16.5 -9l-14.5 -7l-33 31q10 47 27 143q16 90 26 154l25 153q4 29 10 77l8 63q10 68 13 110q4 66 4 72q0 29 -2 37t-8 20q-2 4 -11 8q-4 2 -16 2q-2 0 -27 -4q-8 -2 -35 -10q-20 -6 -45 -12zM358 1401l23 26q4 2 11 10 q7 5 11 9l209 -244l275 244q4 -4 9 -10l7 -8.5t14 -26.5l-278 -350h-92z" />
<glyph unicode="&#x14a;" horiz-adv-x="1144" d="M0 0l6 43q61 14 100 30.5t41 30.5l129 934q10 59 7 90q-4 33 -21 41q-20 10 -53 5q-47 -8 -92 -21l-11 55l99 35q43 14 84 25q10 2 31.5 8t31.5 8q29 6 41 6q23 0 33 -28q8 -25 8 -78q0 -27 -2 -47.5t-6 -69.5t-8 -76q-6 -43 -15 -71q66 104 132 172q68 70 137 114 q74 47 129 64q68 20 110 20q34 0 68 -12q39 -14 63.5 -39t44.5 -78q18 -49 19 -119q0 -40 -6 -92l-101 -737q-15 -104 -43 -190q-27 -84 -67 -156q-39 -68 -86 -125q-43 -53 -98 -94q-16 -12 -58 -35q-35 -18 -69 -31q-37 -12 -74 -18q-49 -8 -70 -8q-37 0 -84 14 q-33 10 -67 31q-29 16 -47 39q-16 18 -17 34q0 6 17 27q15 18 36 37q20 16 45 33q23 14 41 14q8 0 21 -18q2 -4 33 -39q14 -18 47 -39q25 -16 69 -17q131 0 207 119q80 123 113 369l92 682q4 23 8 71q2 23 2 62q0 51 -8 82q-9 34 -24.5 55.5t-36.5 30.5q-18 8 -47 8 q-25 0 -70 -16q-27 -10 -90 -50q-33 -20 -101 -79q-53 -47 -94 -109q-41 -59 -76 -141q-33 -74 -45 -170l-65 -482q-2 -12 29 -30q23 -14 94 -31l-6 -43h-410z" />
<glyph unicode="&#x14b;" horiz-adv-x="987" d="M41 842l84 35q43 18 80 30l34.5 11.5t30.5 9.5q25 8 39 8q10 0 23 -4q6 -2 10 -17q4 -16 4 -34q0 -6 1 -24.5t1 -33.5q0 -4 -1 -14t-1 -16.5t-1 -19.5t-1 -21q0 -27 -2 -41q-4 -29 -4 -33q61 74 108 117q53 47 108.5 79.5t102.5 47.5q45 14 95 14q33 0 55 -8 q27 -10 41 -31q16 -23 24.5 -53.5t8.5 -81.5q0 -10 -4 -68q0 -10 -11 -100q-2 -23 -9 -66t-9 -59q-4 -25 -9 -62.5t-12 -78.5l-24 -144q-6 -39 -13.5 -75.5l-13.5 -65.5q-16 -84 -45 -168q-23 -63 -59 -125q-35 -55 -72 -96q-45 -49 -84 -80q-27 -20 -59 -37q-18 -8 -64 -22 q-31 -10 -57 -13q-37 -4 -45 -4q-29 0 -66 13q-49 16 -71 26q-37 16 -59.5 30.5t-22.5 24.5q0 14 12 35q14 25 31 41q23 23 35 33q16 14 30 14q10 0 27 -14q2 -2 17.5 -15.5t25.5 -21.5q29 -20 55 -35q29 -14 70 -14q53 0 88 20q43 25 67 66q28 46 50 117q25 80 41 172 q27 139 43 239l34 211q12 80 21 164q8 90 8 96q0 74 -16 107q-14 29 -60 29q-8 0 -45 -17q-31 -14 -74 -47q-49 -39 -86 -80q-51 -57 -81 -112q-27 -47 -46 -115q-12 -47 -34 -164q-18 -106 -21 -154q-4 -84 -2 -122q-4 -2 -15 -6.5t-18 -8.5q-10 -4 -19 -9t-20 -9 q-6 -2 -18 -7t-22 -10q-6 -4 -16.5 -9l-14.5 -7l-33 31q10 47 27 143q16 90 26 154l25 153q4 29 10 77l8 63q10 68 13 110q4 66 4 72q0 29 -2 37q-4 16 -7 20q-2 2 -12 8q-4 2 -16 2q-2 0 -27 -4q-8 -2 -35 -10q-20 -6 -45 -12z" />
<glyph unicode="&#x14c;" horiz-adv-x="1114" d="M90 485q0 63 12 133q14 78 33 142q23 74 51 137q27 57 72 121q57 74 90 106q49 49 105 86q53 35 118 58q68 23 134 22q98 0 169.5 -41t118.5 -112q49 -76 70 -164q23 -100 22 -199q0 -70 -12 -143q-14 -86 -35 -146q-27 -74 -57 -137q-29 -59 -80 -123q-37 -45 -90 -100 q-49 -47 -100 -82q-43 -27 -113 -53q-55 -20 -127 -21q-96 0 -168 41q-74 41 -119 111q-47 74 -71 166q-23 87 -23 198zM242 532q0 -84 20 -172q18 -78 55 -137q35 -55 86 -90q47 -33 113 -33q78 0 139.5 31t106.5 82q47 53 80 119q34 68 55 141q18 63 28.5 145t10.5 138 q0 86 -18 159q-18 72 -54 129q-33 53 -86 89q-51 33 -116 32q-74 0 -136 -30q-68 -33 -108 -78q-45 -47 -80 -115t-55 -133q-20 -70 -31 -143q-10 -79 -10 -134zM426 1468q2 6 10 22q2 8 6.5 14.5t6.5 12.5l14 29q8 16 12 22h547l20 -24q-2 -4 -5 -12.5t-5 -12.5l-7 -14 t-7 -15q-8 -14 -14 -26q-4 -8 -13 -21h-549z" />
<glyph unicode="&#x14d;" horiz-adv-x="862" d="M53 344q0 72 12.5 139.5t38.5 126.5q29 66 72 119q46 58 111 111q53 41 112 67q63 29 123 29q76 0 133 -29q55 -29 90 -78q33 -49 50 -118q16 -72 16 -152q0 -72 -14 -135q-14 -59 -45 -133q-27 -61 -72 -123q-43 -58 -98 -105q-20 -16 -56 -40q-25 -16 -57 -33 q-20 -10 -61 -23q-27 -8 -62 -8q-74 0 -125 29q-57 31 -92 82q-41 57 -57 123q-19 69 -19 151zM197 399q0 -66 16 -127t47 -104q35 -49 68 -70q43 -27 86 -26q47 0 82 20q39 23 65 55q25 29 49 80q20 39 33 92q12 51 19 97q6 49 6 88q0 154 -56 233q-57 82 -159 82 q-74 0 -121 -41q-49 -43 -78 -104q-31 -66 -43 -137q-14 -87 -14 -138zM237 1182q2 6 10 22l13 29q4 10 12 27q2 4 14 22h547l19 -25q-2 -10 -9 -24l-7 -14.5l-7 -14.5q-8 -14 -14 -26q-4 -8 -13 -21h-548z" />
<glyph unicode="&#x14e;" horiz-adv-x="1114" d="M90 485q0 63 12 133q14 78 33 142q23 74 51 137q27 57 72 121q57 74 90 106q49 49 105 86q53 35 118 58q68 23 134 22q98 0 169.5 -41t118.5 -112q49 -76 70 -164q23 -100 22 -199q0 -70 -12 -143q-14 -86 -35 -146q-27 -74 -57 -137q-29 -59 -80 -123q-37 -45 -90 -100 q-49 -47 -100 -82q-43 -27 -113 -53q-55 -20 -127 -21q-96 0 -168 41q-74 41 -119 111q-47 74 -71 166q-23 87 -23 198zM242 532q0 -84 20 -172q18 -78 55 -137q35 -55 86 -90q47 -33 113 -33q78 0 139.5 31t106.5 82q47 53 80 119q34 68 55 141q18 63 28.5 145t10.5 138 q0 86 -18 159q-18 72 -54 129q-33 53 -86 89q-51 33 -116 32q-74 0 -136 -30q-68 -33 -108 -78q-45 -47 -80 -115t-55 -133q-20 -70 -31 -143q-10 -79 -10 -134zM457 1654q14 18 27 27q4 4 14 9l14 7q18 -68 37 -94q23 -35 53 -61q25 -23 60 -33t59 -10q27 0 68 10 q37 8 71 33q29 18 68 61q37 39 64 94q20 -12 24 -16q10 -10 19 -27q-35 -76 -78 -135q-39 -55 -82 -88q-41 -31 -84 -47q-41 -14 -82 -14q-45 0 -82 14q-45 16 -72 47q-31 35 -55 88q-25 55 -43 135z" />
<glyph unicode="&#x14f;" horiz-adv-x="862" d="M53 344q0 72 12.5 139.5t38.5 126.5q29 66 72 119q46 58 111 111q53 41 112 67q63 29 123 29q76 0 133 -29q55 -29 90 -78q33 -49 50 -118q16 -72 16 -152q0 -72 -14 -135q-14 -59 -45 -133q-27 -61 -72 -123q-43 -58 -98 -105q-20 -16 -56 -40q-25 -16 -57 -33 q-20 -10 -61 -23q-27 -8 -62 -8q-74 0 -125 29q-57 31 -92 82q-41 57 -57 123q-19 69 -19 151zM197 399q0 -66 16 -127t47 -104q35 -49 68 -70q43 -27 86 -26q47 0 82 20q39 23 65 55q25 29 49 80q20 39 33 92q12 51 19 97q6 49 6 88q0 154 -56 233q-57 82 -159 82 q-74 0 -121 -41q-49 -43 -78 -104q-31 -66 -43 -137q-14 -87 -14 -138zM260 1335q14 18 27 27q4 4 14 9l14 7q18 -68 37 -94q23 -35 53 -61q25 -23 60 -33t59 -10q27 0 68 10q37 8 71 33q29 18 68 61q37 39 64 94q20 -12 24 -16q10 -10 19 -27q-35 -76 -78 -135 q-39 -55 -82 -88q-41 -31 -84 -47q-41 -14 -82 -14q-45 0 -82 14q-45 16 -72 47q-31 35 -55 88q-25 55 -43 135z" />
<glyph unicode="&#x150;" horiz-adv-x="1114" d="M90 485q0 63 12 133q14 78 33 142q23 74 51 137q27 57 72 121q57 74 90 106q49 49 105 86q53 35 118 58q68 23 134 22q98 0 169.5 -41t118.5 -112q49 -76 70 -164q23 -100 22 -199q0 -70 -12 -143q-14 -86 -35 -146q-27 -74 -57 -137q-29 -59 -80 -123q-37 -45 -90 -100 q-49 -47 -100 -82q-43 -27 -113 -53q-55 -20 -127 -21q-96 0 -168 41q-74 41 -119 111q-47 74 -71 166q-23 87 -23 198zM242 532q0 -84 20 -172q18 -78 55 -137q35 -55 86 -90q47 -33 113 -33q78 0 139.5 31t106.5 82q47 53 80 119q34 68 55 141q18 63 28.5 145t10.5 138 q0 86 -18 159q-18 72 -54 129q-33 53 -86 89q-51 33 -116 32q-74 0 -136 -30q-68 -33 -108 -78q-45 -47 -80 -115t-55 -133q-20 -70 -31 -143q-10 -79 -10 -134zM549 1372l213 405q16 -4 23 -4q16 -4 26 -6t27 -6q4 -2 11 -5t9 -3l17 -41l-279 -367q-18 4 -24 8q-4 2 -12 9 q-7 6 -11 10zM805 1372l213 405q14 -4 23 -4q16 -4 26 -6t27 -6q4 -2 11 -5t9 -3l17 -41l-279 -367q-18 4 -24 8q-4 2 -12 9q-7 6 -11 10z" />
<glyph unicode="&#x151;" horiz-adv-x="862" d="M53 344q0 72 12.5 139.5t38.5 126.5q29 66 72 119q46 58 111 111q53 41 112 67q63 29 123 29q76 0 133 -29q55 -29 90 -78q33 -49 50 -118q16 -72 16 -152q0 -72 -14 -135q-14 -59 -45 -133q-27 -61 -72 -123q-43 -58 -98 -105q-20 -16 -56 -40q-25 -16 -57 -33 q-20 -10 -61 -23q-27 -8 -62 -8q-74 0 -125 29q-57 31 -92 82q-41 57 -57 123q-19 69 -19 151zM197 399q0 -66 16 -127t47 -104q35 -49 68 -70q43 -27 86 -26q47 0 82 20q39 23 65 55q25 29 49 80q20 39 33 92q12 51 19 97q6 49 6 88q0 154 -56 233q-57 82 -159 82 q-74 0 -121 -41q-49 -43 -78 -104q-31 -66 -43 -137q-14 -87 -14 -138zM354 1053l213 405q16 -4 23 -4q16 -4 26 -6t27 -6q4 -2 11 -5t9 -3l17 -41l-279 -367q-18 4 -24 8q-4 2 -12 9q-7 6 -11 10zM610 1053l213 405q14 -4 23 -4q16 -4 26 -6t27 -6q4 -2 11 -5t9 -3l17 -41 l-279 -367q-18 4 -24 8q-4 2 -12 9q-7 6 -11 10z" />
<glyph unicode="&#x152;" horiz-adv-x="1488" d="M90 465q0 98 23 205q20 100 61 192q43 98 94 170q55 77 123 135q61 53 146 90q74 33 161 33q31 0 64 -4q16 -2 49 -10t49 -10q49 -6 62 -6h532l25 -25q-4 -16 -13 -57q-4 -20 -16 -61.5t-18 -59.5q-10 -31 -19 -47h-43q4 61 4 77q0 23 -8 48q-6 20 -18 26q-16 8 -29 8 h-293l-59 -434h327l21 -28q-2 -2 -23 -29q-4 -6 -13 -16.5t-13 -14.5l-27 -26l-12 -11.5t-10 -9.5q-12 15 -25 25q-12 10 -33 16q-23 8 -47 10q-37 4 -65 4h-91l-69 -501q-2 -10 -2 -27q0 -12 12 -21q12 -10 41 -12q41 -4 90 -4h115q51 0 71 4q31 6 54 23q25 18 47 53 q29 47 51 92l37 -18q-20 -92 -39 -150q-6 -16 -12 -37.5t-10.5 -35t-8.5 -21.5h-588q-49 0 -83 -6q-10 -2 -32 -5t-32 -5q-41 -8 -61 -11q-41 -4 -70 -4q-92 0 -162 39q-76 43 -119 107q-47 70 -71.5 158t-24.5 192zM236 524q0 -100 20 -174q25 -86 55 -133q35 -53 88 -86 q49 -31 111 -31q74 0 129 13q49 10 106 51l125 917q-88 84 -213 84q-76 0 -137 -30q-63 -31 -108 -80q-43 -45 -80 -117q-34 -65 -56 -135q-20 -70 -30 -144q-10 -78 -10 -135z" />
<glyph unicode="&#x153;" horiz-adv-x="1372" d="M53 344q0 72 13 139q10 59 40 127q29 61 70 119q39 53 107 111q55 45 110 69q59 27 119 27q108 0 172 -62q63 -61 88 -167q25 33 64 71q41 41 75 68q20 18 52 35q27 14 61 28q41 16 63 21q35 6 64 6q43 0 76 -16q35 -16 53 -39q20 -23 30.5 -58t10.5 -63.5t-6 -59 t-27 -63.5q-23 -35 -57 -70q-29 -29 -98 -73q-41 -27 -148 -80q-49 -25 -209 -86q6 -63 23 -103q20 -53 41 -80q25 -33 51 -51q28 -18 55 -18q10 0 51 4q23 2 70 20q43 16 90 43q45 25 111 78q2 -2 16 -20q10 -12 12 -21q-84 -72 -145 -114.5t-111 -67.5q-39 -18 -88 -31 q-35 -8 -75 -8q-33 0 -60 10q-31 12 -61 37q-37 29 -58 64q-31 49 -43 94q-45 -63 -88 -101q-27 -23 -53 -40q-18 -12 -59 -33q-25 -12 -60 -23q-27 -8 -57 -8q-70 0 -119 29q-55 33 -90 82q-31 45 -55 123q-21 67 -21 151zM197 399q0 -66 16 -127q16 -63 43 -104 q29 -45 66 -70q39 -27 81 -26q41 0 74 20q34 22 62 55q18 23 47 80q25 47 35 92q16 68 20 97q6 49 6 88q0 156 -53 233q-57 82 -152 82q-41 0 -77 -20q-35 -18 -62 -51q-25 -29 -47 -76q-20 -39 -33 -88q-16 -61 -20 -95q-6 -49 -6 -90zM774 403q102 39 152 64q70 35 104 57 q45 29 68 51q31 31 39 48q16 33 18 47q4 29 4 45q0 35 -8 53q-12 29 -21 37q-14 14 -28 20q-16 6 -35 6q-14 0 -45 -12q-37 -14 -61 -37q-37 -33 -66 -73q-37 -53 -57 -93q-31 -59 -43 -106q-19 -66 -21 -107z" />
<glyph unicode="&#x154;" horiz-adv-x="1075" d="M0 0l6 43q61 14 100 30.5t41 30.5l150 1090l-78 -12q-47 -8 -78 -15v60l90 24q31 8 97 21q12 2 106 12q57 6 125 6q92 0 160 -20q71 -22 123 -62q47 -37 78 -100q29 -61 28 -137q0 -41 -18 -97q-20 -63 -56 -110q-41 -57 -104 -102.5t-158 -63.5l234 -414q16 -27 35 -49 q14 -16 39 -20q27 -4 55 4l84 28l18 -38l-78 -48q-4 -2 -30.5 -18l-38.5 -23q-25 -12 -58 -24q-27 -10 -38 -10q-18 0 -33 6q-20 8 -31 18q-8 8 -33 41q-12 16 -35 66l-227 473q-18 2 -59 6q-37 4 -56 8l-67 -500q-2 -12 29 -30q23 -14 94 -31l-6 -43h-410zM371 678 q27 -8 57 -12q37 -4 57 -4q63 0 121 18q61 20 103 51q39 31 69 88q27 51 27 123q0 78 -27 125q-29 51 -71 82q-45 33 -93 43q-61 14 -100 14h-37q-6 0 -17 -1t-18 -1zM467 1392l391 316l23 -17l27 -18q6 -4 28 -21q8 -6 19 -16v-47l-455 -244q-10 6 -18 18q-7 9 -15 29z" />
<glyph unicode="&#x155;" horiz-adv-x="724" d="M41 840l84 37q43 18 80 30l34.5 11.5t30.5 9.5q25 8 39 8q16 0 22.5 -4t10.5 -19q4 -16 4 -34q0 -6 1 -25.5t1 -32.5q0 -4 -4 -37q-2 -16 -6 -57q-2 -10 -4 -29.5t-4 -29.5q-2 -16 -5 -28.5t-3 -21.5q49 98 92 160q53 76 80 99q43 35 73 47q35 12 68 12q16 0 33 -10 q10 -6 28 -25q8 -8 17.5 -14t15.5 -13q20 -16 39 -24l-13.5 -19.5l-13.5 -19.5l-28 -45q-6 -10 -29 -37q-12 -14 -22 -14q-23 0 -33 10l-25 25l-22 22q-12 12 -27 12q-27 0 -61 -36q-39 -43 -68 -93q-39 -66 -66 -129q-33 -74 -53 -143q-8 -27 -20 -84q-8 -37 -15 -92 q-8 -66 -10 -96q-2 -23 -1.5 -44.5t1.5 -41.5q-4 -2 -15 -6.5t-18 -8.5q-10 -4 -19 -9t-20 -9q-6 -2 -18 -7t-22 -10q-6 -4 -16.5 -9l-14.5 -7l-33 31q6 27 15.5 78t13.5 69q12 59 26 152q18 111 23 147q2 16 9 63.5t9 69.5q2 14 6.5 54.5l6.5 58.5q4 66 4 78 q0 20 -4.5 36.5t-8.5 20.5t-12 8q-4 2 -16 2q-2 0 -27 -4q-20 -4 -35 -8l-41 -12zM405 1061l273 397l24 -6q4 -2 33 -10q12 -4 33 -12q18 -8 22 -11l15 -45l-354 -348q-18 4 -25 10z" />
<glyph unicode="&#x158;" horiz-adv-x="1075" d="M0 0l6 43q61 14 100 30.5t41 30.5l150 1090l-78 -12q-47 -8 -78 -15v60l90 24q31 8 97 21q12 2 106 12q57 6 125 6q92 0 160 -20q71 -22 123 -62q47 -37 78 -100q29 -61 28 -137q0 -41 -18 -97q-20 -63 -56 -110q-41 -57 -104 -102.5t-158 -63.5l234 -414q16 -27 35 -49 q14 -16 39 -20q27 -4 55 4l84 28l18 -38l-78 -48q-4 -2 -30.5 -18l-38.5 -23q-25 -12 -58 -24q-27 -10 -38 -10q-18 0 -33 6q-20 8 -31 18q-8 8 -33 41q-12 16 -35 66l-227 473q-18 2 -59 6q-37 4 -56 8l-67 -500q-2 -12 29 -30q23 -14 94 -31l-6 -43h-410zM371 678 q27 -8 57 -12q37 -4 57 -4q63 0 121 18q61 20 103 51q39 31 69 88q27 51 27 123q0 78 -27 125q-29 51 -71 82q-45 33 -93 43q-61 14 -100 14h-37q-6 0 -17 -1t-18 -1zM385 1671q18 20 23 24q2 2 10 9.5l12 11.5l215 -205l269 205q4 -4 9 -10.5t7 -8.5t14 -26l-272 -301h-92z " />
<glyph unicode="&#x159;" horiz-adv-x="724" d="M41 840l84 37q43 18 80 30l34.5 11.5t30.5 9.5q25 8 39 8q16 0 22.5 -4t10.5 -19q4 -16 4 -34q0 -6 1 -25.5t1 -32.5q0 -4 -4 -37q-2 -16 -6 -57q-2 -10 -4 -29.5t-4 -29.5q-2 -16 -5 -28.5t-3 -21.5q49 98 92 160q53 76 80 99q43 35 73 47q35 12 68 12q16 0 33 -10 q10 -6 28 -25q8 -8 17.5 -14t15.5 -13q20 -16 39 -24l-13.5 -19.5l-13.5 -19.5l-28 -45q-6 -10 -29 -37q-12 -14 -22 -14q-23 0 -33 10l-25 25l-22 22q-12 12 -27 12q-27 0 -61 -36q-39 -43 -68 -93q-39 -66 -66 -129q-33 -74 -53 -143q-8 -27 -20 -84q-8 -37 -15 -92 q-8 -66 -10 -96q-2 -23 -1.5 -44.5t1.5 -41.5q-4 -2 -15 -6.5t-18 -8.5q-10 -4 -19 -9t-20 -9q-6 -2 -18 -7t-22 -10q-6 -4 -16.5 -9l-14.5 -7l-33 31q6 27 15.5 78t13.5 69q12 59 26 152q18 111 23 147q2 16 9 63.5t9 69.5q2 14 6.5 54.5l6.5 58.5q4 66 4 78 q0 20 -4.5 36.5t-8.5 20.5t-12 8q-4 2 -16 2q-2 0 -27 -4q-20 -4 -35 -8l-41 -12zM235 1401l23 26q4 2 11 10q7 5 11 9l209 -244l275 244q4 -4 9 -10l7 -8.5t14 -26.5l-278 -350h-92z" />
<glyph unicode="&#x15a;" horiz-adv-x="897" d="M47 115q0 12 12 35q8 14 29 47q10 16 35 41q16 16 31 16q10 0 28 -25q23 -31 45 -55q23 -27 68 -53q41 -25 100 -25q63 0 113 21q57 25 92 55q41 39 62 84q23 51 22 104q0 39 -12 76q-12 39 -41 70q-27 29 -80 65q-41 29 -127 70q-72 35 -109 66q-43 37 -67 73 q-27 39 -35 74q-10 41 -10 74q0 68 30 131q31 65 86 117q55 51 134 81q86 33 176 33q70 0 133 -28q66 -29 110 -64q2 -2 2 -6t-2 -8q-3 -9 -12 -25q-2 -2 -22 -29l-25 -30q-8 -10 -25 -27q-10 -10 -18 -14l-29 6q-18 25 -38.5 45t-45.5 39q-20 16 -53 27q-31 10 -57 10 q-57 0 -96 -17q-43 -18 -70 -45q-28 -28 -43 -61q-16 -37 -16 -68q0 -14 8 -47q6 -23 28 -49q22 -25 62 -55q35 -27 108 -64q66 -33 134 -78q55 -37 89.5 -77.5t49 -83.5t14.5 -101q0 -96 -39 -180q-39 -86 -106 -149q-66 -63 -154 -103q-86 -39 -188 -39q-37 0 -86 13 q-45 10 -92 34q-39 20 -74 47q-29 23 -29 52zM424 1392l391 316l23 -17l27 -18q6 -4 28 -21q8 -6 19 -16v-47l-455 -244q-10 6 -18 18q-7 9 -15 29z" />
<glyph unicode="&#x15b;" horiz-adv-x="710" d="M-4 98q0 8 12 31q8 14 29 43q12 18 32.5 34.5t28.5 16.5t15 -12q4 -6 8 -13.5t10 -17.5l29 -41q18 -25 39 -41q25 -18 57 -30q35 -12 76 -13q37 0 67 13q20 8 54 36q27 25 39 54q12 31 12 65q0 37 -17 70q-18 37 -41 57q-31 29 -61 47q-14 10 -74 39q-55 27 -90 49 q-31 20 -57 52q-20 23 -31 55q-10 31 -10 61q0 63 31 115q33 53 79 90q47 35 111 57q59 20 119 21q52 0 86 -12q39 -14 61 -27q6 -4 47 -33q20 -14 41 -20l-39 -41q-12 -12 -36 -33q-20 -18 -31 -22q-12 -6 -21 -7q-14 0 -28 17q-14 18 -33 39q-10 12 -43 37q-25 18 -57 18 q-25 0 -56 -10q-23 -8 -47 -28.5t-35 -45.5q-14 -33 -14 -59q0 -35 33 -74q31 -37 115 -76q35 -16 81 -45q43 -27 74 -57q33 -33 53.5 -74t20.5 -94q0 -72 -35 -129q-37 -61 -92 -105q-66 -51 -123 -71q-68 -25 -133 -25q-39 0 -92 14q-47 12 -82 33q-37 23 -60 47 q-22 27 -22 45zM383 1061l273 397l24 -6q4 -2 33 -10q12 -4 33 -12q18 -8 22 -11l15 -45l-354 -348q-18 4 -25 10z" />
<glyph unicode="&#x15c;" horiz-adv-x="897" d="M47 115q0 12 12 35q8 14 29 47q10 16 35 41q16 16 31 16q10 0 28 -25q23 -31 45 -55q23 -27 68 -53q41 -25 100 -25q63 0 113 21q57 25 92 55q41 39 62 84q23 51 22 104q0 39 -12 76q-12 39 -41 70q-27 29 -80 65q-41 29 -127 70q-72 35 -109 66q-43 37 -67 73 q-27 39 -35 74q-10 41 -10 74q0 68 30 131q31 65 86 117q55 51 134 81q86 33 176 33q70 0 133 -28q66 -29 110 -64q2 -2 2 -6t-2 -8q-3 -9 -12 -25q-2 -2 -22 -29l-25 -30q-8 -10 -25 -27q-10 -10 -18 -14l-29 6q-18 25 -38.5 45t-45.5 39q-20 16 -53 27q-31 10 -57 10 q-57 0 -96 -17q-43 -18 -70 -45q-28 -28 -43 -61q-16 -37 -16 -68q0 -14 8 -47q6 -23 28 -49q22 -25 62 -55q35 -27 108 -64q66 -33 134 -78q55 -37 89.5 -77.5t49 -83.5t14.5 -101q0 -96 -39 -180q-39 -86 -106 -149q-66 -63 -154 -103q-86 -39 -188 -39q-37 0 -86 13 q-45 10 -92 34q-39 20 -74 47q-29 23 -29 52zM303 1390l275 301h92l193 -301l-13.5 -17.5t-9.5 -11.5q-6 -10 -23 -16l-215 205l-266 -205q-10 6 -16 16q-13 17 -17 29z" />
<glyph unicode="&#x15d;" horiz-adv-x="710" d="M-4 98q0 8 12 31q8 14 29 43q12 18 32.5 34.5t28.5 16.5t15 -12q4 -6 8 -13.5t10 -17.5l29 -41q18 -25 39 -41q25 -18 57 -30q35 -12 76 -13q37 0 67 13q20 8 54 36q27 25 39 54q12 31 12 65q0 37 -17 70q-18 37 -41 57q-31 29 -61 47q-14 10 -74 39q-55 27 -90 49 q-31 20 -57 52q-20 23 -31 55q-10 31 -10 61q0 63 31 115q33 53 79 90q47 35 111 57q59 20 119 21q52 0 86 -12q39 -14 61 -27q6 -4 47 -33q20 -14 41 -20l-39 -41q-12 -12 -36 -33q-20 -18 -31 -22q-12 -6 -21 -7q-14 0 -28 17q-14 18 -33 39q-10 12 -43 37q-25 18 -57 18 q-25 0 -56 -10q-23 -8 -47 -28.5t-35 -45.5q-14 -33 -14 -59q0 -35 33 -74q31 -37 115 -76q35 -16 81 -45q43 -27 74 -57q33 -33 53.5 -74t20.5 -94q0 -72 -35 -129q-37 -61 -92 -105q-66 -51 -123 -71q-68 -25 -133 -25q-39 0 -92 14q-47 12 -82 33q-37 23 -60 47 q-22 27 -22 45zM167 1071l285 371h92l183 -371q-4 -6 -9.5 -12t-7.5 -10.5t-4 -6.5q-6 -8 -24 -16l-207 264l-275 -264q-6 4 -14 16q-17 27 -19 29z" />
<glyph unicode="&#x160;" horiz-adv-x="897" d="M47 115q0 12 12 35q8 14 29 47q10 16 35 41q16 16 31 16q10 0 28 -25q23 -31 45 -55q23 -27 68 -53q41 -25 100 -25q63 0 113 21q57 25 92 55q41 39 62 84q23 51 22 104q0 39 -12 76q-12 39 -41 70q-27 29 -80 65q-41 29 -127 70q-72 35 -109 66q-43 37 -67 73 q-27 39 -35 74q-10 41 -10 74q0 68 30 131q31 65 86 117q55 51 134 81q86 33 176 33q70 0 133 -28q66 -29 110 -64q2 -2 2 -6t-2 -8q-3 -9 -12 -25q-2 -2 -22 -29l-25 -30q-8 -10 -25 -27q-10 -10 -18 -14l-29 6q-18 25 -38.5 45t-45.5 39q-20 16 -53 27q-31 10 -57 10 q-57 0 -96 -17q-43 -18 -70 -45q-28 -28 -43 -61q-16 -37 -16 -68q0 -14 8 -47q6 -23 28 -49q22 -25 62 -55q35 -27 108 -64q66 -33 134 -78q55 -37 89.5 -77.5t49 -83.5t14.5 -101q0 -96 -39 -180q-39 -86 -106 -149q-66 -63 -154 -103q-86 -39 -188 -39q-37 0 -86 13 q-45 10 -92 34q-39 20 -74 47q-29 23 -29 52zM342 1671q18 20 23 24q2 2 10 9.5l12 11.5l215 -205l269 205q4 -4 9 -10.5t7 -8.5t14 -26l-272 -301h-92z" />
<glyph unicode="&#x161;" horiz-adv-x="710" d="M-4 98q0 8 12 31q8 14 29 43q12 18 32.5 34.5t28.5 16.5t15 -12q4 -6 8 -13.5t10 -17.5l29 -41q18 -25 39 -41q25 -18 57 -30q35 -12 76 -13q37 0 67 13q20 8 54 36q27 25 39 54q12 31 12 65q0 37 -17 70q-18 37 -41 57q-31 29 -61 47q-14 10 -74 39q-55 27 -90 49 q-31 20 -57 52q-20 23 -31 55q-10 31 -10 61q0 63 31 115q33 53 79 90q47 35 111 57q59 20 119 21q52 0 86 -12q39 -14 61 -27q6 -4 47 -33q20 -14 41 -20l-39 -41q-12 -12 -36 -33q-20 -18 -31 -22q-12 -6 -21 -7q-14 0 -28 17q-14 18 -33 39q-10 12 -43 37q-25 18 -57 18 q-25 0 -56 -10q-23 -8 -47 -28.5t-35 -45.5q-14 -33 -14 -59q0 -35 33 -74q31 -37 115 -76q35 -16 81 -45q43 -27 74 -57q33 -33 53.5 -74t20.5 -94q0 -72 -35 -129q-37 -61 -92 -105q-66 -51 -123 -71q-68 -25 -133 -25q-39 0 -92 14q-47 12 -82 33q-37 23 -60 47 q-22 27 -22 45zM213 1401l23 26q4 2 11 10q7 5 11 9l209 -244l275 244q4 -4 9 -10l7 -8.5t14 -26.5l-278 -350h-92z" />
<glyph unicode="&#x164;" horiz-adv-x="1064" d="M113 1014q2 10 10 59q6 39 14 66q12 45 19 65q9 31 18 56h922l22 -25q-2 -10 -10 -55q-8 -41 -14 -62l-17 -63q-2 -4 -7 -24.5t-9 -31.5h-41q-2 45 -6 82q-2 31 -10 54q-6 20 -21 26q-16 8 -33 8h-258l-143 -1054q-2 -10 29 -33q27 -18 112 -39l-6 -43h-446l6 43 q76 16 121 39q37 18 38 33l148 1054h-272q-12 0 -25 -6q-10 -4 -25 -22q-10 -12 -32 -54q-27 -47 -47 -92zM407 1671q18 20 23 24q2 2 10 9.5l12 11.5l215 -205l269 205q4 -4 9 -10.5t7 -8.5t14 -26l-272 -301h-92z" />
<glyph unicode="&#x168;" horiz-adv-x="1226" d="M168 1217l6 43h410l-6 -43q-70 -16 -101 -31q-39 -18 -41 -31l-88 -645q-6 -55 -6 -57v-56q0 -76 16 -127q18 -59 52 -98q37 -43 84 -63q51 -23 114 -23q59 0 119 33q53 31 98 84q39 47 70 123q27 68 37 143l92 686q2 10 -27 31q-20 14 -92 31l6 43h375l-6 -43 q-74 -18 -98 -31q-35 -18 -37 -31l-90 -643q-18 -132 -62 -233q-45 -104 -106 -170q-65 -68 -148 -105q-78 -35 -182 -35q-84 0 -151.5 24.5t-116.5 74.5q-47 47 -76 118q-27 68 -27 162q0 59 9 115l98 692q2 12 -29 31q-22 13 -96 31zM463 1400q29 53 47 80q33 47 57 72 q35 35 68 51q37 18 73.5 18.5t61.5 -16.5q39 -25 51 -37l23.5 -20l21.5 -19q18 -16 41 -16q34 0 74 31q39 31 78 88l45 -21q-22 -40 -49 -80q-33 -47 -58 -71q-37 -37 -65 -51q-37 -18 -76 -19q-35 0 -57 16q-33 25 -49 39l-46 37q-23 16 -51 17q-33 0 -69 -31 q-27 -23 -78 -88z" />
<glyph unicode="&#x169;" horiz-adv-x="1021" d="M39 840l84 37q43 18 80 30l63 21q25 8 39 8q31 0 39 -18q10 -20 10 -66q0 -29 -6 -76q-10 -82 -14 -102q-4 -31 -10.5 -63.5l-10.5 -53.5q-8 -47 -18 -117q-4 -20 -14 -102q-6 -47 -7 -76q0 -98 21 -139q20 -43 57 -43q16 0 54 20q27 14 73 62q41 41 92 114 q57 82 103 170q6 43 14 86q6 35 14 86q0 6 5.5 34t7.5 42q4 49 4 66q0 29 -2 37q-4 16 -8 20q-6 6 -10.5 8t-16.5 2q-4 0 -24.5 -4t-30.5 -8q-25 -8 -39 -12l-15 37l82 37q33 14 76 30q12 4 32.5 11.5t29.5 9.5q23 8 38 8q28 0 37 -18q8 -16 9 -66q0 -29 -7 -76 q-10 -82 -14 -102q-12 -74 -20 -115q-6 -31 -21 -117q-4 -25 -14 -106q-6 -49 -6 -82q0 -86 14 -135q12 -43 37 -43q27 0 53 6q16 4 62 22l14 -36q-70 -47 -137 -82q-53 -27 -95 -27q-20 0 -38.5 18.5t-30.5 57.5q-12 40 -19 104q-3 32 -3 71t3 87q-40 -74 -86 -135 q-51 -68 -94 -109q-47 -45 -100 -69q-51 -25 -107 -25q-18 0 -45 16q-31 20 -49 45q-20 31 -37 78q-16 49 -16 107q0 29 6 76q2 8 5 43.5t7 56.5l18.5 108.5l18.5 108.5q4 16 14 96q4 29 5 66q0 29 -2 37q-4 16 -9 20q-2 2 -14 8q-4 2 -16 2q-2 0 -27 -4q-16 -2 -33 -8 l-43 -12zM291 1114q29 53 47 80q29 39 59 72q35 35 68 51q37 18 74 18q35 0 59 -16q39 -25 51 -37l23.5 -20.5t21.5 -18.5q18 -16 43 -16q31 0 74 33q37 29 76 86l45 -21q-29 -53 -47 -80q-33 -47 -58 -71q-31 -31 -67 -50q-41 -20 -74 -20q-35 0 -57 16q-33 25 -49 39 q-12 10 -47 37q-23 16 -50 16q-35 0 -71 -30q-27 -23 -78 -88z" />
<glyph unicode="&#x16a;" horiz-adv-x="1226" d="M168 1217l6 43h410l-6 -43q-70 -16 -101 -31q-39 -18 -41 -31l-88 -645q-6 -55 -6 -57v-56q0 -76 16 -127q18 -59 52 -98q37 -43 84 -63q51 -23 114 -23q59 0 119 33q53 31 98 84q39 47 70 123q27 68 37 143l92 686q2 10 -27 31q-20 14 -92 31l6 43h375l-6 -43 q-74 -18 -98 -31q-35 -18 -37 -31l-90 -643q-18 -132 -62 -233q-45 -104 -106 -170q-65 -68 -148 -105q-78 -35 -182 -35q-84 0 -151.5 24.5t-116.5 74.5q-47 47 -76 118q-27 68 -27 162q0 59 9 115l98 692q2 12 -29 31q-22 13 -96 31zM483 1468q2 6 10 22q2 8 6.5 14.5 t6.5 12.5l14 29q8 16 12 22h547l20 -24q-2 -4 -5 -12.5t-5 -12.5l-7 -14t-7 -15q-8 -14 -14 -26q-4 -8 -13 -21h-549z" />
<glyph unicode="&#x16b;" horiz-adv-x="1021" d="M39 840l84 37q43 18 80 30l63 21q25 8 39 8q31 0 39 -18q10 -20 10 -66q0 -29 -6 -76q-10 -82 -14 -102q-4 -31 -10.5 -63.5l-10.5 -53.5q-8 -47 -18 -117q-4 -20 -14 -102q-6 -47 -7 -76q0 -98 21 -139q20 -43 57 -43q16 0 54 20q27 14 73 62q41 41 92 114 q57 82 103 170q6 43 14 86q6 35 14 86q0 6 5.5 34t7.5 42q4 49 4 66q0 29 -2 37q-4 16 -8 20q-6 6 -10.5 8t-16.5 2q-4 0 -24.5 -4t-30.5 -8q-25 -8 -39 -12l-15 37l82 37q33 14 76 30q12 4 32.5 11.5t29.5 9.5q23 8 38 8q28 0 37 -18q8 -16 9 -66q0 -29 -7 -76 q-10 -82 -14 -102q-12 -74 -20 -115q-6 -31 -21 -117q-4 -25 -14 -106q-6 -49 -6 -82q0 -86 14 -135q12 -43 37 -43q27 0 53 6q16 4 62 22l14 -36q-70 -47 -137 -82q-53 -27 -95 -27q-20 0 -38.5 18.5t-30.5 57.5q-12 40 -19 104q-3 32 -3 71t3 87q-40 -74 -86 -135 q-51 -68 -94 -109q-47 -45 -100 -69q-51 -25 -107 -25q-18 0 -45 16q-31 20 -49 45q-20 31 -37 78q-16 49 -16 107q0 29 6 76q2 8 5 43.5t7 56.5l18.5 108.5l18.5 108.5q4 16 14 96q4 29 5 66q0 29 -2 37q-4 16 -9 20q-2 2 -14 8q-4 2 -16 2q-2 0 -27 -4q-16 -2 -33 -8 l-43 -12zM313 1182q2 6 10 22l13 29q4 10 12 27q2 4 14 22h547l19 -25q-2 -10 -9 -24l-7 -14.5l-7 -14.5q-8 -14 -14 -26q-4 -8 -13 -21h-548z" />
<glyph unicode="&#x16c;" horiz-adv-x="1226" d="M168 1217l6 43h410l-6 -43q-70 -16 -101 -31q-39 -18 -41 -31l-88 -645q-6 -55 -6 -57v-56q0 -76 16 -127q18 -59 52 -98q37 -43 84 -63q51 -23 114 -23q59 0 119 33q53 31 98 84q39 47 70 123q27 68 37 143l92 686q2 10 -27 31q-20 14 -92 31l6 43h375l-6 -43 q-74 -18 -98 -31q-35 -18 -37 -31l-90 -643q-18 -132 -62 -233q-45 -104 -106 -170q-65 -68 -148 -105q-78 -35 -182 -35q-84 0 -151.5 24.5t-116.5 74.5q-47 47 -76 118q-27 68 -27 162q0 59 9 115l98 692q2 12 -29 31q-22 13 -96 31zM512 1654q14 18 27 27q4 4 14 9l14 7 q18 -68 37 -94q23 -35 53 -61q25 -23 60 -33t59 -10q27 0 68 10q37 8 71 33q29 18 68 61q37 39 64 94q20 -12 24 -16q10 -10 19 -27q-35 -76 -78 -135q-39 -55 -82 -88q-41 -31 -84 -47q-41 -14 -82 -14q-45 0 -82 14q-45 16 -72 47q-31 35 -55 88q-25 55 -43 135z" />
<glyph unicode="&#x16d;" horiz-adv-x="1021" d="M39 840l84 37q43 18 80 30l63 21q25 8 39 8q31 0 39 -18q10 -20 10 -66q0 -29 -6 -76q-10 -82 -14 -102q-4 -31 -10.5 -63.5l-10.5 -53.5q-8 -47 -18 -117q-4 -20 -14 -102q-6 -47 -7 -76q0 -98 21 -139q20 -43 57 -43q16 0 54 20q27 14 73 62q41 41 92 114 q57 82 103 170q6 43 14 86q6 35 14 86q0 6 5.5 34t7.5 42q4 49 4 66q0 29 -2 37q-4 16 -8 20q-6 6 -10.5 8t-16.5 2q-4 0 -24.5 -4t-30.5 -8q-25 -8 -39 -12l-15 37l82 37q33 14 76 30q12 4 32.5 11.5t29.5 9.5q23 8 38 8q28 0 37 -18q8 -16 9 -66q0 -29 -7 -76 q-10 -82 -14 -102q-12 -74 -20 -115q-6 -31 -21 -117q-4 -25 -14 -106q-6 -49 -6 -82q0 -86 14 -135q12 -43 37 -43q27 0 53 6q16 4 62 22l14 -36q-70 -47 -137 -82q-53 -27 -95 -27q-20 0 -38.5 18.5t-30.5 57.5q-12 40 -19 104q-3 32 -3 71t3 87q-40 -74 -86 -135 q-51 -68 -94 -109q-47 -45 -100 -69q-51 -25 -107 -25q-18 0 -45 16q-31 20 -49 45q-20 31 -37 78q-16 49 -16 107q0 29 6 76q2 8 5 43.5t7 56.5l18.5 108.5l18.5 108.5q4 16 14 96q4 29 5 66q0 29 -2 37q-4 16 -9 20q-2 2 -14 8q-4 2 -16 2q-2 0 -27 -4q-16 -2 -33 -8 l-43 -12zM338 1335q14 18 27 27q4 4 14 9l14 7q18 -68 37 -94q23 -35 53 -61q25 -23 60 -33t59 -10q27 0 68 10q37 8 71 33q29 18 68 61q37 39 64 94q20 -12 24 -16q10 -10 19 -27q-35 -76 -78 -135q-39 -55 -82 -88q-41 -31 -84 -47q-41 -14 -82 -14q-45 0 -82 14 q-45 16 -72 47q-31 35 -55 88q-25 55 -43 135z" />
<glyph unicode="&#x16e;" horiz-adv-x="1226" d="M168 1217l6 43h410l-6 -43q-70 -16 -101 -31q-39 -18 -41 -31l-88 -645q-6 -55 -6 -57v-56q0 -76 16 -127q18 -59 52 -98q37 -43 84 -63q51 -23 114 -23q59 0 119 33q53 31 98 84q39 47 70 123q27 68 37 143l92 686q2 10 -27 31q-20 14 -92 31l6 43h375l-6 -43 q-74 -18 -98 -31q-35 -18 -37 -31l-90 -643q-18 -132 -62 -233q-45 -104 -106 -170q-65 -68 -148 -105q-78 -35 -182 -35q-84 0 -151.5 24.5t-116.5 74.5q-47 47 -76 118q-27 68 -27 162q0 59 9 115l98 692q2 12 -29 31q-22 13 -96 31zM614 1468q0 49 17 90q18 47 49 84 q29 35 72 61q39 25 88 25q53 0 84 -37q33 -39 32 -92q0 -43 -18 -86q-23 -53 -47 -82q-29 -35 -72 -61q-40 -25 -86 -25q-25 0 -49 10q-23 10 -37 27q-16 20 -24.5 38.5t-8.5 47.5zM698 1511q0 -35 16.5 -63.5t47.5 -28.5q23 0 47 14q18 10 35 33q14 18 20 47q8 33 8 49 q0 33 -16 61.5t-45 28.5q-28 0 -49 -12q-16 -10 -35 -35q-16 -25 -23 -45q-6 -24 -6 -49z" />
<glyph unicode="&#x16f;" horiz-adv-x="1021" d="M39 840l84 37q43 18 80 30l63 21q25 8 39 8q31 0 39 -18q10 -20 10 -66q0 -29 -6 -76q-10 -82 -14 -102q-4 -31 -10.5 -63.5l-10.5 -53.5q-8 -47 -18 -117q-4 -20 -14 -102q-6 -47 -7 -76q0 -98 21 -139q20 -43 57 -43q16 0 54 20q27 14 73 62q41 41 92 114 q57 82 103 170q6 43 14 86q6 35 14 86q0 6 5.5 34t7.5 42q4 49 4 66q0 29 -2 37q-4 16 -8 20q-6 6 -10.5 8t-16.5 2q-4 0 -24.5 -4t-30.5 -8q-25 -8 -39 -12l-15 37l82 37q33 14 76 30q12 4 32.5 11.5t29.5 9.5q23 8 38 8q28 0 37 -18q8 -16 9 -66q0 -29 -7 -76 q-10 -82 -14 -102q-12 -74 -20 -115q-6 -31 -21 -117q-4 -25 -14 -106q-6 -49 -6 -82q0 -86 14 -135q12 -43 37 -43q27 0 53 6q16 4 62 22l14 -36q-70 -47 -137 -82q-53 -27 -95 -27q-20 0 -38.5 18.5t-30.5 57.5q-12 40 -19 104q-3 32 -3 71t3 87q-40 -74 -86 -135 q-51 -68 -94 -109q-47 -45 -100 -69q-51 -25 -107 -25q-18 0 -45 16q-31 20 -49 45q-20 31 -37 78q-16 49 -16 107q0 29 6 76q2 8 5 43.5t7 56.5l18.5 108.5l18.5 108.5q4 16 14 96q4 29 5 66q0 29 -2 37q-4 16 -9 20q-2 2 -14 8q-4 2 -16 2q-2 0 -27 -4q-16 -2 -33 -8 l-43 -12zM440 1149q0 49 17 90q18 47 49 84q29 35 72 61q39 25 88 25q53 0 84 -37q33 -39 32 -92q0 -43 -18 -86q-23 -53 -47 -82q-29 -35 -72 -61q-40 -25 -86 -25q-25 0 -49 10q-23 10 -37 27q-16 20 -24.5 38.5t-8.5 47.5zM524 1192q0 -35 16.5 -63.5t47.5 -28.5 q23 0 47 14q18 10 35 33q14 18 20 47q8 33 8 49q0 33 -16 61.5t-45 28.5q-28 0 -49 -12q-16 -10 -35 -35q-16 -25 -23 -45q-6 -24 -6 -49z" />
<glyph unicode="&#x170;" horiz-adv-x="1226" d="M168 1217l6 43h410l-6 -43q-70 -16 -101 -31q-39 -18 -41 -31l-88 -645q-6 -55 -6 -57v-56q0 -76 16 -127q18 -59 52 -98q37 -43 84 -63q51 -23 114 -23q59 0 119 33q53 31 98 84q39 47 70 123q27 68 37 143l92 686q2 10 -27 31q-20 14 -92 31l6 43h375l-6 -43 q-74 -18 -98 -31q-35 -18 -37 -31l-90 -643q-18 -132 -62 -233q-45 -104 -106 -170q-65 -68 -148 -105q-78 -35 -182 -35q-84 0 -151.5 24.5t-116.5 74.5q-47 47 -76 118q-27 68 -27 162q0 59 9 115l98 692q2 12 -29 31q-22 13 -96 31zM606 1372l213 405q16 -4 23 -4 q16 -4 26 -6t27 -6q4 -2 11 -5t9 -3l17 -41l-279 -367q-18 4 -24 8q-4 2 -12 9q-7 6 -11 10zM862 1372l213 405q14 -4 23 -4q16 -4 26 -6t27 -6q4 -2 11 -5t9 -3l17 -41l-279 -367q-18 4 -24 8q-4 2 -12 9q-7 6 -11 10z" />
<glyph unicode="&#x171;" horiz-adv-x="1021" d="M39 840l84 37q43 18 80 30l63 21q25 8 39 8q31 0 39 -18q10 -20 10 -66q0 -29 -6 -76q-10 -82 -14 -102q-4 -31 -10.5 -63.5l-10.5 -53.5q-8 -47 -18 -117q-4 -20 -14 -102q-6 -47 -7 -76q0 -98 21 -139q20 -43 57 -43q16 0 54 20q27 14 73 62q41 41 92 114 q57 82 103 170q6 43 14 86q6 35 14 86q0 6 5.5 34t7.5 42q4 49 4 66q0 29 -2 37q-4 16 -8 20q-6 6 -10.5 8t-16.5 2q-4 0 -24.5 -4t-30.5 -8q-25 -8 -39 -12l-15 37l82 37q33 14 76 30q12 4 32.5 11.5t29.5 9.5q23 8 38 8q28 0 37 -18q8 -16 9 -66q0 -29 -7 -76 q-10 -82 -14 -102q-12 -74 -20 -115q-6 -31 -21 -117q-4 -25 -14 -106q-6 -49 -6 -82q0 -86 14 -135q12 -43 37 -43q27 0 53 6q16 4 62 22l14 -36q-70 -47 -137 -82q-53 -27 -95 -27q-20 0 -38.5 18.5t-30.5 57.5q-12 40 -19 104q-3 32 -3 71t3 87q-40 -74 -86 -135 q-51 -68 -94 -109q-47 -45 -100 -69q-51 -25 -107 -25q-18 0 -45 16q-31 20 -49 45q-20 31 -37 78q-16 49 -16 107q0 29 6 76q2 8 5 43.5t7 56.5l18.5 108.5l18.5 108.5q4 16 14 96q4 29 5 66q0 29 -2 37q-4 16 -9 20q-2 2 -14 8q-4 2 -16 2q-2 0 -27 -4q-16 -2 -33 -8 l-43 -12zM430 1053l213 405q16 -4 23 -4q16 -4 26 -6t27 -6q4 -2 11 -5t9 -3l17 -41l-279 -367q-18 4 -24 8q-4 2 -12 9q-7 6 -11 10zM686 1053l213 405q14 -4 23 -4q16 -4 26 -6t27 -6q4 -2 11 -5t9 -3l17 -41l-279 -367q-18 4 -24 8q-4 2 -12 9q-7 6 -11 10z" />
<glyph unicode="&#x174;" horiz-adv-x="1570" d="M129 1217l6 43h391l-6 -43q-45 -6 -71 -13q-23 -4 -41 -16q-15 -9 -19 -19q-4 -12 -4 -22l59 -893l437 1006h55l180 -1006l293 901q4 12 -4 21q-12 12 -27 16q-18 6 -43 12q-16 4 -57 13l6 43h385l-4 -43l-55 -13q-16 -4 -45 -12q-20 -6 -34.5 -16.5t-17.5 -20.5 l-360 -1096q-12 -29 -25 -39q-25 -20 -38 -26q-33 -14 -41 -17l-33 -8l-164 977l-385 -887q-10 -25 -31 -39q-31 -23 -41 -26q-29 -12 -43 -17l-33 -8l-73 1178q-4 27 -27 41q-27 17 -90 29zM641 1390l275 301h92l193 -301l-13.5 -17.5t-9.5 -11.5q-6 -10 -23 -16l-215 205 l-266 -205q-10 6 -16 16q-13 17 -17 29z" />
<glyph unicode="&#x175;" horiz-adv-x="1288" d="M4 840q20 8 80 37q29 14 70 30l53 21q23 8 37 8q29 0 43 -33q8 -18 30 -104l7.5 -39l7.5 -39q4 -18 9 -60.5t7 -52.5q4 -23 9 -66.5t8 -62.5q8 -68 14 -129q2 -14 6 -53t6 -57q3 -49 6 -74q25 49 82 170q41 86 76 186q41 115 59 183q23 78 29 159q2 0 13.5 11.5 t19.5 15.5q31 20 35 22l32 17q14 6 27 6q4 0 10 -16q6 -15 13 -43l6 -25q6 -25 8 -39q2 -12 7 -35.5t7 -36.5l15 -73q6 -37 12 -68q0 -4 16 -104q6 -29 10.5 -58.5t8.5 -58.5l18 -121q6 -41 14 -111q94 176 123 242q46 104 74 184q25 70 35 134q10 61 10 92q0 20 -14 32 q-16 12 -41 13q-6 0 -35 -4q-10 -2 -41 -11l-18 37q29 18 65 33q8 2 26.5 10.5t28.5 12.5q16 6 41 10q4 0 10.5 1t9.5 2t5 1q23 0 33 -2q18 -4 26 -10q12 -9 19 -25q6 -14 6 -39q0 -39 -4 -61q-6 -37 -19 -84q-8 -37 -38 -115q-41 -106 -62 -151l-94 -197 q-78 -158 -129 -250l-21 -10l-24 -12q-4 -2 -12.5 -5.5t-12.5 -5.5q-16 -8 -22 -10l-33 31l-8 59.5l-8 61.5q-4 25 -6.5 46l-4.5 38.5t-6 48.5l-20 135q-4 27 -11.5 71t-9.5 54q-8 51 -18 106q-9 49 -19 80q0 -14 -14 -63l-31 -101l-47 -123l-24.5 -59l-32.5 -76 q-20 -45 -66 -135q-23 -45 -67 -123l-9.5 -5t-11.5 -7q-12 -6 -26.5 -14.5t-28.5 -14.5q-16 -8 -23 -10l-32 31q0 6 -6.5 52t-8.5 73q-4 35 -7 70.5t-7 70.5l-16 145l-7.5 65.5t-9.5 72.5q-2 12 -7 55t-9 63q-14 80 -17 88q-6 31 -14 43q-9 15 -18 25q-8 8 -21 12 q-6 2 -18 2q-4 0 -24.5 -4t-33 -8t-41.5 -12zM485 1071l285 371h92l183 -371q-4 -6 -9.5 -12t-7.5 -10.5t-4 -6.5q-6 -8 -24 -16l-207 264l-275 -264q-6 4 -14 16q-17 27 -19 29z" />
<glyph unicode="&#x176;" horiz-adv-x="1144" d="M102 1235q6 2 27 7t33 7q23 4 63 13q39 8 62 10q37 4 47 4q27 0 51 -39q23 -35 45 -78q33 -61 49 -96q33 -70 47 -105q39 -92 43 -106l33 -96q8 -23 23 -78l309 473q18 27 -6 43q-18 12 -90 23l6 43h360l-6 -43q-43 -8 -98 -27q-33 -10 -53 -39l-390 -608l-59 -428 q0 -4 6 -15q6 -8 23 -18q23 -14 43 -21q23 -8 69 -18l-6 -43h-446l6 43q80 16 123 39q33 16 37 33l59 436q-12 51 -47 158q-14 47 -64 165q-31 78 -71 158q-39 80 -70 123q-8 14 -22 25q-12 10 -27 12q-20 4 -41 4q-14 0 -59 -4zM415 1390l275 301h92l193 -301l-13.5 -17.5 t-9.5 -11.5q-6 -10 -23 -16l-215 205l-266 -205q-10 6 -16 16q-13 17 -17 29z" />
<glyph unicode="&#x177;" horiz-adv-x="925" d="M-180 -449q0 14 8 33t25 45q15 25 30 43q18 20 31 27l41 -25q25 -12 35 -14q20 -4 33 -4h32q84 0 160 78q84 86 162 223q-8 45 -25 129l-33 152l-36 153q-20 86 -37 146q-18 68 -37 122q-20 61 -33 86q-18 45 -39 66q-16 16 -33 16q-6 0 -26 -4q-25 -4 -33 -8 q-25 -8 -39 -12l-12 37q23 8 80 37q39 18 69 30q8 4 26.5 10.5t27.5 10.5q18 8 34 8q15 0 25 -6q12 -8 20 -23q10 -16 19 -39l22 -59q31 -94 41 -127l45 -160q4 -18 20.5 -79.5l25.5 -96.5q33 -139 40 -180l64 127l63 131q37 76 56 121l45 108q25 66 31 84q10 31 10 54 q0 49 -53 53h-7q-29 0 -84 -23l-18 37q61 37 127 60q55 18 88 18q23 0 33 -2q14 -2 24 -10q12 -9 19 -25q6 -14 6 -39q0 -37 -19 -88q-27 -76 -59 -143l-110 -221l-164 -326q-72 -139 -133 -238q-70 -111 -138 -184q-72 -78 -145.5 -119t-161.5 -41q-37 0 -55 4 q-31 6 -47.5 12.5t-30.5 16.5q-10 8 -10 18zM297 1071l285 371h92l183 -371q-4 -6 -9.5 -12t-7.5 -10.5t-4 -6.5q-6 -8 -24 -16l-207 264l-275 -264q-6 4 -14 16q-17 27 -19 29z" />
<glyph unicode="&#x178;" horiz-adv-x="1144" d="M102 1235q6 2 27 7t33 7q23 4 63 13q39 8 62 10q37 4 47 4q27 0 51 -39q23 -35 45 -78q33 -61 49 -96q33 -70 47 -105q39 -92 43 -106l33 -96q8 -23 23 -78l309 473q18 27 -6 43q-18 12 -90 23l6 43h360l-6 -43q-43 -8 -98 -27q-33 -10 -53 -39l-390 -608l-59 -428 q0 -4 6 -15q6 -8 23 -18q23 -14 43 -21q23 -8 69 -18l-6 -43h-446l6 43q80 16 123 39q33 16 37 33l59 436q-12 51 -47 158q-14 47 -64 165q-31 78 -71 158q-39 80 -70 123q-8 14 -22 25q-12 10 -27 12q-20 4 -41 4q-14 0 -59 -4zM430 1462q0 31 8 55q8 23 26 49q16 25 41 39 q23 14 51.5 14t47 -18t18.5 -53q0 -31 -8 -55q-8 -23 -27 -50q-16 -23 -38.5 -37t-51.5 -14q-33 0 -51 19q-16 16 -16 51zM802 1462q0 31 9 55q9 28 24 49q16 23 39 39q20 14 53 14q31 0 49.5 -18t18.5 -53q0 -31 -8 -55q-8 -23 -27 -50q-16 -23 -38.5 -37t-53.5 -14t-49 19 q-17 16 -17 51z" />
<glyph unicode="&#x179;" horiz-adv-x="1021" d="M31 45l790 1122h-422q-16 0 -34 -12q-25 -16 -41 -35q-27 -29 -43 -61q-18 -33 -39 -96l-52 12l72 311q23 -8 43 -14q16 -4 41 -8q29 -4 41 -4h47h572l18 -46l-782 -1114h485q23 0 39 9q14 6 35 34q14 20 39 68q27 55 47 106l49 -14q-6 -33 -12 -74q-2 -20 -6.5 -40.5 t-8.5 -41l-8 -41t-6 -38.5q-4 -20 -7 -37t-5 -31h-834zM487 1392l391 316l23 -17l27 -18q6 -4 28 -21q8 -6 19 -16v-47l-455 -244q-10 6 -18 18q-7 9 -15 29z" />
</font>
</defs>
</svg>
