<?xml version="1.0" standalone="no"?>
<!DOCTYPE svg PUBLIC "-//W3C//DTD SVG 1.1//EN" "http://www.w3.org/Graphics/SVG/1.1/DTD/svg11.dtd" >
<svg xmlns="http://www.w3.org/2000/svg">
<metadata>
This is a custom SVG webfont generated by Font Squirrel.
Copyright   : Copyright c SIL International 20032008
Designer    : J Victor Gaultney and Annie Olsen
Foundry     : SIL International
Foundry URL : httpscriptssilorg
</metadata>
<defs>
<font id="webfontQinRy6UR" horiz-adv-x="1048" >
<font-face units-per-em="2048" ascent="1638" descent="-410" />
<missing-glyph horiz-adv-x="528" />
<glyph unicode=" "  horiz-adv-x="528" />
<glyph unicode="&#x09;" horiz-adv-x="528" />
<glyph unicode="&#xa0;" horiz-adv-x="528" />
<glyph unicode="!" horiz-adv-x="657" d="M145 102q0 37 17 74q14 31 45 55q27 20 63.5 32.5t73.5 12.5q33 0 57 -8q33 -10 52 -26q25 -20 36 -43q14 -27 15 -66q0 -37 -17 -74q-15 -34 -43 -55q-27 -20 -61 -33q-37 -12 -78 -12q-33 0 -57 8q-37 12 -53 27q-25 23 -35 43q-15 32 -15 65zM164 1358l59 31 q20 10 40 18t36 16l74 35q47 20 57 23l53 -35l-90 -1026q-20 -14 -22 -14q-10 -4 -31 -9q-4 0 -16.5 -4t-16.5 -6q-10 -2 -26 -6l-29 20z" />
<glyph unicode="&#x22;" horiz-adv-x="989" d="M129 1386l29 13q29 12 47 18l55 21q29 10 55 18l47 17l27 8l53 -31l-84 -616l-24 -9q-25 -4 -39 -6q-29 -4 -41 -4q-6 0 -16.5 -1t-14.5 -1zM549 1386l26 13q29 12 48 18l55 21q29 10 55 18l47 17l27 8l53 -31l-84 -616l-24 -9q-25 -4 -39 -6q-29 -4 -41 -4 q-6 0 -16.5 -1t-14.5 -1z" />
<glyph unicode="#" horiz-adv-x="1060" d="M68 479q0 2 3 12.5t5 16.5t14 37q4 8 7 17t7 20q6 20 13 28h188l62 215h-168l-27 25q2 4 5 13t5 16q6 18 15 39l16 36q4 10 6 17.5t4 9.5h189l75 270q6 4 29 13q25 8 37 10l35 8q12 2 28 10l29 -22l-84 -289h168l78 270q6 4 29 13l34 10l37 8q14 2 31 10l27 -22l-84 -289 h155l27 -25l-10 -30q-2 -6 -15 -37l-16 -37q-2 -6 -6 -15.5t-4 -11.5h-174l-64 -215h158l20 -26q0 -2 -3 -12.5t-5 -16.5t-14 -37l-15 -37q-10 -25 -10 -26h-174l-82 -285q-12 -8 -24 -12l-37 -13l-37 -10l-33 -8l-26 20l88 308h-168l-82 -285q-6 -4 -27 -12q-10 -4 -35 -13 q-10 -2 -18 -5t-19 -5l-32 -8l-27 20l88 308h-172zM455 610h170l59 215h-168z" />
<glyph unicode="$" horiz-adv-x="1060" d="M72 186q0 8 1 30t1 34q0 47 2 69q2 12 5 33t3 31q4 33 8 47l82 -4q16 -35 53 -96q23 -37 64 -82q39 -43 76 -64q43 -25 96 -37v414q-25 8 -61.5 21.5l-75.5 27.5q-61 23 -123 64q-57 39 -90 92q-35 57 -35 135q0 43 18 92q18 47 64 97q39 41 119 77q74 34 184 43v125 q4 2 12 8.5t12 8.5q8 4 21 12q2 2 6 3t8 3l8 4q18 8 25 10l37 -32v-140q37 -2 110 -14q41 -6 101 -27q55 -18 84 -32q37 -18 53 -35q4 -8 2 -23q-4 -25 -8 -41q-2 -8 -16 -51q-12 -37 -21 -53q-4 -8 -11 -23.5t-9 -21.5q-8 -16 -21 -29l-78 8q-31 76 -76 131q-39 47 -110 72 v-334l139 -53q72 -29 125 -70q59 -45 90 -102q35 -63 35 -147q0 -59 -20.5 -119t-67.5 -113q-43 -49 -121 -88q-74 -37 -180 -49v-121q-18 -15 -43 -31q-23 -14 -49 -20l-37 33v133q-59 4 -90 10q-33 6 -99 27q-41 12 -100 39q-49 22 -92 49q-2 2 -6 22q-4 24 -4 47z M305 948q0 -29 12 -53q14 -29 31 -43q20 -18 51 -35q18 -10 64 -31v297q-70 -8 -115 -47q-43 -37 -43 -88zM592 145q41 8 59 17q29 12 49 33q25 25 35 51q12 31 13 67q0 39 -12.5 68t-33.5 51q-22 25 -49 43q-33 23 -61 35v-365z" />
<glyph unicode="%" horiz-adv-x="1515" d="M45 897q0 68 23 131q20 57 67 108.5t107 75.5q61 27 143 27q80 0 139 -27q57 -27 103 -73q41 -43 63 -109q20 -59 21 -133q0 -70 -25 -131q-25 -63 -68 -109q-41 -43 -108 -73q-63 -29 -137 -29t-137 29q-57 27 -102.5 74t-65.5 108q-23 63 -23 131zM201 0l932 1202 l30 10l43 8.5l43 8.5q12 2 20.5 4t12.5 2l25 -29l-928 -1204q-16 -8 -33 -10q-6 0 -20.5 -4t-20.5 -4q-10 -2 -22.5 -3t-22.5 -4q-4 0 -35 -8zM270 920q0 -145 29 -220q29 -72 86 -71q27 0 45 12q20 14 33 43q8 23 16 78q6 45 6 115q0 147 -30 219q-31 70 -82 69 q-27 0 -45.5 -12t-32.5 -43q-12 -27 -19 -76q-6 -46 -6 -114zM807 309q0 70 22 133q20 61 66 109q43 47 106 74q61 27 144 26q80 0 139 -26q57 -27 102 -74q41 -43 64 -109q20 -59 20 -133q0 -70 -24 -131q-25 -63 -68 -108q-41 -43 -108 -74q-59 -27 -137 -27t-138 27 q-57 27 -102 74q-41 43 -64 108q-22 63 -22 131zM1030 334q0 -147 29 -221q27 -70 86 -70q29 0 47 12.5t31 42.5q10 25 16 76q6 47 6 117q0 147 -31 217q-31 72 -81 72q-23 0 -46 -15q-20 -14 -32.5 -40.5t-18.5 -75.5q-6 -47 -6 -115z" />
<glyph unicode="&#x26;" horiz-adv-x="1435" d="M59 352q0 98 66 205q66 104 207 211q-41 92 -56 154q-20 86 -20 151q0 84 33 150q37 74 90 120q57 51 131 78q80 29 162 29t137 -20q59 -23 96 -56t56 -78q18 -43 18 -92q0 -53 -31 -108q-35 -61 -76 -109q-37 -41 -106 -100q-43 -35 -119 -84l-16 -12q37 -61 71 -109 q41 -57 82 -107q57 -68 90 -104l91 -94q14 29 24 63q8 27 8 62q0 39 -12 73q-12 33 -35 56q-20 20 -47 33q-28 12 -55 12l-33 37q2 2 7 8t9 10l10 10q9 10 15 15q4 2 13.5 11t15.5 13q23 14 24 15h494l33 -47l-12.5 -16.5l-14.5 -18.5l-33 -41q-6 -8 -17 -20.5t-16 -16.5 q-14 -18 -26 -27q-25 12 -78 33q-40 15 -74 18q20 -23 27 -55q6 -31 6 -61q0 -63 -31 -137q-35 -82 -84 -146q8 -8 66 -53q57 -47 114.5 -59.5t106.5 -0.5l19 -81q-47 -20 -95 -37q-59 -20 -96 -31q-66 -18 -82 -21l-45 -8q-25 0 -76 29q-37 20 -112 82q-80 -49 -172.5 -80 t-192.5 -31q-109 0 -194 25q-84 25 -144 74q-61 51 -90 118q-31 71 -31 166zM352 373q0 -74 21 -117q23 -47 55 -78q31 -27 78 -41q43 -12 82 -12q57 0 94 12q47 16 88 39l-90 92q-61 66 -92 103l-88 112q-47 63 -80 119q-37 -51 -53 -110q-15 -51 -15 -119zM514 1130 q0 -43 14 -104q12 -52 37 -111q35 23 68 58q31 35 45 65q20 45 24 68q6 33 7 65q0 37 -9 62q-10 31 -22 45q-14 18 -33 27q-16 8 -37 8q-27 0 -43 -15q-16 -12 -28 -38q-10 -18 -17 -58q-6 -35 -6 -72z" />
<glyph unicode="'" horiz-adv-x="571" d="M129 1386l29 13q29 12 47 18l55 21q29 10 55 18l47 17l27 8l53 -31l-84 -616l-24 -9q-25 -4 -39 -6q-29 -4 -41 -4q-6 0 -16.5 -1t-14.5 -1z" />
<glyph unicode="(" horiz-adv-x="688" d="M100 623q0 160 35 311q31 137 101 268q66 125 159.5 225.5t212.5 171.5l62 -83q-59 -63 -109 -146q-55 -94 -88 -188q-39 -113 -59 -240q-23 -139 -23 -291q0 -299 70 -516q72 -223 209 -364l-62 -86q-256 141 -383 381q-125 238 -125 557z" />
<glyph unicode=")" horiz-adv-x="688" d="M20 -231q59 63 109 145q55 94 88 188q43 127 62 238q20 125 20 293q0 299 -70 516q-72 223 -209 364l64 86q255 -141 381 -380q125 -238 125 -557q0 -160 -35 -312q-31 -137 -100 -268q-66 -125 -160 -225q-96 -102 -211 -172z" />
<glyph unicode="*" horiz-adv-x="903" d="M49 977l12 59l281 97l-256 84q0 2 4 38q0 8 3 26.5t5 29.5q4 37 8 55q2 10 5.5 22.5t3.5 16.5l57 18l221 -194l-53 264q20 10 37 16l51 21q8 4 53 20q12 4 35 11l47 -41l-57 -289l201 178l32 -23l43 -34q8 -6 19.5 -15.5l23.5 -19.5q14 -12 29 -27l-12 -59l-279 -94 l256 -86q0 -2 -4 -39q0 -8 -3 -26.5t-5 -29.5q-2 -25 -10 -55q-2 -8 -5.5 -20.5t-3.5 -16.5l-57 -18l-221 192l53 -264l-35 -14l-53 -23q-10 -4 -28.5 -10t-22.5 -8q-25 -9 -37 -12l-45 41l55 288l-200 -178q-4 2 -14.5 10.5t-16.5 12.5q-8 8 -20.5 16t-24.5 18 q-23 18 -43 37z" />
<glyph unicode="+" horiz-adv-x="868" d="M49 518q2 8 10 29q2 4 15 33q4 8 7 17t7 17l12 25h260v266q4 0 10.5 4t14.5 6q8 4 17.5 6.5l17.5 4.5t16 6t17 6q6 2 16 4t12 2l33 -33v-272h270l35 -33q-4 -16 -8 -28q-4 -8 -8 -17.5t-8 -17.5q-12 -29 -15 -33q-2 -6 -7 -14.5t-5 -10.5h-254v-264q-2 0 -25 -10l-32 -12 q-25 -8 -35 -13q-6 -2 -15.5 -4t-11.5 -2l-35 33v272h-274z" />
<glyph unicode="," horiz-adv-x="577" d="M88 160q4 6 27 18q16 10 49 23q4 2 28.5 12t36.5 14q23 8 68 21q51 14 63 16q20 4 50 4q29 -14 43 -26q18 -14 30 -41q16 -33 21 -56q6 -35 6 -75q0 -57 -25 -125q-20 -59 -69 -131q-45 -68 -101 -123q-59 -59 -118 -97l-76 56q57 66 90 139q35 76 35 162q0 18 -10 43 q-10 23 -29 41q-20 20 -45 28q-33 10 -58 9z" />
<glyph unicode="-" horiz-adv-x="739" d="M49 469q0 2 10 27q6 16 15 34q4 6 6 12.5t3 9.5t5 11q8 16 12 27h555l35 -35q-2 -4 -5 -12t-5 -15q-6 -16 -14 -34l-8.5 -17.5l-8.5 -17.5q-2 -4 -5 -12.5t-5 -12.5h-553z" />
<glyph unicode="." horiz-adv-x="577" d="M131 102q0 37 16 74q14 31 46 55q27 20 63.5 32.5t73.5 12.5q33 0 57 -8q33 -10 51 -26q25 -20 37 -43q14 -27 14 -66q0 -37 -16 -74q-15 -34 -43 -55q-27 -20 -63.5 -32.5t-75.5 -12.5q-35 0 -60 8q-33 10 -51 27q-25 23 -35 43q-14 32 -14 65z" />
<glyph unicode="/" horiz-adv-x="978" d="M31 -299l700 1839q12 9 37 19q8 2 24.5 8t24.5 8q16 6 49 14l37 10l47 -30l-698 -1843q-12 -8 -35 -17l-49 -16l-53 -17q-8 -2 -20.5 -7t-16.5 -5z" />
<glyph unicode="0" horiz-adv-x="1060" d="M55 602q0 133 33 244q33 113 96 201q61 86 153.5 137t203 51t196.5 -49t146 -137q61 -90 90 -201q33 -125 33 -246q0 -131 -37 -244q-39 -123 -99 -200q-68 -90 -153 -138q-92 -51 -197 -51q-102 0 -192 51q-80 45 -146 138q-59 82 -94 200q-33 111 -33 244zM350 645 q0 -272 47 -407q47 -133 144 -134q45 0 75 25q33 27 54 80q22 55 30 141q10 96 11 215q0 135 -13 238q-12 94 -39 166q-23 59 -61 98q-33 33 -78 33t-76 -25q-33 -27 -53 -78q-22 -55 -31 -141q-10 -96 -10 -211z" />
<glyph unicode="1" horiz-adv-x="1060" d="M119 1075q66 14 71 17q29 8 95 28q23 6 48 14.5l54 18.5l102 35q27 8 48.5 17t40.5 16q41 14 65 24l47 -45v-1018q0 -10 10 -20q12 -12 39 -25q16 -6 78 -22q57 -14 123 -23v-92h-790v92q90 10 131 21q49 12 81 24q37 14 46 23q12 12 12 22v717q0 49 -2 64q-2 18 -17 34 q-8 8 -20 11q-20 4 -45 4q-12 0 -73.5 -8.5t-112.5 -20.5z" />
<glyph unicode="2" horiz-adv-x="1060" d="M78 74l205 243q121 145 153 189l107 145q47 66 69 113q29 55 35 86q10 45 10 74q0 45 -8 75q-12 45 -24 62q-18 27 -43 39q-27 14 -66 14q-43 0 -67 -16q-29 -18 -43 -45q-18 -33 -21 -66q-4 -43 4 -74q-16 -8 -47 -20q-20 -8 -70 -21q-6 -2 -32.5 -9t-38.5 -9 q-14 -2 -37 -5l-23 -3l-37 80q0 33 19 69q23 45 47.5 72t75.5 63q49 35 98 56q55 23 115 35q72 14 127 14q78 0 147.5 -16.5t112.5 -44.5q47 -31 72 -78q25 -46 24 -105q0 -45 -12 -88q-14 -51 -39 -94q-27 -47 -72 -109q-43 -57 -108 -133l-148 -166l-192 -211h393 q16 0 31 11q20 14 24 22q12 20 17 33q2 4 7 17.5t7 21.5q8 33 16 104l90 -22l-16 -377h-834z" />
<glyph unicode="3" horiz-adv-x="1060" d="M78 139l45 107q96 -70 168 -96q80 -29 151 -29q41 0 82 12q35 10 68 43q29 29 47 74q16 41 16 108q0 70 -20 113q-18 41 -53 72q-29 27 -68 39q-37 12 -63 12h-25q-4 0 -10 -1t-8 -1t-10.5 -1t-10.5 -1q-4 0 -25 -4l-20 100q86 23 135 53.5t78 65.5q25 29 35 69 q8 31 8 66t-6 66q-8 37 -21 57q-14 23 -36.5 37t-59.5 14q-20 0 -40.5 -12t-33.5 -33q-16 -29 -18 -51q-4 -39 6 -66q-25 -14 -51 -24l-64 -25q-33 -12 -69 -18l-64 -11l-37 70q0 45 31 94q33 53 86 95q55 43 135 73q74 29 176 29q98 0 166 -25q66 -25 109 -63 q43 -41 61 -88q20 -55 21 -101q0 -35 -17 -77q-14 -37 -43 -76q-27 -35 -67 -64q-40 -28 -86 -43q61 -6 112 -34q53 -29 84 -70q35 -45 54 -98q18 -55 18 -115q0 -84 -35 -160t-96 -131q-59 -53 -147 -88q-84 -33 -191 -33q-33 0 -88 10.5t-104 30.5q-53 23 -107 53 q-47 27 -98 76z" />
<glyph unicode="4" horiz-adv-x="1060" d="M55 373l475 790l58 19q14 4 31.5 10l35.5 12l66 21q10 2 57 20l47 -45v-721h133l25 -28q-4 -4 -11 -16.5t-14 -18.5q-20 -25 -28 -33q-4 -4 -13.5 -15.5t-15.5 -15.5q-4 -4 -13 -11l-14 -11h-49v-187q0 -8 6 -14q8 -8 23 -14l43 -15q8 -2 68 -16v-84h-611v84 q102 18 107 20q55 12 63 17q29 12 33 16q8 8 8 19v174h-467zM262 479h303v482z" />
<glyph unicode="5" horiz-adv-x="1060" d="M78 133l55 98q45 -33 100 -61q46 -25 86 -37q37 -12 76 -18q23 -4 64 -4q45 0 84 18q37 16 69 53q27 31 47 80q16 41 17 105q0 68 -19 120q-16 49 -49 84q-29 33 -73 52q-39 16 -93 16q-45 0 -81.5 -6t-67.5 -19q-20 -8 -57 -28q-31 -16 -52 -35l-47 33l15 86 q8 51 16 108q12 86 16 117q12 86 17 119l12 106q2 18 4 48t2 36h555q23 0 51.5 4t38.5 6q20 4 33 9l39 -39q-10 -16 -31 -43q-2 -4 -41 -54l-41 -51q-14 -16 -32 -30h-447q-2 -18 -6 -64q-4 -49 -8 -70q-8 -45 -13 -65l-10 -53q49 23 103 34q55 12 122 13q102 0 183 -35 q78 -35 129 -88t76 -125q27 -76 26 -143q0 -88 -26 -166q-29 -84 -84 -142q-57 -59 -145.5 -96t-211.5 -37q-41 0 -98 11q-43 8 -105 32q-57 25 -104 51q-53 31 -94 70z" />
<glyph unicode="6" horiz-adv-x="1060" d="M90 473q0 141 49 270q47 125 150 234q96 102 243 174q152 74 336 98l29 -98q-119 -25 -211 -72q-88 -47 -147 -104q-59 -59 -95 -133q-37 -78 -51 -152q61 49 123 74q66 27 115 27q86 0 155 -29q68 -29 117 -80t72 -119q27 -76 26 -151q0 -46 -12 -99q-12 -51 -36.5 -100 t-61.5 -92q-41 -49 -84 -78q-45 -31 -109 -53q-59 -20 -133 -21q-98 0 -184 37t-152 103q-63 63 -102 159q-37 92 -37 205zM381 537q0 -123 14 -201q14 -74 45 -133q29 -55 66 -76q39 -23 80 -23q39 0 65 21q28 22 43 55q14 31 21 78q6 43 6 90q0 84 -14 152q-12 55 -35 88 q-23 31 -51 41q-31 10 -62 10q-41 0 -86 -27q-49 -28 -92 -75z" />
<glyph unicode="7" horiz-adv-x="1060" d="M94 868q4 18 6 41l9 60q2 16 5 33.5t5 35.5q2 12 4 35t4 33q2 8 5 27.5t5 30t6 23.5t4 17h805l33 -37l-90 -217l-86 -215l-29.5 -74.5l-24 -60.5t-26.5 -72l-67 -186q-12 -39 -28 -80t-30 -82q-10 -31 -22.5 -64.5t-20.5 -62.5q-20 -14 -47 -24l-34.5 -11.5t-30.5 -11.5 q-16 -6 -70 -20q-6 -2 -27.5 -8.5t-32.5 -8.5l-51 43l109 193l90 172l82 158q10 20 72 153l71 154l72 164h-445q-8 0 -32 -5q-12 -2 -35 -20q-20 -16 -41 -49q-16 -27 -41 -92z" />
<glyph unicode="8" horiz-adv-x="1060" d="M74 285q0 53 20 100q23 51 58 92q43 49 88 82q70 49 110 70q-53 25 -86 45q-45 27 -71 57q-31 33 -50 78q-18 43 -18 106q0 70 33 127q35 61 88 103q49 39 133 65q76 25 164 25q104 0 174 -21q74 -22 123 -55t73 -84q25 -49 25 -106q0 -40 -18 -74q-25 -45 -46 -68 q-31 -33 -69.5 -63.5t-87.5 -58.5q61 -29 100 -54q57 -37 88 -71q41 -47 60 -97q23 -57 22 -131q0 -80 -37 -147q-39 -72 -100 -121q-66 -53 -152 -84t-186 -31t-190 27q-78 23 -138 70q-51 41 -82 100q-28 58 -28 119zM365 315q0 -49 16 -92q14 -39 41 -67q20 -25 55 -41 q29 -14 64 -15q33 0 65 17q23 12 49 45q16 20 31 65q10 31 10 82q0 61 -16 97q-20 45 -47 71q-31 31 -72 53l-84 43q-57 -61 -84 -118q-28 -64 -28 -140zM385 950q0 -35 16 -63q16 -31 41 -49q33 -27 64 -41q14 -6 40.5 -18.5t37.5 -16.5q74 90 73 176q0 47 -14 86 q-12 37 -33 53q-25 20 -47 27q-25 6 -51 6q-33 0 -53 -12q-29 -16 -41 -33q-14 -20 -25 -51q-8 -25 -8 -64z" />
<glyph unicode="9" horiz-adv-x="1060" d="M80 795q0 74 35 153q35 78 94 142q61 65 147 104q88 41 191 41q94 0 180 -29q82 -27 141.5 -90t89.5 -158q31 -95 31 -227q0 -154 -49 -285q-49 -132 -147 -233q-98 -100 -244 -168t-338 -88l-29 98q131 31 236 82q92 45 151 105q61 61 88 126.5t37 147.5 q-51 -45 -114 -74q-59 -27 -131 -26q-92 0 -160 30.5t-115 83.5q-43 49 -70 121q-24 68 -24 144zM360 856q0 -86 17 -135q18 -55 43 -86q31 -37 51 -47q28 -12 49 -13q55 0 98 25q41 25 82 68q-2 137 -18 223q-14 82 -41 131q-27 51 -53 63q-29 14 -64 15q-78 0 -121 -61.5 t-43 -182.5z" />
<glyph unicode=":" horiz-adv-x="577" d="M131 102q0 37 16 74q14 31 46 55q27 20 63.5 32.5t73.5 12.5q33 0 57 -8q33 -10 51 -26q25 -20 37 -43q14 -27 14 -66q0 -37 -16 -74q-15 -34 -43 -55q-27 -20 -63.5 -32.5t-75.5 -12.5q-35 0 -60 8q-33 10 -51 27q-25 23 -35 43q-14 32 -14 65zM131 786q0 37 16 74 q14 31 46 55q27 20 63.5 32.5t73.5 12.5q33 0 57 -8q33 -10 51 -26q25 -20 37 -43q14 -27 14 -66q0 -37 -16 -74q-15 -34 -43 -55q-27 -20 -63.5 -32.5t-75.5 -12.5q-35 0 -60 8q-33 10 -51 27q-25 23 -35 43q-14 32 -14 65z" />
<glyph unicode=";" horiz-adv-x="577" d="M88 160q4 6 27 18q16 10 49 23q4 2 28.5 12t36.5 14q23 8 68 21q51 14 63 16q20 4 50 4q29 -14 43 -26q18 -14 30 -41q16 -33 21 -56q6 -35 6 -75q0 -57 -25 -125q-20 -59 -69 -131q-45 -68 -101 -123q-59 -59 -118 -97l-76 56q57 66 90 139q35 76 35 162q0 18 -10 43 q-10 23 -29 41q-20 20 -45 28q-33 10 -58 9zM131 786q0 37 16 74q14 31 46 55q27 20 63.5 32.5t73.5 12.5q33 0 57 -8q33 -10 51 -26q25 -20 37 -43q14 -27 14 -66q0 -37 -16 -74q-15 -34 -43 -55q-27 -20 -63.5 -32.5t-75.5 -12.5q-35 0 -60 8q-33 10 -51 27q-25 23 -35 43 q-14 32 -14 65z" />
<glyph unicode="&#x3c;" horiz-adv-x="937" d="M49 524l2 4v4v3l2 6l2 8l4 14l4 10l5 17l4 10q0 2 3 8t3 8v2l2 9q2 0 2 2l4 12l4 12l764 275l37 -35q0 -4 -3 -12.5t-5 -18.5l-13 -41q-2 -10 -4 -19t-6 -20q-2 -6 -5 -16t-3 -12l-518 -187l528 -184l29 -47q-8 -6 -25 -23l-28 -28q-10 -10 -31 -26.5t-31 -22.5l-690 243 z" />
<glyph unicode="=" horiz-adv-x="937" d="M49 369q2 8 10 28q2 4 15 33q4 8 7 17.5t7 17.5l12 24h754l37 -32q-2 -4 -5 -13.5l-5 -15.5l-8.5 -17.5l-8.5 -17.5q-8 -18 -14 -35q-2 -6 -6 -12t-4 -10h-754zM49 670q0 2 10 26q6 16 15 35q4 6 6 12.5t3 9.5t5 11q8 16 12 27h754l37 -35q-2 -4 -5 -13.5l-5 -15.5 l-8.5 -17.5l-8.5 -17.5q-12 -29 -14 -33t-5 -12t-5 -12h-754z" />
<glyph unicode="&#x3e;" horiz-adv-x="937" d="M49 270q0 2 3 13.5t5 17.5l13 41l4 19.5t6 19.5q2 6 5 16.5t3 12.5l518 184l-528 186l-29 47q8 6 25 23l28 29q10 10 31 26.5t31 22.5l690 -246l37 -43q-4 -18 -21 -68l-20 -61l-764 -274z" />
<glyph unicode="?" horiz-adv-x="946" d="M59 1116v27q0 72 39 131q41 63 105 108q68 49 149 72q94 27 180 27q76 0 150 -25q70 -23 113 -63q41 -39 67 -101q25 -59 25 -127q0 -72 -26.5 -137t-65.5 -117q-27 -35 -88 -100l-86 -96q-45 -51 -70 -97q-31 -53 -33 -104l-6 -94q-20 -16 -47 -25l-27.5 -7t-29.5 -9 l-35 31l-8 104q-2 57 12 113q12 43 41 104q23 47 55 100l57 99q25 45 45 94q16 41 17 96q0 121 -35 178q-34 55 -92 56q-23 0 -41 -11q-20 -12 -37 -34q-14 -20 -25 -54q-8 -27 -8 -69q0 -6 4 -35q2 -18 9 -33q-6 -4 -51.5 -18.5t-77.5 -22.5q-12 -4 -39 -8t-39 -8 q-16 -4 -62 -10l-37 39q-2 6 -2 26zM272 102q0 37 17 74q14 31 45 55q27 20 63.5 32.5t73.5 12.5q33 0 57 -8q33 -10 52 -26q25 -20 36 -43q14 -27 15 -66q0 -37 -17 -74q-15 -34 -43 -55q-27 -20 -61 -33q-37 -12 -78 -12q-33 0 -57 8q-37 12 -53 27q-25 23 -35 43 q-15 32 -15 65z" />
<glyph unicode="@" horiz-adv-x="1841" d="M90 465q0 123 31 240q29 109 90 215t139 184q84 84 182 143q92 55 218 92q113 33 243 33q174 0 307 -47q145 -51 242 -145q100 -98 155.5 -248t55.5 -352q0 -88 -20 -162q-25 -90 -56 -146q-41 -74 -84 -122q-53 -59 -106 -97q-59 -41 -121 -61q-68 -23 -129 -23 q-23 0 -59 8q-28 6 -50 25q-25 23 -41 45q-16 25 -26 76q-27 -31 -72 -76q-27 -27 -57 -47q-25 -16 -58 -23q-41 -8 -69 -8q-53 0 -105 27q-49 27 -94 84q-41 51 -69 143q-27 82 -27 211q0 65 12 129q10 55 39 123q23 55 64 109q37 49 86 86q45 35 108 57q61 23 129 23 q16 0 45 -5q18 -2 41 -12q14 -6 41 -29q18 -16 43 -47q12 4 32.5 11.5t27.5 9.5l27.5 11t23.5 9q23 8 47 23q14 8 47 29l31 -31l-15 -76q-8 -43 -10 -78q0 -2 -3 -34.5t-3 -49.5v-407q0 -8 1 -23.5t1 -21.5q0 -16 8 -33t17 -21q16 -8 32 -8q25 0 52 21q28 22 49 61.5 t37 104.5q14 59 14 147q0 172 -43 299q-45 131 -117 209q-78 84 -182 123q-111 41 -238 41q-152 0 -268.5 -53.5t-191.5 -141.5q-72 -84 -115 -211q-39 -117 -39 -254q0 -195 51 -336q49 -137 141 -235q89 -95 209 -141q123 -47 263 -48q98 0 184 18.5t153 43.5 q70 25 121 55q31 18 80 58l53 -99q-41 -47 -92 -88q-59 -47 -137 -86q-86 -43 -182 -65q-113 -27 -230 -27q-190 0 -350 61.5t-272 174.5q-115 115 -178.5 278.5t-63.5 376.5zM780 465q0 -84 13 -139q12 -53 30 -88q18 -33 43 -45.5t49 -12.5q14 0 35 4q14 2 31 17 q10 8 32.5 34.5t41.5 55.5v440q-23 39 -47 66q-23 23 -70 22q-78 0 -119 -84q-39 -80 -39 -270z" />
<glyph unicode="A" horiz-adv-x="1308" d="M0 0v84q70 12 102 25q37 12 45 43l342 1044q45 35 60 43q23 12 67 33q23 10 68 26q12 4 35.5 10.5t28.5 8.5l419 -1165l13 -25q4 -8 20 -21q10 -6 35 -14q16 -4 53 -8v-84h-522v84q77 3 104 18q29 16 17 50l-99 274h-393l-90 -274q-8 -31 23 -46q29 -12 116 -22v-84h-444 zM438 555h305l-161 449z" />
<glyph unicode="B" horiz-adv-x="1265" d="M27 1231q37 10 110 20l135 19q43 6 144 14q72 6 133 6q119 0 213 -18q92 -18 160 -53q61 -33 98 -86q35 -51 35 -113q0 -106 -59.5 -184t-180.5 -113q82 -12 143 -45q66 -35 111 -82q49 -53 72 -109q25 -61 24 -131q0 -90 -35 -153q-35 -66 -106 -117q-68 -49 -168 -74 q-111 -27 -227 -26h-56q-10 0 -34.5 1t-38.5 1q-12 0 -40 1t-42 1q-29 0 -86 4q-98 3 -209 6h-82v84q74 16 100 29q33 14 33 30v1012q-14 -2 -37.5 -5t-34.5 -3q-41 -4 -61 -8zM455 133q0 -4 4 -12q31 -14 57 -17q41 -4 72 -4q143 0 213 64q72 66 71 178q0 45 -14 107 q-12 53 -45 94q-33 43 -90 67q-55 25 -143 25q-35 0 -72 -4t-53 -8v-490zM455 745h14q95 0 154 19q55 16 92 51q29 27 43 72q12 39 12 84q0 53 -14 88q-18 41 -47 63q-43 31 -88 41q-55 12 -138 13h-14h-14v-431z" />
<glyph unicode="C" horiz-adv-x="1157" d="M49 586q0 156 51 291q49 129 136 221q88 94 204.5 143t255.5 49q59 0 109 -8q43 -8 104 -22q49 -12 92 -31q45 -18 68 -39q2 -2 0 -21q0 -4 -14 -41q-4 -10 -13.5 -28.5t-11.5 -24.5l-26 -53q-16 -33 -25 -47q-10 -18 -21 -29l-73 17q-49 102 -114.5 145t-137.5 43 q-52 0 -105 -25q-55 -27 -96 -84q-41 -59 -70 -161q-27 -98 -26 -258q0 -126 31 -215q31 -88 84 -148q51 -57 114 -84q61 -27 127 -26q29 0 66 6q43 6 80 20q53 18 92 41q49 29 100 70q4 -2 14 -17l17 -22l16 -23q8 -12 10 -14q-129 -129 -253 -184q-131 -57 -242 -58 q-104 0 -203 43q-96 43 -172 121q-74 78 -121 193q-47 117 -47 260z" />
<glyph unicode="D" horiz-adv-x="1333" d="M27 1231q25 6 120 22q8 2 150 19q102 12 156 14q106 4 145 4q164 0 281 -41q125 -43 204 -121q86 -82 127 -192q43 -113 43 -260q0 -117 -26 -223q-23 -90 -70 -174q-39 -72 -104 -129q-57 -51 -127 -87q-61 -31 -142 -47q-78 -16 -145 -16h-598v84q74 16 100 29 q33 14 33 30v1004l-133 -19zM455 190q0 -20 2 -30q2 -14 16 -24.5t41 -16.5q18 -4 84 -4q51 0 115 28q66 31 116 93q51 63 89 161q35 92 34 240q0 266 -108 403q-106 135 -322 136h-33q-6 0 -17 -1t-17 -1v-984z" />
<glyph unicode="E" horiz-adv-x="1095" d="M41 0v84q74 16 100 29q33 14 33 30v971q0 12 -31 31q-27 16 -102 33v82h905l43 -35q-3 -25 -6 -68q-2 -29 -10 -86l-12 -84q-6 -39 -13 -57h-86q-6 104 -24 147q-23 53 -58 53h-325v-395h395l37 -39q-8 -14 -20.5 -32.5t-24.5 -38.5q-16 -25 -25 -35q-14 -18 -22 -25 q-20 20 -33 27q-23 10 -41 16q-27 8 -53 10q-20 2 -72 3h-141v-426q0 -10 8 -27q6 -10 29 -21q22 -9 61 -12q80 -6 106 -6h89q41 0 79 14q33 12 58 39q23 27 45 70q14 31 41 100l84 -28q-2 -18 -5 -41t-6 -52q-2 -16 -5 -48.5t-5 -49.5l-12 -82q-2 -10 -4 -27.5t-4 -23.5 h-973z" />
<glyph unicode="F" horiz-adv-x="1058" d="M41 0v84q74 16 100 29q33 14 33 30v971q0 12 -31 31q-27 16 -102 33v82h915l41 -35q0 -8 -3 -32t-3 -36q-4 -57 -8 -86l-12 -84q-6 -39 -13 -57h-88q-4 100 -22 147q-23 53 -60 53h-333v-395h364l39 -39q-12 -25 -20 -37q-4 -6 -13.5 -18t-13.5 -18q-8 -12 -25 -33 q-8 -10 -22 -25q-20 20 -33 27q-25 12 -39 16q-27 8 -53 10q-20 2 -72 3h-112v-478q0 -4 8 -12t26 -14l50 -17q8 -2 82 -16v-84h-580z" />
<glyph unicode="G" horiz-adv-x="1243" d="M49 582q0 158 55 297q51 131 148 223q92 90 223 139q129 49 283 49q18 0 80 -8q53 -6 98 -18q39 -10 96 -33q53 -20 80 -43q4 -2 0 -21l-14 -41q-8 -20 -25 -51q-27 -47 -29 -51q-4 -8 -13 -23.5t-13 -21.5q-12 -18 -23 -29l-71 17q-34 55 -68 92q-37 39 -68 59 q-39 25 -71.5 33t-77.5 8q-31 0 -57 -8q-33 -10 -68 -35q-41 -31 -65 -61q-37 -49 -58 -97q-27 -61 -41 -139q-14 -74 -14 -182q0 -127 29 -225q27 -92 77 -156q49 -61 113 -88q68 -29 131 -29q53 0 86 8q45 12 68 23v295q0 16 -2 22q-4 10 -17 21q-12 9 -43 18 q-49 14 -84 21v84h510v-84q-27 -6 -47 -16.5t-29 -18.5q-12 -12 -14 -23q-4 -16 -4 -24v-291q-66 -55 -139 -100q-70 -43 -125 -64q-58 -22 -111 -30q-57 -10 -96 -11q-70 0 -147 17q-66 14 -137.5 51t-121.5 84q-59 55 -96 119q-43 74 -63 153q-25 99 -25 189z" />
<glyph unicode="H" horiz-adv-x="1417" d="M41 0v84q74 16 100 29q33 14 33 30v971q0 12 -31 31q-27 16 -102 33v82h549v-82q-76 -16 -101 -31q-35 -18 -34 -33v-389h489v389q0 12 -31 31q-27 16 -102 33v82h549v-82q-76 -16 -100 -31q-35 -18 -35 -33v-971q0 -8 32 -28q23 -12 103 -31v-84h-549v84q74 16 100 29 q33 14 33 30v453h-489v-453q0 -10 30 -28q23 -14 105 -31v-84h-549z" />
<glyph unicode="I" horiz-adv-x="688" d="M59 0v84q78 18 103 29q33 14 33 30v971q0 12 -31 31q-27 16 -105 33v82h551v-82q-80 -18 -102 -31q-33 -18 -33 -33v-971q0 -10 31 -28q20 -12 104 -31v-84h-551z" />
<glyph unicode="J" horiz-adv-x="704" d="M-291 -330q0 6 12 23q25 31 29 35l39 39q2 2 43 38q20 18 37 29q23 14 27 16q57 -55 108 -75q55 -23 90 -23q18 0 51 12q25 10 43 46q18 37 31 106q10 59 10 186v1012q0 8 -6 14q-2 2 -26 15q-10 4 -56 16q-39 10 -96 19v82h600v-82q-80 -18 -102 -31q-33 -18 -33 -33 v-940q0 -104 -25 -184q-27 -84 -59 -137q-35 -53 -82 -99q-45 -41 -84 -71q-37 -29 -59.5 -43.5t-71.5 -34.5q-39 -16 -76 -25q-45 -10 -78 -10q-57 0 -96 10q-61 16 -86 27q-41 16 -59 33q-25 20 -25 30z" />
<glyph unicode="K" horiz-adv-x="1292" d="M41 0v84q74 16 100 29q33 14 33 30v971q0 12 -31 31q-27 16 -102 33v82h549v-82q-76 -16 -101 -31q-35 -18 -34 -33v-450l358 423q6 8 18.5 22.5t16.5 20.5q9 15 6 25q-4 12 -25 14q-55 8 -59 9v82h461v-82q-12 -2 -34 -6l-21 -3q-18 -2 -37 -10q-8 -4 -29 -18 q-16 -12 -31 -27l-426 -436l482 -502q8 -10 32 -24q16 -10 33 -13q25 -4 39 -4t47 4l8 -82q-14 -4 -31.5 -10l-35.5 -12l-40 -11.5t-36 -11.5q-40 -12 -74 -18q-45 -8 -59 -8q-27 0 -51 10q-23 10 -43 33l-469 592v-478q0 -10 30 -28q23 -14 105 -31v-84h-549z" />
<glyph unicode="L" horiz-adv-x="1064" d="M41 0v84q74 16 100 29q33 14 33 30v971q0 12 -31 31q-27 16 -102 33v82h549v-82q-76 -16 -101 -31q-35 -18 -34 -33v-909q0 -23 8 -33q10 -14 31 -22q18 -8 57 -15q37 -6 90 -6h102q43 0 78 14q33 12 56 39q25 29 43 70q29 66 41 100l83 -28q-2 -25 -10 -93l-4 -49 t-6 -49l-12 -82q-2 -10 -4 -27.5t-4 -23.5h-963z" />
<glyph unicode="M" horiz-adv-x="1759" d="M49 0v84q78 18 103 29q33 14 32 30l11 1002q-35 18 -70 24q-49 8 -66 9v82h367q12 0 18.5 -2.5t16.5 -12.5q6 -6 18 -26q6 -8 21 -43l358 -814l373 814q12 29 22 47q12 20 17 24q8 6 16 10q6 2 19 3h356v-82q-23 0 -57 -7q-14 -2 -68 -20l8 -1008q0 -10 37 -28 q25 -12 109 -31v-84h-545v84q78 18 106 29q39 14 39 30l-8 775l-420 -918h-108l-406 915l-8 -772q0 -10 31 -28q20 -12 104 -31v-84h-426z" />
<glyph unicode="N" horiz-adv-x="1368" d="M41 0v84q74 8 102 27q31 18 31 32v959q-20 20 -65 49q-31 20 -68 27v82h301q18 0 25 -3q12 -4 18 -10q14 -14 23 -24l8 -11.5t9 -11.5t13 -18l596 -830v762q0 8 -6 16q-4 6 -20 17q-4 2 -41 16q-18 6 -68 15v82h430v-82q-70 -8 -102.5 -29t-32.5 -35v-1145q-51 2 -98 17 q-57 16 -80 26q-37 16 -60 37q-31 27 -41 41l-579 805v-752q0 -4 6 -14q4 -4 23 -16q4 -2 41 -17q12 -4 63 -12v-84h-428z" />
<glyph unicode="O" horiz-adv-x="1288" d="M49 612q0 129 45 258q43 123 125 217q80 92 194.5 147.5t250.5 55.5q133 0 237.5 -55t173.5 -143q68 -86 107 -207q37 -117 37 -238q0 -86 -23 -176q-18 -72 -63 -160q-39 -76 -97 -139q-49 -55 -125 -106q-63 -43 -145 -70q-84 -27 -162 -27q-123 0 -229 54 q-104 51 -176 143q-72 90 -111 204.5t-39 241.5zM336 641q0 -111 24 -209q25 -96 68 -168q45 -74 102 -112q59 -41 123 -41q59 0 113 30q49 29 88 97q35 61 57 161q23 102 23 230q0 104 -24.5 198.5t-67.5 167.5q-45 76 -103 117q-61 43 -135 43q-66 0 -117 -35 q-49 -33 -84 -100q-31 -59 -51 -162q-16 -84 -16 -217z" />
<glyph unicode="P" horiz-adv-x="1189" d="M27 1231q16 4 125 22l143 21q74 8 151 12q102 4 144 4q115 0 217 -22q92 -20 168 -70q68 -43 108 -111q39 -63 39 -151q0 -100 -41 -182t-104 -133q-66 -53 -139.5 -80t-145.5 -27q-29 0 -90 8q-43 6 -80 23l-33 114q39 -18 70 -24q18 -4 63.5 -4t82.5 14q33 12 67 47 q27 27 47 82q18 49 19 121q0 63 -23 119q-23 53 -61 90q-37 35 -95 53q-55 18 -127 19h-36q-8 0 -20.5 -1t-20.5 -1v-1031q0 -6 6 -12q4 -4 24 -14q12 -6 50 -17q12 -4 86 -16v-84h-580v84q74 16 100 29q33 14 33 30v1006q-84 -10 -133 -21z" />
<glyph unicode="Q" horiz-adv-x="1288" d="M49 612q0 129 45 258q43 123 125 217q80 92 194.5 147.5t250.5 55.5q133 0 237.5 -55t173.5 -143q68 -86 107 -207q37 -117 37 -238q0 -106 -27 -194q-29 -92 -78 -174q-51 -82 -115 -144q-68 -65 -147 -104q41 -12 115 -45l106 -49l101 -41q53 -16 94 -17q8 0 24.5 4 t26.5 8q4 2 8 4.5l7 4.5t9.5 6t10.5 6q8 4 26.5 18.5t24.5 18.5l57 -76q-27 -45 -53 -82q-31 -41 -55 -65q-31 -31 -54 -45q-27 -16 -38 -17q-43 0 -97 17q-33 10 -98 43q-51 27 -100 59q-84 55 -101 67l-98 68q-27 18 -100 55q-10 -2 -31 -2q-6 0 -16.5 -1t-16.5 -1 q-123 0 -229 54q-104 51 -176 143q-72 90 -111 204.5t-39 241.5zM336 641q0 -111 24 -209q25 -96 68 -168q45 -74 102 -112q59 -41 123 -41q59 0 113 30q49 29 88 97q35 61 57 161q23 102 23 230q0 104 -24.5 198.5t-67.5 167.5q-45 76 -103 117q-61 43 -135 43 q-66 0 -117 -35q-49 -33 -84 -100q-31 -59 -51 -162q-16 -84 -16 -217z" />
<glyph unicode="R" horiz-adv-x="1267" d="M27 1231q119 25 241 41q133 18 281 18q139 0 242 -22q88 -18 159 -66q61 -41 90 -96q27 -53 27 -119q0 -70 -20 -125q-23 -61 -58 -104q-37 -45 -88 -82q-51 -35 -113 -58l320 -419q10 -14 29 -33q14 -14 30 -21q20 -8 39 -8q35 0 58 2l16 -82l-78 -24q-51 -14 -88 -23 q-57 -12 -82 -16q-49 -8 -57 -8q-29 0 -57 16q-23 12 -41 39l-281 541q-2 0 -8 -1t-10 -1h-17q-35 0 -51 2q-20 2 -55 10v-449q0 -10 30 -28q23 -14 105 -31v-84h-549v84q74 16 100 29q33 14 33 30v1004l-133 -19zM455 711q29 -6 47 -6h43q68 0 108 16q47 18 74 51 q31 37 41 78q14 53 14 106q0 43 -12 82q-12 41 -43 72q-27 29 -86 47q-55 18 -139 19h-23h-24v-465z" />
<glyph unicode="S" horiz-adv-x="1073" d="M98 199q0 47 2 71q4 49 9 72q6 34 12 61l82 -4q22 -58 55 -110q35 -55 72 -88q41 -37 88 -60q43 -20 98 -20q53 0 86 10q45 14 72 33q29 20 49 57q16 31 16 82q0 66 -26 107q-31 47 -72 79q-45 35 -100 62q-31 16 -61.5 29.5l-55.5 25.5q-39 18 -117 60q-57 31 -102 71 q-43 39 -72 94q-27 51 -27 125q0 31 13 68q12 35 38.5 76t63.5 71q33 29 92 60q51 27 121 43q72 16 152 16q37 0 110 -8q53 -6 101 -18q53 -14 82 -29q41 -20 55 -37q6 -2 2 -20q0 -4 -2 -8.5t-3 -7.5t-2 -9t-3 -10q-4 -14 -17 -47q-8 -23 -22 -47q-20 -37 -23 -39 q-14 -23 -18 -25l-78 6q-25 57 -47 86q-27 33 -59 56q-27 18 -64 28q-31 8 -61 8q-49 0 -82 -12q-39 -14 -56 -31q-27 -25 -32 -47q-10 -31 -11 -55q0 -45 29 -84t72 -68q68 -45 102 -61l117 -57q27 -12 117 -66q49 -29 102 -78q41 -39 72 -102q29 -61 28 -131 q0 -49 -14 -92q-18 -53 -41 -92q-29 -49 -70 -87q-41 -39 -100 -69q-57 -29 -131 -49q-71 -18 -160 -19q-20 0 -86 8q-43 6 -98 19q-49 12 -100 31q-47 18 -84 41q-6 2 -9 20q-4 25 -4 47v64z" />
<glyph unicode="T" horiz-adv-x="1206" d="M0 938q0 6 2 31.5t4 42.5l12 90l13 90q6 43 12 68h1090l41 -35q0 -8 -3.5 -32t-3.5 -34q-2 -18 -10 -80l-12 -86q-6 -43 -12 -73h-84q-14 68 -17 86q-6 41 -14 65q-10 31 -21 43q-12 16 -32 16h-234v-974q0 -4 6 -15q6 -9 25 -18q33 -16 47 -21q33 -10 76 -18v-84h-588 v84q43 8 76 18q25 8 47 19q18 9 24 18q6 8 7 17v974h-238q-15 0 -31 -12q-12 -10 -28 -39q-4 -6 -31 -69q-14 -33 -39 -101z" />
<glyph unicode="U" horiz-adv-x="1378" d="M41 1178v82h549v-82q-76 -16 -101 -31q-35 -18 -34 -33v-600q0 -100 14 -170q14 -66 51 -121q34 -49 92 -73q59 -25 144 -25q72 0 118 31q45 31 74 84q29 55 41 120q10 57 10 144v610q0 12 -30 31q-27 16 -105 33v82h461v-82q-80 -18 -102 -31q-33 -18 -33 -33v-590 q0 -131 -39 -233q-41 -104 -107 -174q-70 -74 -157 -109q-96 -39 -201 -39q-100 0 -197 29q-86 27 -161 88q-74 61 -113 147q-41 92 -41 211v670q0 12 -31 31q-26 17 -102 33z" />
<glyph unicode="V" horiz-adv-x="1370" d="M10 1178v82h535v-82q-47 -4 -66 -9q-29 -6 -39 -12q-14 -6 -16 -18q-4 -12 2 -27l315 -799l285 797q6 14 2 26.5t-16 16.5q-27 10 -41 14q-8 2 -18.5 3t-25 3.5t-24.5 4.5v82h436v-82q-49 -8 -106 -27q-37 -12 -47 -41l-375 -1022q-10 -23 -31 -41q-16 -14 -53 -33 q-27 -12 -63 -26q-34 -12 -62 -19l-461 1141q-14 29 -39 43q-27 16 -92 25z" />
<glyph unicode="W" horiz-adv-x="1740" d="M20 1178v82h508v-82q-47 -6 -75 -13q-20 -4 -37 -16q-14 -10 -15 -21q0 -12 2 -20l162 -678l281 830h115l329 -830l152 684q4 14 -8 23q-10 8 -33 14q-2 0 -20.5 6t-28.5 8q-18 4 -64 13v82h455v-82q-51 -10 -74 -19q-10 -4 -25.5 -8t-21.5 -6q-12 -4 -22.5 -14.5 t-10.5 -16.5l-227 -1055q-6 -22 -25 -36q-23 -18 -41 -27q-29 -12 -45 -16q-6 -2 -19 -5.5l-20 -5.5l-346 885l-286 -795q-6 -18 -27 -36q-20 -16 -41 -25q-6 -2 -15.5 -6t-17.5 -7t-16 -5q-35 -8 -45 -11l-260 1139q-6 27 -35 41q-33 17 -103 29z" />
<glyph unicode="X" horiz-adv-x="1298" d="M20 0v84q72 6 111 22q41 16 72 62l307 455l-324 471q-14 20 -28.5 34.5t-30.5 22.5q-23 10 -41 16q-2 0 -55 11v82h571v-82q-86 -9 -110 -25q-12 -7 -12 -21q0 -16 16 -38l192 -283l180 283q15 22 18.5 37t-5.5 24q-8 8 -33 14q-18 4 -72 9v82h455v-82q-31 -2 -66 -11 q-23 -4 -49 -16q-25 -10 -39 -23q-20 -16 -30 -34l-267 -416l350 -510q20 -29 29 -37q15 -15 31 -25q10 -6 39 -14q14 -4 51 -8v-84h-561v84q35 2 69 10q29 6 39.5 14.5t10.5 24.5q0 14 -15 35l-223 321l-217 -321q-12 -18 -21 -37q-6 -14 5 -25q8 -8 32 -14q18 -4 72 -8 v-84h-451z" />
<glyph unicode="Y" horiz-adv-x="1265" d="M0 1239q29 4 68 10q53 8 79 11q53 4 76 6q45 4 56 4q31 0 61 -13q25 -10 47 -36q47 -61 78 -113q23 -35 80 -135q41 -72 80 -148l73 -147l224 432q16 25 -11 41q-29 18 -100 27v82h426v-82q-37 -6 -59 -13q-10 -2 -24.5 -8t-16.5 -6q-8 -2 -29 -18q-12 -8 -18 -23 l-316 -596v-358q0 -4 6 -15q6 -9 25 -18q29 -14 49 -21q33 -10 76 -18v-84h-590v84q43 8 76 18q27 8 47 19q18 9 24 18q6 8 7 17v370q-41 90 -80 164q-43 84 -88 162l-90 145q-31 49 -78 113q-6 8 -19 20q-8 8 -24 15q-10 4 -43 8q-16 2 -68 2z" />
<glyph unicode="Z" horiz-adv-x="1130" d="M49 55l662 1065h-369q-15 0 -37 -18q-16 -14 -41 -53q-16 -25 -37 -78q-14 -33 -28 -99l-99 23l39 381q37 -8 51 -10q29 -4 43 -4q8 0 22.5 -1t23.5 -1h737l35 -54l-656 -1067h434q18 0 37 18.5t33 49.5q23 51 33 80l35 110l94 -24q-4 -41 -4 -84v-51.5t-2 -53.5 q-2 -55 -4 -104q0 -18 -1 -45t-1 -35h-961z" />
<glyph unicode="[" horiz-adv-x="710" d="M121 -336v1935h524l43 -34q0 -2 -2 -13.5t-4 -17.5t-5 -18.5t-5 -18.5l-10 -31l-11 -20h-270v-1626h264l45 -39q0 -2 -2 -11.5t-4 -15.5t-5 -17t-5 -16l-12 -32q-2 -4 -5.5 -12.5t-5.5 -12.5h-530z" />
<glyph unicode="\" horiz-adv-x="958" d="M35 1569l47 30q4 0 37 -10q29 -8 45 -14l21.5 -7t23.5 -9q22 -9 37 -19l680 -1839l-45 -37l-37 12l-49 17q-6 2 -22.5 7t-24.5 9q-16 8 -31 17z" />
<glyph unicode="]" horiz-adv-x="710" d="M20 1485q0 2 2.5 10l4.5 14q8 20 12 33l4 16.5t6 16.5q2 4 5 12t5 12h531v-1935h-524l-43 37q0 2 2 13.5t4 17.5t5 17l5 18l8 23l12 30h271v1626h-264z" />
<glyph unicode="^" horiz-adv-x="1007" d="M100 592l322 870q16 16 29 25l36 24q31 20 35 23l33 16l352 -915q-33 -29 -49 -39q-27 -16 -57 -31l-37 27l-283 723l-250 -680q-2 -2 -10 -9.5t-14 -11.5t-16.5 -10t-14.5 -10q-25 -14 -29 -16q-14 -8 -24 -13z" />
<glyph unicode="_" horiz-adv-x="999" d="M49 -252q2 8 10 29q2 4 15 33q4 8 7 17t7 17q8 16 12 27h815l35 -35q-2 -4 -5 -14t-5 -15q-6 -16 -14 -34l-8.5 -16.5l-8.5 -16.5q-2 -4 -5 -12.5t-5 -12.5h-813z" />
<glyph unicode="`" horiz-adv-x="651" d="M-33 1413l33 62q6 3 25 6q18 4 43 8q8 2 26.5 5t26.5 5q14 2 26.5 5t24.5 5q16 2 45 7l29 4l211 -433q-4 -4 -21 -12q-12 -8 -26 -16q-10 -4 -26.5 -12.5t-23.5 -10.5z" />
<glyph unicode="a" d="M59 207q0 65 25 110q27 49 61 84q29 29 56 48q29 20 84 43q33 12 135 40q72 18 203 39v111q0 39 -5 55q-4 20 -20 43q-12 18 -36.5 28.5t-55.5 10.5q-25 0 -43 -8q-25 -10 -39 -25q-16 -16 -25 -38q-10 -29 -8 -54q0 -8 -16 -16q-18 -9 -49 -19q-6 -2 -29 -9l-37 -11 q-8 -2 -31.5 -9t-35.5 -9q-10 -2 -30 -6.5t-28 -6.5q-29 -4 -33 -2l-24 60q25 63 78 116q49 49 124.5 92.5t157.5 63.5q90 23 176 23q68 0 125 -21q53 -18 88 -53t50 -78q16 -49 16 -96v-455q0 -45 10 -59q12 -18 31 -19h12q6 0 19 4q18 6 22 9l35 14l25 -84 q-82 -53 -91 -57q-53 -31 -94 -50q-35 -16 -84 -32q-43 -14 -55 -15q-39 0 -66 43q-27 41 -32 113q-43 -43 -93 -76q-43 -29 -86 -47t-81 -25q-53 -8 -72 -8q-41 0 -86 17q-39 14 -74 45q-31 27 -53 73q-21 42 -21 103zM344 268q0 -35 8 -53t23 -33q8 -8 28 -16q14 -6 29 -6 q8 0 33 4q20 4 41 12q14 6 51 31q33 23 66 49v211q-55 -10 -91 -18q-53 -14 -61 -17q-27 -10 -41 -18q-16 -8 -29 -23q-25 -27 -41 -53q-16 -29 -16 -70z" />
<glyph unicode="b" horiz-adv-x="1118" d="M0 1391v79q23 4 47.5 7.5t48.5 7.5q6 0 88 18q43 10 80 21q43 12 78 26l4 -4l8 -8q8 -6 17 -14l7 -7q7 -7 11 -12v-678q49 37 98 62q70 35 93 43q47 16 82 22q37 6 65 7q70 0 135 -33q57 -29 103 -90q41 -55 63.5 -141.5t22.5 -184.5q0 -51 -25 -121q-22 -61 -61 -123 q-31 -47 -95 -114q-51 -55 -112 -95q-70 -45 -123 -65q-66 -25 -125 -25q-29 0 -76 11q-53 12 -96 26q-35 12 -109 41q-23 8 -61.5 26.5l-46.5 22.5v1159q0 39 -4 72q-2 23 -16.5 37t-34.5 16q-10 2 -34 5.5t-32 5.5zM389 223q80 -37 135.5 -55t81.5 -18q51 0 86 20 q41 23 61.5 55.5t34.5 85.5q12 49 13 107q0 96 -17 168q-12 57 -47 110q-27 41 -67 60q-39 18 -82 18q-33 0 -82 -16q-55 -18 -117 -58v-477z" />
<glyph unicode="c" horiz-adv-x="944" d="M59 444q0 102 41 201q39 94 113 164q76 74 172 111q104 41 225 41q33 0 76 -7q35 -4 88 -16q39 -8 78 -25q35 -14 53 -32q0 -2 -4 -31l-10 -51q-2 -12 -9.5 -34t-9.5 -30q-6 -23 -18 -63q-6 -18 -20 -54q-8 -16 -17 -30l-76 10q-18 61 -39 102q-25 47 -45 72 q-25 27 -53 43q-27 14 -63 14q-43 0 -80 -18q-41 -20 -67.5 -61t-45 -109t-18.5 -166q0 -78 18 -139q16 -53 53 -100q33 -43 78 -64q49 -23 99 -22q18 0 55 4q23 2 57.5 16t69.5 33q45 25 92 57l57 -70q-68 -78 -121 -116q-70 -51 -108 -68q-55 -23 -100 -29q-61 -8 -95 -8 q-88 0 -161 33q-78 35 -136 94q-61 66 -94 150q-35 92 -35 198z" />
<glyph unicode="d" horiz-adv-x="1173" d="M59 444q0 106 37 199q39 96 101 164q57 63 155 111q90 43 199 43q47 0 94 -13q49 -12 100 -47v334q0 20 -1 48t-1 38q0 31 -14 51q-10 16 -39 23q-47 10 -80 12v78q102 10 115 12q49 8 100 19q10 2 41 7t45 9q43 10 64 18l41 -41v-1196v-57q0 -18 4 -39q2 -6 8 -20 q4 -6 10 -11q8 -4 13 -4h16q2 0 12.5 3t16.5 5q31 10 43 17l32 -82q-53 -35 -98 -59l-96 -50q-55 -27 -80 -34q-33 -12 -47 -13q-39 0 -62 43q-23 45 -34 123q-59 -55 -88 -78q-53 -41 -74 -51q-41 -20 -74 -28.5t-82 -8.5q-74 0 -139 33q-68 33 -119 94q-53 61 -86 150 q-33 85 -33 198zM330 506q0 -78 18 -139q16 -55 49 -101q31 -43 70 -63q41 -23 80 -23q20 0 49 4q10 2 45 15q23 8 49 28l55 45v426q-37 57 -88 90q-49 31 -116 31q-49 0 -84 -16q-40 -18 -68 -55t-43 -99q-16 -65 -16 -143z" />
<glyph unicode="e" horiz-adv-x="1005" d="M59 444q0 137 49.5 237.5t151.5 178.5q57 45 133 72q80 29 162 29q92 0 170 -33q72 -29 123 -88q49 -55 74 -131q25 -78 24 -162q-10 -10 -28 -23q-25 -16 -39 -24l-45 -23q-10 -6 -37 -16h-457q2 -59 20 -127q16 -59 46 -98q35 -45 71 -64q45 -23 98 -22q20 0 62 4 q29 2 65 16q31 10 78 35q35 16 103 61l14 -14q12 -12 18 -21q4 -6 8.5 -11t8.5 -11l4 -8t4 -6q-78 -74 -127 -113q-59 -47 -108.5 -69.5t-104.5 -32.5q-57 -10 -115 -11q-86 0 -166 35q-72 31 -135 98q-53 57 -90 150q-35 88 -35 192zM342 580h301q23 0 31 8t8 28 q0 35 -8 68q-8 35 -29 72q-18 35 -51 57.5t-78 22.5t-76 -19q-33 -18 -51 -49q-18 -29 -33 -82q-10 -40 -14 -106z" />
<glyph unicode="f" horiz-adv-x="714" d="M35 834l78 96h67v31q0 145 39 249q39 109 121 189q41 41 82 67q63 41 82 50q35 16 80 26q35 8 73 8q47 0 95 -12q55 -14 84 -27q27 -12 57 -32q23 -16 22 -25q0 -10 -10 -31q-4 -6 -28 -37q-31 -37 -35 -40q-16 -16 -41 -37q-33 -27 -35 -29q-6 -4 -16.5 -9t-12.5 -7 q-49 65 -92 92q-45 29 -78 28q-27 0 -47 -14t-37 -57q-14 -39 -24 -113q-8 -63 -8 -184v-86h245l39 -39q-6 -12 -22 -37q-6 -8 -12.5 -18.5t-14.5 -20.5q-4 -8 -15.5 -19.5t-11.5 -13.5l-22 -22q-20 12 -66 24q-35 10 -120 11v-654q0 -6 8 -12t33 -12l28.5 -7.5t32.5 -7.5 q12 -4 45 -9t51 -9v-84h-600v84q76 14 101 29q31 18 30 28v654h-114z" />
<glyph unicode="g" horiz-adv-x="1077" d="M10 -219q0 29 10 49q14 29 39 53q23 23 76 62q43 31 121 73q-59 23 -86 48q-29 25 -29 47t47 80q41 47 148 122q-58 15 -105 43q-53 31 -81 64q-33 35 -52 82q-18 46 -18 98q0 74 37 139q35 63 98 113q63 51 145 78q86 29 175 29q68 0 135 -21q61 -18 112 -53q27 4 80 16 q40 9 74 19q35 10 63 20q28 9 50 19l30 -41l-8 -25q-8 -20 -14 -32.5t-19 -33.5l-7 -14t-9 -14q-45 -8 -68 -10q-34 -3 -73 -7q39 -63 39 -143q0 -78 -33 -141q-33 -61 -92 -109q-61 -49 -133 -72q-76 -25 -162 -24h-13q-33 -33 -43 -53q-8 -16 -8 -27q0 -6 4 -14 q4 -6 27 -17q12 -6 63 -16q41 -8 121 -18q121 -16 201 -37q86 -23 125 -50q49 -33 65 -69q18 -39 19 -94q0 -41 -23 -90q-20 -45 -59 -91q-39 -47 -90 -81q-57 -41 -113 -66q-70 -31 -127 -45q-70 -16 -133 -16q-53 0 -110 6q-70 8 -117 20q-74 20 -107 35q-43 18 -88 53 q-43 33 -61 68q-23 41 -23 88zM281 -180q0 -31 22.5 -59.5t63.5 -49t100 -33.5q68 -14 125 -14q49 0 96 14q33 10 64 37q25 22 36 49q12 27 13 60q0 16 -8 33q-10 20 -33 34q-27 16 -70 31q-46 15 -123 25q-104 12 -178 33q-37 -27 -61 -54q-14 -16 -31 -41q-10 -16 -14 -35 q-2 -10 -2 -30zM340 659q0 -47 10 -94q8 -41 33 -76q23 -33 57.5 -51t83.5 -18q33 0 54 10q23 12 43 34.5t28 55.5q10 37 10 80q0 49 -12 92q-12 41 -35 78q-18 31 -57 51q-34 18 -80 19q-29 0 -49 -11q-23 -12 -43 -34q-18 -22 -30.5 -56t-12.5 -80z" />
<glyph unicode="h" horiz-adv-x="1208" d="M45 0v84q94 27 98 29q31 12 31 30v1114q0 49 -2 66q-4 27 -14 37q-12 12 -39 18q-31 6 -74 13v79q106 16 109 17q8 2 40.5 7t49.5 9q53 12 78 21q49 16 75 26l47 -45v-692q76 49 117 70q47 23 105 45q49 18 92 24q57 8 82 9q45 0 82 -15q43 -16 71 -45q31 -31 49 -84 q18 -51 19 -127v-547q0 -8 4 -12q10 -10 20 -14q4 -2 18.5 -6.5t22.5 -8.5q27 -10 64 -18v-84h-531v84q82 20 103 33q29 16 29 26v410q0 61 -6.5 100t-18.5 64q-12 23 -35 33q-25 10 -49 10q-29 0 -53 -6q-27 -6 -54 -19q-45 -20 -59 -28l-72 -37v-527q0 -16 33 -30 q25 -10 98 -29v-84h-530z" />
<glyph unicode="i" horiz-adv-x="634" d="M59 0v84q80 18 101 29q31 15 30 30v496v84q0 31 -12 49q-10 14 -39 25q-23 8 -80 14v80q109 14 174 27q53 10 152 43h76v-818q0 -10 28 -28q20 -14 101 -31v-84h-531zM160 1221q0 37 14 63q16 29 39 49q23 18 59 33q29 10 72 10q29 0 57 -6q31 -6 50 -20q27 -18 36 -37 q12 -23 13 -51q0 -39 -15 -66q-16 -29 -38.5 -49.5t-57.5 -32.5q-29 -10 -74 -10q-29 0 -57 6q-31 6 -49 20q-27 18 -37 37q-12 21 -12 54z" />
<glyph unicode="j" horiz-adv-x="608" d="M-309 -391q0 14 10 26q25 31 29 35t11 12.5t14 14.5l14 12q29 25 43 35q6 4 19 14.5t19 14.5q23 14 27 16q10 -12 41 -37q27 -20 51 -31q39 -18 51 -20q25 -6 46 -6q25 0 47 12q20 12 37 51q18 43 26 107q8 59 8 178v596v84q0 29 -12 47t-39 27q-25 8 -78 14v80 q47 4 99 12q29 4 77 17q25 6 70 18l78 23h76v-852q0 -111 -23 -195q-18 -70 -57 -133q-33 -53 -78 -92q-76 -66 -82 -70q-12 -10 -61 -41q-27 -16 -70 -35q-39 -16 -71.5 -24t-65.5 -8q-49 0 -88 10q-55 14 -84 26q-41 16 -62 33q-22 17 -22 29zM160 1221q0 37 14 63 q16 29 39 49q23 18 59 33q29 10 72 10q29 0 57 -6q31 -6 50 -20q27 -18 36 -37q12 -23 13 -51q0 -39 -15 -66q-16 -29 -38.5 -49.5t-57.5 -32.5q-29 -10 -74 -10q-29 0 -57 6q-31 6 -49 20q-27 18 -37 37q-12 21 -12 54z" />
<glyph unicode="k" horiz-adv-x="1163" d="M45 0v84q94 27 98 29q31 12 31 30v1112q0 39 -4 72q-2 23 -16 37q-12 12 -39 16q-8 2 -33 5.5t-37 5.5v79q147 20 193 31q86 18 159 49l47 -45v-970l248 225q35 33 43 47q10 18 4 27q-4 6 -24 10q-25 4 -45 4v82h469v-82q-51 -6 -90 -23q-41 -16 -91 -51l-290 -215 l356 -397q4 -4 9 -10.5t9.5 -10.5t8.5 -6q10 -8 30.5 -12t36.5 -4q31 0 49 2l7 -82q-10 -2 -33 -8t-35 -8q-18 -4 -38.5 -7.5t-39.5 -7.5q-37 -6 -67.5 -12t-40.5 -6q-41 0 -72 12t-53 41l-351 471v-371q0 -6 5 -14q4 -6 14 -12q4 -2 33 -15q8 -4 28.5 -9t30.5 -9v-84h-510z " />
<glyph unicode="l" horiz-adv-x="634" d="M49 0v84q20 2 72 14q16 4 43 15q14 6 20 14t6 16v1112q0 37 -4 70q-4 27 -18 39q-16 14 -41 16q-8 2 -30.5 5.5t-37.5 5.5v79q20 2 57.5 7.5t45.5 7.5q31 4 88 16q51 10 82 21l82 28l47 -45v-1362q0 -8 6 -14l22 -16q12 -8 43 -15q57 -12 68 -14v-84h-551z" />
<glyph unicode="m" horiz-adv-x="1753" d="M45 0v84q94 27 98 29q31 12 31 30v539q0 47 -2 61q-4 27 -14 37q-12 12 -39 19q-31 6 -74 12v80l102 12q57 8 86 15q27 6 76 18q8 2 76 25l45 -46l10 -90q78 53 109 72q35 20 90 41q41 16 76 18q49 4 73 5q47 0 84 -13q33 -10 60 -30q29 -20 41 -39q10 -14 22 -43l4 -13 q70 49 111 72q43 25 90 41q27 10 80 18q37 6 74 7q49 0 90 -15q47 -16 78 -45q31 -27 53 -84q20 -49 20 -127v-547q0 -14 31 -26q23 -8 111 -33v-84h-520v84q45 12 57 16l33 17q10 4 14 14q4 8 4 12v451q0 59 -6 96q-6 35 -18.5 53.5t-32.5 22.5q-25 4 -45 4q-39 0 -90 -18 q-55 -20 -113 -60v-549q0 -4 4 -12t16 -14q4 -2 37 -15q27 -10 64 -18v-84h-500v84q45 12 57 16l33 17q12 6 17 14q2 4 2 12v451q0 47 -5 96q-2 29 -14 53q-10 18 -29 23q-25 4 -45 4q-35 0 -90 -16q-43 -12 -123 -62v-549q0 -14 29 -30q20 -12 92 -29v-84h-520z" />
<glyph unicode="n" horiz-adv-x="1208" d="M45 0v84q94 27 98 29q31 12 31 30v539v61q0 20 -14 35q-16 16 -37 21q-31 6 -78 12v80q16 2 49 5t49 5q35 4 86 17l78 18q35 8 78 25l45 -46l10 -108q51 35 119 72q55 31 104.5 49t92.5 24q57 8 84 9q45 0 82 -15q43 -16 71 -45q31 -31 49 -84q18 -51 19 -127v-547 q0 -8 4 -12q10 -10 20 -14q4 -2 18.5 -6.5t22.5 -8.5q27 -10 64 -18v-84h-531v84q82 20 103 33q29 16 29 26v430q0 51 -7 89q-6 41 -16 57q-12 23 -29 31q-20 10 -47 10q-12 0 -45 -4q-23 -2 -51 -13q-37 -12 -66 -26q-20 -10 -86 -47v-527q0 -16 33 -30q25 -10 98 -29v-84 h-530z" />
<glyph unicode="o" horiz-adv-x="1089" d="M59 444q0 59 17 129q12 53 49 123q29 53 76 105q49 53 100 84q55 34 123 55q63 20 141 21q104 0 191 -37q90 -39 147 -99q59 -61 94 -151q33 -84 33 -189q0 -68 -18.5 -131t-50.5 -121q-33 -55 -80 -106q-47 -49 -103 -84q-57 -35 -121 -53q-72 -20 -131 -21 q-106 0 -192 37q-90 39 -148 98q-59 61 -94 152q-33 84 -33 188zM344 473q0 -76 16.5 -147.5t42.5 -118.5q31 -53 66 -78q41 -29 86 -29q57 0 92 20.5t58 65.5q22 43 30 105q10 68 10 143q0 70 -14 152q-10 61 -39 125q-25 57 -65.5 87.5t-89.5 30.5q-59 0 -95 -26 q-39 -29 -59 -76q-18 -43 -29 -113q-10 -71 -10 -141z" />
<glyph unicode="p" horiz-adv-x="1163" d="M45 -397q70 16 98 30q31 14 31 31v1018q0 43 -2 59q-4 25 -14.5 39.5t-38.5 20.5q-31 8 -74 10v80q65 6 111 12q18 2 46.5 8.5t35.5 6.5q10 2 71 18q41 10 76 25l45 -46l8 -98q58 46 104.5 74t86.5 43q35 14 69 20q31 6 62 7q72 0 131 -27q68 -31 110 -82q49 -57 76 -143 q29 -90 29 -207q0 -68 -19 -133q-20 -70 -49 -125q-33 -63 -71 -111q-37 -47 -84 -86q-41 -35 -86 -57q-41 -20 -84 -21q-29 0 -58 6q-31 6 -59 19q-37 14 -68 33q-57 33 -84 51v-414q0 -14 39 -31q37 -16 131 -30v-82h-569v82zM444 233l95 -47q12 -6 67 -24q31 -10 49 -10 q8 0 22.5 -1t22.5 -1q70 0 111 71q39 70 39 205q0 102 -21 166q-23 74 -51 106q-35 41 -73 60q-35 16 -82 16h-31q-2 0 -33 -10q-6 -2 -43 -23q-43 -23 -72 -41v-467z" />
<glyph unicode="q" horiz-adv-x="1144" d="M59 444q0 92 21 156q23 70 51 119q23 39 70 86q20 20 73 59q28 18 62 37q35 18 70 31q49 16 73 20q49 8 72 9q20 0 57 -5q27 -2 58 -16q27 -12 59 -35q41 -29 72 -59q27 12 57 28q12 6 27.5 14.5l31.5 16.5q37 20 52 31q22 15 30 25l41 -41q-12 -45 -16 -70 q-8 -37 -10 -76q-4 -57 -4 -88v-1022q0 -4 6 -14q4 -6 20 -17q18 -12 39 -16l64 -14v-82h-570v82q94 14 131 30q39 16 39 31v463q-35 -33 -88 -74q-39 -29 -78 -49q-33 -16 -77 -27q-35 -8 -86 -8q-61 0 -121 33q-63 35 -111 94q-53 68 -82 150q-33 94 -33 198zM330 514 q0 -90 16 -147q16 -55 47 -105q25 -37 66 -61q35 -20 78 -21q20 0 49 4q10 2 45 15q23 8 49 28q8 6 27.5 22.5t27.5 22.5v418q-25 37 -41 53.5t-53 40.5q-23 14 -57 27q-25 8 -54 8q-43 0 -81 -16q-35 -14 -64 -53q-25 -33 -41 -95q-14 -55 -14 -141z" />
<glyph unicode="r" horiz-adv-x="940" d="M45 0v84q129 31 129 59v512q0 41 -2 56q0 6 -1 18t-3 18.5t-5 14.5l-3 8q-2 4 -5 7t-3 5q-10 10 -15 13q-14 8 -18 8q-16 4 -29 4q-8 0 -45 4v80q23 4 58.5 8t46.5 6q16 2 43.5 7.5t35.5 7.5q18 2 72 16q41 10 84 25l45 -46l12 -116q18 23 62 61q31 29 74 51.5t84 34.5 q51 14 86 15q31 0 81 -15q47 -12 80 -33q6 -4 6 -28.5t-6 -57.5q-12 -72 -14 -77l-18 -80q-4 -16 -11.5 -41t-9.5 -31q-8 -31 -18 -51h-84q-4 51 -11 78q-8 39 -20 67.5t-35 48.5q-20 18 -45 19q-10 0 -39 -4q-23 -4 -47 -19q-27 -16 -53 -49q-31 -37 -60 -92v-453 q0 -15 43 -30q33 -12 138 -29v-84h-580z" />
<glyph unicode="s" horiz-adv-x="878" d="M72 160q0 66 4 100q8 63 16 92l92 -10q12 -55 37 -102q23 -43 55 -76q31 -31 70 -47.5t80 -16.5q74 0 102 21q31 23 31 76q0 41 -20.5 73.5t-53 59t-75.5 51.5l-47.5 25.5l-40.5 21.5q-12 6 -84 47q-39 23 -78 57q-33 31 -56 72q-20 39 -20 86q0 63 31 113q31 47 86 84 t118 53q76 20 142 21q46 0 92 -7q35 -4 86 -16q53 -12 76 -23q35 -16 57 -32q6 -6 4 -35q-4 -33 -12 -72q-6 -27 -23 -76q-12 -39 -28 -57l-78 8q-18 94 -64 146q-47 53 -116 53q-59 0 -90 -24.5t-31 -65.5q0 -33 14 -55q16 -27 43 -48q29 -23 74 -45l98 -53l88 -47 q47 -27 78 -57q41 -41 57 -74q23 -45 23 -98q0 -70 -22.5 -121t-57.5 -86q-34 -34 -80 -56q-43 -20 -90 -32q-41 -10 -90 -15q-57 -4 -74 -4q-10 0 -22.5 1t-27.5 3t-26 2q-39 2 -81 13q-47 10 -80 22q-39 14 -72 33q-10 4 -12 37q-2 23 -2 80z" />
<glyph unicode="t" horiz-adv-x="774" d="M0 834l78 96h72v196l229 164l41 -35v-325h297l39 -39q-6 -12 -23 -37q-23 -35 -26 -39q-4 -6 -14.5 -16.5t-14.5 -16.5l-23 -22q-12 6 -30 12q-12 4 -41 12q-16 4 -45 9q-16 2 -47 2h-72v-449q0 -47 6 -82q4 -18 18 -53q9 -22 25 -31q16 -10 28.5 -10t37.5 4q18 3 43 12 q41 14 55 23l74 39l49 -80q-147 -106 -238 -152q-94 -47 -145 -47q-46 0 -86 19q-45 20 -72 53q-29 33 -47 88q-18 52 -18 123v543h-119z" />
<glyph unicode="u" horiz-adv-x="1173" d="M31 823v80q20 2 53 6t47 4q35 2 86 11q59 8 82 14q27 6 84 23l37 -50v-567q0 -57 6 -94q4 -31 20 -57q10 -18 33 -27q18 -6 43 -6q10 0 39 4q25 4 49 14q33 14 62 33q41 27 73 51v420q0 35 -4 72q-2 25 -16 41q-10 14 -39 20q-18 4 -72 8v80q111 9 197 25q106 18 164 33 l41 -50v-616v-51q0 -14 4 -31q3 -12 6 -18q2 -2 6 -5.5t6 -5.5l13 -6q10 0 18 2q2 0 27 10l43 17l30 -84q-27 -18 -86 -51q-76 -43 -94 -52q-55 -25 -82 -36q-35 -14 -47 -15q-16 0 -35 6q-23 8 -35 20.5t-26 47.5q-12 31 -19 84q-66 -55 -110 -84q-55 -35 -88 -47 q-35 -14 -74 -21q-35 -6 -65 -6q-39 0 -93 15q-43 12 -82 47q-41 39 -61 94q-23 63 -22 154v403v74q0 23 -13 39q-8 12 -35 18q-5 2 -71 10z" />
<glyph unicode="v" d="M10 848v82h475v-82q-35 -6 -59 -12q-25 -8 -33 -13q-8 -6 -8 -18q0 -6 8 -27l205 -456l193 456l5 15.5t3 11.5q4 10 -6 18q-6 6 -25 13q-20 6 -51 12v82h321v-82q-10 -2 -47 -14q-16 -6 -26 -13q-4 -2 -15 -18q-6 -9 -12 -25l-283 -690q-8 -23 -28 -41q-12 -12 -45 -33 q-16 -10 -54 -26q-25 -12 -57 -19l-360 809l-13 25q-6 9 -18 18q-8 6 -29 15q-14 6 -41 12z" />
<glyph unicode="w" horiz-adv-x="1474" d="M10 848v82h475v-82q-45 -6 -63 -12q-27 -8 -33 -15q-10 -10 -10 -18q0 -12 2 -19l137 -417l238 563h78l249 -563l134 417q0 2 3 9.5t3 11.5q0 10 -6 16q-8 10 -25 15q-20 6 -51 12v82h323v-82l-43 -14q-12 -4 -28 -13q-12 -6 -19 -16q-4 -8 -8 -21l-221 -725 q-6 -23 -27 -39q-16 -14 -40.5 -24t-45.5 -16q-6 -2 -18.5 -5.5t-16.5 -5.5l-262 555l-200 -465q-10 -27 -27 -39q-25 -20 -39 -26t-43 -14q-6 -2 -18.5 -5.5t-16.5 -5.5l-272 815q-6 20 -33 35q-33 19 -76 29z" />
<glyph unicode="x" horiz-adv-x="1079" d="M10 0v84q41 6 62 14q29 10 43 21q25 16 33 24.5t24 28.5l227 285l-219 305q-8 12 -24 33q-12 15 -31 24q-31 16 -43 19q-31 8 -62 10v82h521v-82l-49 -8q-16 -2 -23 -13q-6 -9 0 -24q6 -12 25 -39l96 -135l108 135q25 31 27 39q6 14 0 22q-8 12 -23 15q-4 0 -13 2l-18 4 t-18 2v82h381v-82q-33 -2 -67 -10q-18 -4 -47 -19q-16 -8 -33 -24q-8 -8 -29 -33l-190 -242l247 -348q4 -4 12.5 -14.5t12.5 -14.5q12 -16 29 -26q18 -12 41 -21q25 -10 57 -12v-84h-522v84q8 0 22.5 1t22.5 3q22 3 31 12q10 10 8 23q-4 18 -21 43l-131 182l-145 -182 q-23 -27 -23 -41q0 -15 13 -25q12 -10 32 -12q8 -2 22.5 -3t22.5 -1v-84h-389z" />
<glyph unicode="y" d="M-68 -418q0 12 19 39q12 18 45 59t51 60q33 33 43 39q57 -37 103 -45q20 -3 36 -4q28 0 52 10q25 8 36 16q25 16 39 31q18 18 37 49q20 37 37 72l29 69l-338 801q-12 29 -35 43q-20 12 -76 27v82h475v-82q-35 -6 -59 -12q-20 -6 -27 -13q-10 -8 -6 -18q2 -6 10 -27 l193 -456l184 456l5 15.5t3 11.5q4 12 -2 18q-8 8 -20 13q-20 6 -51 12v82h323v-82l-49 -14q-12 -4 -28 -13q-10 -4 -19 -18q-6 -9 -12 -25l-334 -850q-37 -96 -94 -188q-47 -78 -105 -131q-51 -49 -118 -76q-57 -23 -132 -22q-43 0 -77 8q-51 12 -68 18q-31 12 -49 25 q-21 14 -21 20z" />
<glyph unicode="z" horiz-adv-x="976" d="M55 45l520 756h-231q-49 0 -88 -57.5t-68 -174.5l-79 23l28 354l39 -10q25 -4 39 -4q6 0 19.5 -1t21.5 -1h639l23 -43l-523 -758h318q16 0 32.5 18.5t26.5 49.5q4 12 23 79l26 103l78 -21q0 -8 -1 -37.5t-1 -48.5q0 -16 -1 -52t-1 -54q0 -72 -2 -103q-2 -45 -6 -63h-805z " />
<glyph unicode="{" horiz-adv-x="724" d="M80 653q113 31 160 82q49 51 49 127q0 39 -8 96l-13 80q-2 12 -7 39t-7 41q-6 43 -6 96q0 72 31 123q37 59 90 105q57 47 131 86q63 33 162 71l45 -86q-76 -49 -125 -112q-49 -65 -50 -129q0 -49 7 -92q2 -16 7 -43t7 -39.5t7 -39t7 -42.5q6 -43 6 -92q0 -47 -14 -84 t-43 -76q-27 -37 -63 -64q-43 -33 -78 -47q100 -18 149 -87.5t49 -180.5q0 -53 -6 -100q-2 -16 -7 -47l-7 -43q-2 -14 -7 -44t-7 -45q-6 -43 -7 -83q0 -35 7 -66q6 -33 24 -59q18 -28 49 -56q29 -27 84 -55l-43 -102q-61 20 -170 69q-76 33 -127 76q-57 47 -82 96 q-27 53 -26 125q0 53 6 96q2 14 7 43t7 43l13 89q8 61 8 100q0 82 -33 113q-35 31 -94 30h-21h-12q-2 0 -5 -1t-5 -1t-23 -4z" />
<glyph unicode="|" horiz-adv-x="468" d="M160 -373v1985q14 8 30 16q6 2 17.5 8l17.5 9q12 6 37 14q29 8 33 10l45 -31v-1980q-10 -10 -27 -18q-8 -4 -36.5 -16.5t-40.5 -16.5q-6 -2 -16.5 -6t-14.5 -7z" />
<glyph unicode="}" horiz-adv-x="724" d="M20 -229q76 49 125 112q49 65 50 129q0 49 -7 92q-2 16 -7 43t-7 39.5t-7 39t-7 42.5q-6 43 -6 92q0 47 14 84t43 76q27 37 63 64q43 33 78 47q-100 18 -149 88q-49 72 -49 180q0 55 6 100q2 16 7 47l7 44q2 14 7 42.5t7 43.5q6 43 7 86q0 35 -7 65q-6 33 -24 59 q-18 28 -49 56q-29 27 -84 55l43 102q61 -23 170 -69q76 -33 127 -76q57 -47 82 -96q27 -53 26 -125q0 -53 -6 -96q-2 -14 -7 -43t-7 -43l-13 -88q-8 -61 -8 -101q0 -82 33 -112.5t94 -30.5h21h12q2 0 5 1t5 1t23 4l16 -94q-113 -31 -160 -82q-49 -53 -49 -127q0 -39 8 -96 l13 -80q2 -12 7 -39t7 -41q6 -43 6 -96q0 -74 -30 -125q-35 -55 -91 -103q-57 -47 -131 -86q-63 -33 -161 -71z" />
<glyph unicode="~" horiz-adv-x="997" d="M49 502q27 61 53 102q41 63 72 96q41 43 84 70q47 29 94 29q45 0 94 -25q53 -27 97 -55q46 -31 92 -55.5t86 -24.5q49 0 90 39q45 41 86 121l53 -25q-20 -47 -53 -102q-31 -51 -72 -97q-41 -43 -84 -69q-47 -29 -94 -29q-45 0 -90 25q-39 20 -94 55q-43 27 -96 55 q-47 25 -91 25q-49 0 -90 -39q-39 -37 -84 -123z" />
<glyph unicode="&#xa1;" horiz-adv-x="657" d="M143 786.5q0 38.5 17 75.5q14 31 43 53q27 23 61 33q37 12 78 13q35 0 59 -9q37 -12 52 -24q27 -23 36 -45q12 -27 13 -66q0 -35 -17 -72q-15 -34 -43 -55q-31 -25 -63 -35q-37 -12 -76 -12q-33 0 -57 8q-33 10 -51 27q-25 20 -37 43q-15 27 -15 65.5zM164 -524l88 1026 q9 6 24 12l29 10q6 0 16.5 4t16.5 4l16.5 5.5t12.5 3.5l28 -23l86 -956l-59 -31q-20 -10 -40 -18.5t-36 -16.5q-20 -10 -38.5 -17t-35.5 -16q-47 -20 -57 -22z" />
<glyph unicode="&#xa2;" horiz-adv-x="1060" d="M84 586q0 96 29 168q33 82 84 139q57 63 133 106q74 41 176 64v131l24 16l21 15q6 4 22 12q10 6 25 8l37 -33v-135q2 0 7 1t7 1h15q34 0 79 -6q25 -4 91 -16q45 -8 81 -25q39 -16 56 -33q0 -2 -4 -26q-2 -8 -11 -39l-18 -49l-20 -49l-11.5 -22.5l-9.5 -18.5 q-10 -20 -14 -27l-74 20q-12 20 -23 35q-15 22 -36 43q-18 18 -50 39q-29 20 -65 29v-651q41 4 59 10q39 12 62 26q39 25 67 48q49 41 82 73l70 -80l-96 -96q-31 -29 -84 -65q-33 -23 -80 -41q-45 -16 -80 -23v-123q-20 -16 -45 -30q-23 -12 -49 -23l-35 35v135 q-41 2 -98 21q-39 12 -94.5 44.5t-90.5 65.5q-43 39 -71 86q-31 49 -49.5 110.5t-18.5 129.5zM326 616q0 -131 49 -210q47 -78 131 -107v633q-29 -8 -68 -33q-29 -18 -57 -61q-27 -39 -41 -93q-14 -51 -14 -129z" />
<glyph unicode="&#xa3;" horiz-adv-x="1060" d="M35 551q0 2 3 9t5 11q6 12 12 27l13 29q4 8 8 20h98q0 131 33 236q33 106 100 186q70 82 154 123q88 43 203 43q37 0 61.5 -2t77.5 -10q23 -4 86 -21q46 -12 92 -37q0 -6 -1 -20.5t-1 -24.5q0 -16 -4 -61q0 -10 -4 -32.5t-4 -35.5l-5.5 -34.5t-3.5 -32.5l-5 -31t-3 -25 q-2 -12 -8 -39h-88q-6 55 -23 113q-12 43 -43 88q-18 29 -61 55q-33 20 -78 21q-10 0 -38.5 -4t-45.5 -17q-23 -16 -43 -45q-25 -35 -35 -79q-12 -52 -18 -130q-6 -70 4 -184h293l35 -33l-45 -98h-273q2 -109 -22 -199q-25 -88 -82 -165q61 4 76 4h57h43q6 0 20.5 -2 t22.5 -2q6 0 21.5 -1t25.5 -1q8 0 29.5 1t34.5 1q43 0 79 10q29 8 58 33q23 20 47 61q20 35 43 96l82 -28q-2 -25 -10 -93q-2 -18 -7.5 -51t-7.5 -47q-2 -18 -8 -47t-6 -35q-2 -14 -7 -31.5t-5 -19.5q-49 -27 -113 -29q-59 -2 -152 4q-78 6 -170 19q-59 8 -170 16 q-70 6 -153 -2q-70 -6 -123 -39l-43 80q31 25 53 47q16 16 41 49q12 16 29 58q6 14 14 76q6 43 6 102q0 58 -6 135h-114z" />
<glyph unicode="&#xa4;" horiz-adv-x="1060" d="M80 240l149 149q-35 49 -49 100q-16 55 -16 108.5t16 113.5q12 47 51 102l-149 150l2 47q6 4 21.5 12l19.5 10q8 4 45 21l149 -150q49 33 103 51q55 18 110 19q57 0 109 -19q53 -18 100 -51l148 150h47l43 -92l-148 -148q29 -43 50 -102q18 -55 18 -113q0 -59 -16 -106 q-20 -57 -52 -103l150 -147v-49l-92 -41l-148 147q-53 -35 -100 -49q-55 -16 -109 -17q-55 0 -110 17q-53 16 -103 49l-149 -149l-47 4q-4 6 -12.5 21t-10.5 20q-4 8 -20 45zM297 600q0 -41 16 -86q14 -41 52 -78q29 -31 79 -51q43 -18 88.5 -18t88.5 18t75 51q31 31 52 78 q18 43 18 88t-18 88q-20 47 -52 78q-39 39 -78 53q-45 16 -86 17q-43 0 -88 -17q-39 -14 -77 -53q-31 -31 -52 -78q-18 -43 -18 -90z" />
<glyph unicode="&#xa5;" horiz-adv-x="1060" d="M-86 1184q12 2 29.5 3t40.5 5q51 8 84 10l41.5 5t35.5 3q49 4 58 4q23 0 59 -14q29 -12 49 -35q72 -94 142 -213q55 -94 137 -260l184 363q16 27 -8.5 41t-101.5 24v84h426v-84q-31 -6 -58 -12l-43 -14q-8 -2 -26 -17q-12 -8 -19 -22l-285 -545v-8h267l24 -23l-41 -106 h-250v-217q0 -2 9 -15q6 -9 24 -18q33 -16 47 -21q33 -10 76 -18v-84h-590v84q43 8 76 18q27 8 47 19q18 9 25 18q8 12 8 17v217h-295l-20 22q0 2 2 9.5t4 13.5q4 14 10 30.5t12 31t8 22.5h279v10q-29 66 -76 156l-80 147q-49 86 -78 131l-75 109q-6 8 -19 20q-4 4 -24 12 q-18 6 -43 11q-16 2 -68 2z" />
<glyph unicode="&#xa6;" horiz-adv-x="468" d="M154 -373v852q6 4 18 9.5t16 7.5l17.5 9t19.5 9q8 4 39 14l19.5 7.5t15.5 5.5l47 -35v-850q-4 -4 -29 -16q-12 -6 -41 -19q-10 -4 -21 -8l-22 -8q-8 -2 -18 -6.5t-14 -4.5zM154 748v864q6 4 18 9t16 7q6 2 18.5 8l18.5 9q8 4 39 14q25 8 35 10l47 -31v-862q-4 -4 -29 -16 q-6 -4 -20 -9.5t-21 -7.5q-29 -12 -43 -16q-20 -6 -32 -10z" />
<glyph unicode="&#xa7;" horiz-adv-x="1044" d="M100 780q0 29 11 66q8 33 28 65q16 27 45 60q35 39 56 53q-39 35 -58 68q-23 39 -22 77q0 59 33 113q31 49 83 84q59 39 121 55q68 18 140 19q46 0 92 -6q61 -8 88 -15q40 -9 74 -24q47 -20 59 -31q6 -6 4 -37q-2 -12 -14 -70q-8 -33 -23 -77q-14 -43 -26 -58l-80 8 q-18 100 -62 148q-45 51 -119 51q-61 0 -90 -22q-31 -25 -30 -68q0 -29 20 -55q18 -25 53 -47.5t84 -44.5l105 -54q41 -20 90 -51q51 -33 90 -74t68 -102q27 -55 26.5 -137t-31.5 -150q-29 -63 -77 -112q23 -29 34 -60q14 -37 15 -69q0 -70 -22.5 -121t-57.5 -86 q-34 -34 -80 -56q-43 -20 -90 -32q-41 -10 -90 -15q-57 -4 -76 -4q-12 0 -40 3t-34 3q-39 2 -82 13q-47 10 -79 22q-47 18 -74 33q-8 4 -10 37q-4 45 -5 80q0 49 7 100q8 63 16 92l92 -10q12 -55 37 -102q27 -49 55 -78q31 -31 70 -47.5t78 -16.5q74 0 102 21q33 23 33 78 q0 40 -25 73q-23 31 -63 60q-27 18 -88 51l-44 21.5t-48 25.5q-41 20 -90 53q-46 31 -86 74q-33 35 -66 100q-27 53 -27 125zM340 829q0 -43 16 -75q18 -37 50 -62q49 -39 79 -57l115 -66l84 -43q23 39 23 80q0 51 -17 90q-14 35 -49 70q-33 33 -82 63q-63 39 -121 70 l-28 14q-8 4 -14.5 8.5l-12.5 8.5q-14 -16 -31 -49q-12 -25 -12 -52z" />
<glyph unicode="&#xa8;" horiz-adv-x="800" d="M35 1210q0 43 14 74q18 41 37 59q27 27 55 41q33 16 64 17q57 0 94 -33t37 -98q0 -35 -14.5 -74t-37 -61.5t-55 -39t-63.5 -16.5q-66 0 -98.5 32.5t-32.5 98.5zM465 1210q0 43 14 74q18 41 37 59q27 27 55 41q33 16 64 17q57 0 94 -33t37 -98q0 -35 -14.5 -74t-37 -61.5 t-55 -39t-63.5 -16.5q-66 0 -98.5 32.5t-32.5 98.5z" />
<glyph unicode="&#xa9;" horiz-adv-x="1507" d="M80 678q0 139 51 274q47 125 139 224q90 96 213 151t271 55q94 0 184 -24q88 -25 164 -72q74 -46 135 -110q53 -57 102 -144q43 -78 66 -168q23 -94 22 -186q0 -147 -49 -277q-47 -125 -141 -225q-90 -96 -213 -151.5t-270 -55.5q-94 0 -187 27q-86 25 -161 72 q-74 46 -136 110q-61 63 -102 141q-45 82 -66 170q-22 95 -22 189zM211 678q0 -123 39 -225q41 -109 112 -183q74 -77 173 -123q96 -45 219 -45q121 0 219 45q96 43 172 123q72 74 112 183q41 106 41 225q0 115 -41 221q-41 109 -112 182q-76 80 -172 123q-98 45 -219 45 q-123 0 -219 -45q-98 -46 -173 -123q-72 -74 -112 -182q-39 -102 -39 -221zM362 651q0 96 35 174q39 90 99 146q63 61 151 98q86 37 191 37q31 0 65 -6q23 -4 68 -17q31 -8 59 -24q23 -12 41 -31q0 -12 -2 -24.5t-10 -45.5q-10 -41 -15 -53q-12 -37 -18 -53q-8 -25 -16 -45 q-6 -20 -13 -29l-65 10q-6 41 -19 78q-14 45 -28 66q-23 33 -43 47q-25 16 -64 16q-90 0 -141 -75q-53 -78 -53 -236q0 -66 18.5 -119t50.5 -92q31 -37 72 -59q39 -20 86 -21q16 0 45 4q20 2 45 12.5t57 28.5l76 49l49 -61q-53 -59 -102 -98q-45 -35 -88 -58 q-35 -16 -82 -24q-40 -6 -80 -6q-70 0 -139 28q-59 25 -117 82q-51 51 -82 129q-31 77 -31 172z" />
<glyph unicode="&#xaa;" horiz-adv-x="575" d="M39 846q0 25 10 59q8 25 33 58q18 23 59 47q33 18 86 28l111 23v10q0 10 -1 28.5t-1 26.5q0 25 -6 39q-6 12 -21 25q-8 6 -35 6q-33 0 -49 -14q-18 -16 -10 -47q0 -2 -8 -9q-2 -2 -6 -3t-10.5 -3t-10.5 -4q-6 -2 -17 -5l-18 -5q-25 -8 -36 -10q-18 -3 -31 -6h-17l-14 28 q16 35 47 64q31 28 68 49q31 18 82 29q57 12 88 12q27 0 63 -8q27 -6 47.5 -26.5t28.5 -53.5q8 -31 8 -86v-197q0 -23 4 -39q4 -14 11 -20q6 -4 16 0q27 8 39 14l12 -45l-47 -29q-25 -16 -47 -26q-27 -12 -45 -19q-20 -6 -41 -6q-4 0 -12 4q-6 3 -13 13q-8 12 -10 24 q-2 10 -6 43q-49 -49 -96 -67q-41 -16 -82 -17q-18 0 -41 6q-20 6 -39 18.5t-31 35.5q-12 20 -12 55zM41 586v94h494v-94h-494zM190 889q0 -33 17 -45q14 -12 29 -13h18q6 0 22.5 8.5t26.5 14.5q4 2 35 29v123l-53 -13q-43 -10 -68 -35q-27 -26 -27 -69z" />
<glyph unicode="&#xab;" horiz-adv-x="1073" d="M59 430v35q0 6 1 13t1 11v15l410 430l61 -51l-8 -19q-2 -4 -7 -17t-13 -30l-13.5 -30.5t-17.5 -36.5l-37 -76l-35 -76q-25 -55 -30 -68q-4 -8 -21 -45l-8 -18l193 -420l-64 -49zM479 430v35q0 6 1 13t1 11v15l410 430l61 -51l-8 -19q-2 -4 -7 -17t-13 -30l-13.5 -30.5 t-17.5 -36.5l-37 -76l-35 -76q-25 -55 -30 -68q-4 -8 -21 -45l-6 -18l190 -420l-63 -49z" />
<glyph unicode="&#xac;" horiz-adv-x="1060" d="M80 520q2 6 10 27q2 4 14 33q2 6 7.5 17l7.5 15q8 16 12 27h801l39 -33v-373q-6 -6 -27 -18q-16 -10 -35 -20q-6 -2 -17 -10.5t-18 -10.5q-20 -10 -28 -12l-35 35v288h-696z" />
<glyph unicode="&#xad;" horiz-adv-x="739" d="M49 469q0 2 10 27q6 16 15 34q4 6 6 12.5t3 9.5t5 11q8 16 12 27h555l35 -35q-2 -4 -5 -12t-5 -15q-6 -16 -14 -34l-8.5 -17.5l-8.5 -17.5q-2 -4 -5 -12.5t-5 -12.5h-553z" />
<glyph unicode="&#xae;" horiz-adv-x="729" d="M14 1083q0 78 27 144q28 68 74 116q47 51 110 78q68 29 139.5 29t139.5 -29q66 -29 112 -78t74 -116q27 -66 27 -144q0 -76 -27 -141q-28 -68 -74 -117q-47 -49 -112 -77q-68 -29 -139.5 -29t-139.5 29q-63 27 -110 77q-46 49 -74 117q-27 65 -27 141zM92 1083 q0 -61 21 -110q23 -53 57 -92q37 -40 86 -62q51 -23 108.5 -22.5t108.5 22.5q49 22 86 62q35 39 57 92q20 49 21 110q0 63 -21 113q-20 51 -57 90q-37 40 -86 62q-51 23 -108.5 22.5t-108.5 -22.5q-49 -22 -86 -62q-37 -39 -57 -90q-21 -50 -21 -113zM203 1280q33 8 69 10 q53 4 80 4q37 0 78 -8q25 -4 51 -20q18 -10 29 -31q8 -16 8 -39q0 -49 -22 -78q-25 -31 -74 -43l90 -135q6 -10 16 -14q12 -4 29 -2l4 -25q-9 -3 -24 -6q-8 -2 -14.5 -3t-14.5 -3l-25 -6q-8 -2 -18 -2q-20 0 -27 16l-86 172h-18h-12v-141q0 -4 6 -8l28 -11v-24h-151v24 l31 11q8 2 8 8v323q-12 -4 -21 -4q-2 0 -8 -1t-8 -1zM322 1110h8h10q53 0 70 18q20 25 20 60q0 27 -22 49q-18 18 -66 18h-10h-10v-145z" />
<glyph unicode="&#xaf;" horiz-adv-x="1009" d="M49 1208q3 12 12 31q4 6 9.5 20.5t7.5 20.5q2 4 18 41q4 10 8.5 17.5t6.5 11.5h815l35 -35q-2 -4 -13 -31q-8 -20 -18 -41q-2 -4 -19 -41q-10 -20 -12 -26h-813z" />
<glyph unicode="&#xb0;" horiz-adv-x="731" d="M106 940q0 74 27 133q29 63 70 105q47 47 98 69q55 25 109 25q45 0 83.5 -18.5t69.5 -49.5q29 -29 47 -69q16 -35 17 -82q0 -72 -27 -131.5t-72 -104.5q-47 -47 -98 -69q-55 -25 -106 -25q-49 0 -88 18q-43 20 -68 47q-33 37 -45 68q-17 43 -17 84zM272 997q0 -22 7 -43 q6 -18 16 -36q10 -16 26.5 -26.5t34.5 -10.5q20 0 39 6q14 6 33 22q15 15 25 37q8 18 8 49q0 25 -6 45q-8 25 -17 37q-16 20 -26 27q-14 8 -35 8q-27 0 -39 -6q-16 -8 -33 -25q-15 -15 -24 -37q-9 -18 -9 -47z" />
<glyph unicode="&#xb1;" horiz-adv-x="839" d="M49 139q0 2 10 27q6 16 15 35q4 6 7 15t7 17q8 16 12 27h684l35 -35q-2 -8 -8 -26q-4 -8 -8 -17.5t-8 -17.5l-15 -35q-2 -6 -7 -14.5t-5 -10.5h-682zM49 649q0 2 10 27q6 16 15 35q4 6 6 12l3 9t5 11q8 16 12 27h260v266q8 2 24.5 8.5t35.5 12.5q25 8 33 10q6 2 28 8 l33 -33v-272h270l35 -35q-2 -8 -8 -26q-4 -8 -8 -17.5t-8 -17.5l-15 -35q-2 -6 -7 -14.5t-5 -10.5h-254v-264q-2 -2 -25 -10l-32 -12q-6 -2 -17.5 -5.5t-17.5 -5.5q-10 -4 -27 -8l-35 33v272h-274z" />
<glyph unicode="&#xb2;" horiz-adv-x="722" d="M55 664l142 147q41 41 102 113q49 57 72 86q28 37 43 67q12 25 20 53q6 22 6 44q0 53 -16 77q-18 27 -62 27q-49 0 -65 -33q-14 -31 -2 -78q-10 -4 -39 -12q-25 -6 -55 -12q-43 -8 -58 -10q-8 0 -23.5 -3.5t-21.5 -3.5l-24 50q0 31 26.5 63.5t71.5 58.5q43 27 107 45 q61 18 131 19q111 0 182 -39q68 -37 67 -109q0 -27 -6 -51q-6 -27 -22 -55q-18 -35 -43 -64q-20 -25 -68 -75l-98 -99l-131 -125h244q22 0 36 19q8 10 23 43q9 28 12 61l64 -12l-11 -235h-583z" />
<glyph unicode="&#xb3;" horiz-adv-x="722" d="M55 702l31 86q70 -43 117 -61q53 -20 106 -20q55 0 94 34q35 33 35 99q0 43 -10 63q-12 23 -31 39q-14 10 -39 19q-22 6 -43 6h-16q-2 0 -7 -1t-7 -1h-13q-2 0 -8 -1t-10 -1l-14 69q55 12 90 30.5t49 39.5q12 18 16 43q4 29 4 39q0 45 -14 67q-16 27 -51 27q-10 0 -31 -8 q-10 -4 -22 -21q-10 -12 -13 -28q-4 -20 4 -39q-12 -8 -36 -15q-6 -2 -20.5 -8t-22.5 -8q-33 -8 -49.5 -10t-45.5 -6l-24 43q0 29 20 57q23 33 62 59q43 31 94 47q61 20 123 21q66 0 114 -16q55 -18 78 -37q29 -23 41 -54q14 -35 15 -61q0 -18 -11 -45q-10 -25 -26 -45 q-16 -18 -43 -39q-23 -16 -60 -27q39 -2 78 -20q35 -16 57 -41q18 -23 33 -59q12 -33 13 -68q0 -53 -25 -96q-27 -45 -68 -78q-49 -39 -104 -55q-61 -18 -131 -19q-31 0 -64 6q-37 6 -71 19q-43 14 -76 30q-31 14 -68 45z" />
<glyph unicode="&#xb4;" horiz-adv-x="651" d="M197 1085l204 435q4 0 6.5 -1t7.5 -2t13 -1q12 -2 45 -7q20 -2 55 -10q43 -6 56 -8q8 -2 23.5 -5t21.5 -3q20 -2 26 -6l33 -60l-393 -381q-4 0 -25 8q-4 2 -14 6.5t-14 6.5q-6 2 -14.5 8t-12.5 8q-12 6 -18 12z" />
<glyph unicode="&#xb5;" horiz-adv-x="1183" d="M41 813v82q84 6 176 23q83 15 166 43l4 -9l14 -14l17 -16q10 -10 12 -15v-522q0 -47 16 -86q12 -29 39 -63q18 -23 47 -41q23 -14 41 -15q6 0 17.5 3t15.5 3q16 2 39 18.5t45 39.5q29 29 60 67v437q0 25 -2 38q-2 18 -11 45q-8 29 -12 41q-6 16 -12 27l34.5 6t30.5 6 q49 8 76 15q12 2 36.5 7t39.5 9q37 9 67 19l39 -50q0 -4 -2 -13t-2 -13q-3 -12 -6 -31q-2 -6 -2 -20.5v-20.5q-4 -29 -4 -53v-453q0 -57 2 -76q4 -41 6 -45q6 -14 12.5 -20t18.5 -6q29 0 43 4q25 8 53 22l31 -84q-27 -20 -70 -47q-37 -23 -84 -43q-45 -20 -82 -30 q-40 -12 -67 -13q-29 0 -49 15q-27 18 -39 39q-20 31 -27 57q-12 45 -14 72q-31 -43 -70 -84q-37 -39 -61 -58q-31 -22 -62 -30q-35 -10 -61 -11q-40 0 -92 37q-57 39 -105 96v-26q0 -80 16 -156q14 -70 41 -131q18 -45 58 -102q25 -37 63 -76q-18 -6 -32 -12l-48 -19 q-14 -6 -29.5 -12t-29.5 -12l-57 -23l-26.5 -11t-20.5 -9l-29 -13l-49 39v1143v61q0 16 -13 37q-10 16 -34 23q-6 2 -72 10z" />
<glyph unicode="&#xb6;" horiz-adv-x="1275" d="M31 903q0 88 35 156q37 71 104 123q68 51 164 80q98 29 215 28q6 0 25.5 -1t33.5 -1q37 -2 82 -4q16 -2 49 -3t49.5 -1t51 -1t51.5 -3l130 -8l124 -8h61v-82q-80 -18 -102 -31q-35 -18 -35 -33v-1218q0 -10 33 -31q29 -16 104 -33v-82h-710v82q72 16 102 33q33 18 33 31 l2 626q-25 -4 -39 -4q-6 0 -22.5 -1t-26.5 -1q-111 0 -207 25q-90 23 -162 75q-68 49 -108 121q-37 66 -37 166zM326 938q0 -51 16 -107q16 -57 45 -96q33 -45 82 -69q53 -27 119 -27h45v526h-31h-22q-47 0 -91 -14q-45 -14 -81.5 -43t-59.5 -72q-22 -45 -22 -98zM811 -104 q0 -10 16 -21q8 -4 25 -10q12 4 25 10q16 10 16 21v1241q-16 4 -41 8q-8 2 -20.5 2t-20.5 2v-1253z" />
<glyph unicode="&#xb7;" horiz-adv-x="458" d="M51 672q0 37 17 73q15 34 43 56q27 20 63.5 32.5t75.5 12.5q33 0 57 -8q37 -12 51 -25q23 -18 37.5 -45t14.5 -66q0 -37 -17 -73q-14 -31 -43 -54q-31 -25 -63 -34q-31 -10 -76 -11q-35 0 -59 9q-37 12 -52 24q-29 25 -37 43q-12 29 -12 66z" />
<glyph unicode="&#xb8;" horiz-adv-x="468" d="M49 -365q82 12 117 39t35 60t-23 49q-20 14 -59 18l4 4q3 3 12 25q12 27 25 64q23 61 41 120l137 -2l-39 -96q170 -31 170 -145q0 -35 -31 -72q-29 -35 -82 -66q-39 -23 -120 -49q-72 -23 -146 -28z" />
<glyph unicode="&#xb9;" horiz-adv-x="722" d="M84 1266q8 2 25.5 5t23.5 5q10 2 68 16q18 6 37.5 10.5l37.5 8.5q23 6 42.5 12t31.5 10l64 19q10 4 25.5 8t21.5 6l33 -27v-600q0 -6 6 -12q10 -10 22 -14q33 -10 51 -15q37 -6 84 -12v-65h-553v65q57 6 91 12q14 2 55 15q16 4 26 14q8 8 9 12v412q0 29 -2 37 q-2 10 -13 20q-3 3 -12 6q-6 2 -29 3q-8 0 -49 -5q-29 -2 -76 -12z" />
<glyph unicode="&#xba;" horiz-adv-x="573" d="M31 987q0 52 18 105q16 47 53 90q33 39 86 65q49 25 108.5 25t102.5 -21q45 -20 78 -57q31 -33 49 -84q18 -49 18.5 -100.5t-22.5 -102.5q-23 -49 -57.5 -88t-85.5 -63q-49 -25 -103 -25q-55 0 -102 19q-43 16 -78 55q-29 33 -49 82q-16 41 -16 100zM39 586v94h496v-94 h-496zM180 1014q0 -45 8 -80q8 -39 25 -70q14 -31 35 -47q18 -16 45 -16q31 0 49 12t31 37q14 27 16 57q4 45 4 76q0 41 -6 82q-4 31 -20 70q-12 29 -35 49q-22 18 -49 18q-31 0 -50 -12q-20 -14 -32 -39q-8 -18 -17 -59q-4 -23 -4 -78z" />
<glyph unicode="&#xbb;" horiz-adv-x="1073" d="M121 883l61 51l412 -434l-2 -74l-410 -428l-61 49l190 416zM541 883l61 51l412 -434l-2 -74l-410 -428l-61 49l190 416z" />
<glyph unicode="&#xbc;" horiz-adv-x="1298" d="M68 1153q8 0 17 3t23.5 6l24.5 5q37 8 88 23q23 6 84 24q49 14 62 21l26 -23v-487q0 -4 6.5 -10t22.5 -13q4 -2 43 -10q35 -8 72 -10v-45h-451v45q33 2 74 10t47 10q18 6 24 13q8 8 9 10v344q0 6 -1 16.5t-1 12.5q0 10 -9 18l-12 4q-6 2 -24 2q-10 0 -43 -4 q-57 -8 -64 -8zM137 0l932 1202q2 0 7 3t10.5 5t11.5 2q4 0 18 3.5t23 5.5l39 8q18 3 30 6l27 -29l-930 -1204q-16 -8 -29 -10q-6 0 -19 -3t-21 -5q-6 0 -18.5 -2t-20.5 -5l-33 -8zM721 178l272 381q14 4 33 8q8 2 17.5 5l19.5 6q6 2 19.5 5t19.5 5l31 10l26 -23v-344h78 l14 -16q-8 -10 -30 -33q-6 -6 -31 -24h-31v-88q0 -8 17 -15q8 -4 63 -14v-41h-346v41q18 4 59 8q8 0 37 8q4 0 19 9q6 4 6 8v84h-269zM840 231h174v230z" />
<glyph unicode="&#xbd;" horiz-adv-x="1298" d="M68 1153q8 0 17 3t23.5 6l24.5 5q37 8 88 23q23 6 84 24q49 14 62 21l26 -23v-487q0 -4 6.5 -10t22.5 -13q4 -2 43 -10q35 -8 72 -10v-45h-451v45q33 2 74 10t47 10q18 6 24 13q8 8 9 10v344q0 6 -1 16.5t-1 12.5q0 10 -9 18l-12 4q-6 2 -24 2q-10 0 -43 -4 q-57 -8 -64 -8zM137 0l932 1202q2 0 7 3t10.5 5t11.5 2q4 0 18 3.5t23 5.5l39 8q18 3 30 6l27 -29l-930 -1204q-16 -8 -29 -10q-6 0 -19 -3t-21 -5q-6 0 -18.5 -2t-20.5 -5l-33 -8zM735 37l164 164q63 66 100 112q35 45 52 76q16 33 16 55q0 37 -20 64q-18 25 -62 24 q-25 0 -39 -8q-16 -10 -24 -20q-6 -8 -11 -31q-4 -18 2 -35q-2 -2 -28 -10q-6 -2 -19.5 -4t-19.5 -4q-31 -8 -41 -10q-29 -4 -33 -4l-20 38q0 29 20 52q23 25 59 47q37 22 87 37q45 14 106 14q94 0 150 -31q53 -29 53 -88q0 -29 -17 -65q-10 -25 -53 -74q-23 -27 -100 -100 l-156 -144h225q18 0 30.5 14.5t19.5 34.5q8 27 10 52l51 -13l-10 -180h-475z" />
<glyph unicode="&#xbe;" horiz-adv-x="1298" d="M43 705l27 51q66 -39 96 -47q43 -12 88 -13q25 0 45 6q25 6 39 19q18 14 27 35q10 25 10 53q0 31 -12.5 53.5t-30.5 34.5q-25 16 -39 20.5t-37 4.5h-25l-24 -4l-10 49q57 14 75 24q23 12 43 33q12 12 21 33q6 15 6 30q0 31 -16 58q-15 25 -56 24q-14 0 -22 -4 q-10 -6 -19 -16q-8 -12 -10 -25q-2 -14 2 -30q-16 -8 -28 -13q-6 -2 -18.5 -5t-18.5 -5q-25 -8 -39 -10q-29 -4 -37 -4l-21 35q0 18 19 43q16 23 49 45q31 23 76 37q43 14 100 14q53 0 94 -12q39 -12 64 -31q23 -16 33 -43q12 -33 12 -47q0 -18 -10 -39q-6 -14 -25 -35 q-15 -18 -37 -31q-27 -16 -49 -20q33 -2 64 -17q27 -12 49 -34.5t30 -47.5q10 -31 11 -55q0 -41 -20.5 -75.5t-55.5 -61.5q-39 -29 -84 -43q-53 -16 -109 -16q-25 0 -51 6q-45 10 -59 14q-25 8 -60 25q-34 19 -57 37zM137 0l932 1202q2 0 7 3t10.5 5t11.5 2q4 0 18 3.5 t23 5.5l39 8q18 3 30 6l27 -29l-930 -1204q-16 -8 -29 -10q-6 0 -19 -3t-21 -5q-6 0 -18.5 -2t-20.5 -5l-33 -8zM721 178l272 381q14 4 33 8q8 2 17.5 5l19.5 6q6 2 19.5 5t19.5 5l31 10l26 -23v-344h78l14 -16q-8 -10 -30 -33q-6 -6 -31 -24h-31v-88q0 -8 17 -15 q8 -4 63 -14v-41h-346v41q18 4 59 8q8 0 37 8q4 0 19 9q6 4 6 8v84h-269zM840 231h174v230z" />
<glyph unicode="&#xbf;" horiz-adv-x="946" d="M59 -246q0 80 27 140q31 70 66 114q45 57 86 103q84 90 88 94q45 51 69 96q31 53 33 105l6 96q14 12 49 22q20 6 58 19l34 -31l9 -106q4 -59 -13 -113q-14 -47 -41 -105q-16 -35 -57 -100l-21.5 -36t-15.5 -28.5l-18 -33.5q-23 -41 -45 -96q-16 -41 -17 -95 q0 -121 35 -178q34 -55 92 -55q20 0 41 12q18 10 35 33q14 20 25 53q10 35 10 70q0 6 -4 35q-2 18 -8 32q12 8 51 21q29 10 76 20l79 19q20 4 60 10l37 -41q2 -6 2 -27v-26q0 -72 -39 -131q-43 -66 -103 -109q-66 -47 -151.5 -71.5t-177.5 -24.5q-86 0 -154 22 q-66 23 -110 64q-41 39 -68 100q-25 57 -25 127zM315 786.5q0 38.5 17 75.5q14 31 43 53q27 23 61 33q37 12 78 13q35 0 59 -9q37 -12 52 -24q27 -23 37 -45q12 -27 12 -66q0 -35 -17 -72q-15 -34 -43 -55q-31 -25 -63 -35q-37 -12 -76 -12q-33 0 -57 8q-33 10 -51 27 q-25 20 -37 43q-15 27 -15 65.5z" />
<glyph unicode="&#xc0;" horiz-adv-x="1308" d="M0 0v84q70 12 102 25q37 12 45 43l342 1044q45 35 60 43q23 12 67 33q23 10 68 26q12 4 35.5 10.5t28.5 8.5l419 -1165l13 -25q4 -8 20 -21q10 -6 35 -14q16 -4 53 -8v-84h-522v84q77 3 104 18q29 16 17 50l-99 274h-393l-90 -274q-8 -31 23 -46q29 -12 116 -22v-84h-444 zM438 555h305l-161 449zM295 1589l10 67q2 4 33 27q12 10 26.5 18.5t26.5 18.5q8 6 55 35l21.5 13t15.5 9l358 -356q-4 -4 -9 -11.5t-10 -13.5t-11 -12q-23 -23 -35 -29z" />
<glyph unicode="&#xc1;" horiz-adv-x="1308" d="M0 0v84q70 12 102 25q37 12 45 43l342 1044q45 35 60 43q23 12 67 33q23 10 68 26q12 4 35.5 10.5t28.5 8.5l419 -1165l13 -25q4 -8 20 -21q10 -6 35 -14q16 -4 53 -8v-84h-522v84q77 3 104 18q29 16 17 50l-99 274h-393l-90 -274q-8 -31 23 -46q29 -12 116 -22v-84h-444 zM438 555h305l-161 449zM438 1431l357 346l27.5 -14t31.5 -17l60 -36q6 -4 16 -11.5t18.5 -12.5t14.5 -9q29 -20 30 -23l9 -55l-490 -244q-9 3 -18 13q-2 2 -6.5 6t-8.5 7t-6 7t-8 11l-10 12q-4 6 -9.5 12t-7.5 8z" />
<glyph unicode="&#xc2;" horiz-adv-x="1308" d="M0 0v84q70 12 102 25q37 12 45 43l342 1044q45 35 60 43q23 12 67 33q23 10 68 26q12 4 35.5 10.5t28.5 8.5l419 -1165l13 -25q4 -8 20 -21q10 -6 35 -14q16 -4 53 -8v-84h-522v84q77 3 104 18q29 16 17 50l-99 274h-393l-90 -274q-8 -31 23 -46q29 -12 116 -22v-84h-444 zM438 555h305l-161 449zM297 1421l282 330h127l283 -330q-16 -25 -29 -37q-23 -23 -34 -29l-283 150l-283 -150q-8 4 -32 29z" />
<glyph unicode="&#xc3;" horiz-adv-x="1308" d="M0 0v84q70 12 102 25q37 12 45 43l342 1044q45 35 60 43q23 12 67 33q23 10 68 26q12 4 35.5 10.5t28.5 8.5l419 -1165l13 -25q4 -8 20 -21q10 -6 35 -14q16 -4 53 -8v-84h-522v84q77 3 104 18q29 16 17 50l-99 274h-393l-90 -274q-8 -31 23 -46q29 -12 116 -22v-84h-444 zM438 555h305l-161 449zM234 1388l45 94q23 49 59.5 98.5t75.5 77.5q43 31 90 31t92 -16q29 -10 82 -35l35.5 -17.5t42.5 -19.5q35 -14 72 -14q45 0 77 26q34 28 68 86l84 -32l-21.5 -43t-23.5 -50q-23 -49 -60 -98q-33 -45 -75.5 -75.5t-89.5 -30.5q-43 0 -89 16 q-29 10 -81 35q-63 29 -78 35q-43 16 -78 16q-18 0 -43 -8q-23 -6 -35 -21q-29 -27 -33 -34l-32 -50z" />
<glyph unicode="&#xc4;" horiz-adv-x="1308" d="M0 0v84q70 12 102 25q37 12 45 43l342 1044q45 35 60 43q23 12 67 33q23 10 68 26q12 4 35.5 10.5t28.5 8.5l419 -1165l13 -25q4 -8 20 -21q10 -6 35 -14q16 -4 53 -8v-84h-522v84q77 3 104 18q29 16 17 50l-99 274h-393l-90 -274q-8 -31 23 -46q29 -12 116 -22v-84h-444 zM438 555h305l-161 449zM278 1488q0 45 15 76q16 37 39 60q29 29 53 41q29 14 63 14q59 0 97 -33q35 -31 34 -96q0 -37 -14 -76q-12 -35 -37 -59q-29 -29 -53 -41q-29 -14 -66 -15q-63 0 -96 33q-35 35 -35 96zM708 1488q0 45 15 76q16 37 39 60q29 29 53 41q29 14 63 14 q59 0 97 -33q35 -31 34 -96q0 -37 -14 -76q-12 -35 -37 -59q-27 -27 -55.5 -41.5t-62.5 -14.5q-63 0 -97 33q-35 35 -35 96z" />
<glyph unicode="&#xc5;" horiz-adv-x="1308" d="M0 0v84q70 12 102 25q37 12 45 43l342 1044q45 35 60 43q23 12 67 33q23 10 68 26q12 4 35.5 10.5t28.5 8.5l419 -1165l13 -25q4 -8 20 -21q10 -6 35 -14q16 -4 53 -8v-84h-522v84q77 3 104 18q29 16 17 50l-99 274h-393l-90 -274q-8 -31 23 -46q29 -12 116 -22v-84h-444 zM438 555h305l-161 449zM428 1523q0 55 20 103q23 53 54 86q33 37 77 57q43 20 97 20q86 0 135 -51q49 -52 49 -135q0 -55 -20 -102q-23 -49 -54 -84q-33 -35 -80 -58q-43 -20 -94 -20q-40 0 -74 12q-35 12 -59.5 37t-36.5 57q-14 39 -14 78zM577 1564q0 -25 7 -39 q8 -20 14 -28.5t18 -16.5q9 -6 19 -6q37 0 57 27q18 25 18 61q0 23 -6 41q-6 16 -14 29q-6 8 -18 16q-6 4 -19 4q-20 0 -35 -8q-12 -8 -22 -20q-12 -16 -15 -29q-4 -21 -4 -31z" />
<glyph unicode="&#xc6;" horiz-adv-x="1673" d="M0 0v84q68 10 94 22q35 16 47 46l379 942q8 23 6 28q-2 10 -18 21q-8 4 -47 16q-31 9 -80 19v82h1147l41 -35q-3 -25 -6 -68q-4 -57 -9 -86q-2 -16 -7 -44l-7 -40q-6 -39 -12 -57h-86q-6 96 -25 147q-18 53 -57 53h-326v-395h396l36 -39q-4 -8 -9 -15t-11 -17.5 t-12.5 -19.5t-12.5 -19q-4 -8 -14 -22.5t-12 -16.5q-12 -18 -21 -27q-16 16 -35 25q-4 2 -17 8t-19.5 8t-15.5 6t-11 4q-6 2 -7 2t1 2h-236v-419q0 -10 8 -27q6 -10 29 -21q20 -8 64 -12q80 -6 106 -6h84q41 0 80 14q33 12 57 39q29 31 47 70q14 31 41 100l82 -28 q-2 -16 -5 -47t-5 -46q-2 -16 -5 -48.5t-5 -49.5q-2 -10 -5 -38.5t-5 -43.5q-2 -10 -4.5 -27.5t-4.5 -23.5h-972v84q74 16 100 29q33 14 33 30v471h-250l-189 -462q-12 -31 9 -46q18 -12 92 -22v-84h-416zM549 735h205v373q0 10 -6 16q-4 4 -17 4q-6 0 -18.5 -12t-16.5 -24z " />
<glyph unicode="&#xc7;" horiz-adv-x="1157" d="M49 586q0 156 51 291q49 129 136 221q88 94 204.5 143t255.5 49q59 0 109 -8q43 -8 104 -22q49 -12 92 -31q45 -18 68 -39q2 -2 0 -21q0 -4 -14 -41q-4 -10 -13.5 -28.5t-11.5 -24.5l-26 -53q-16 -33 -25 -47q-10 -18 -21 -29l-73 17q-49 102 -114.5 145t-137.5 43 q-52 0 -105 -25q-55 -27 -96 -84q-41 -59 -70 -161q-27 -98 -26 -258q0 -126 31 -215q31 -88 84 -148q51 -57 114 -84q61 -27 127 -26q29 0 66 6q43 6 80 20q53 18 92 41q49 29 100 70q4 -2 14 -17l17 -22l16 -23q8 -12 10 -14q-129 -129 -253 -184q-80 -37 -156 -50 l-27 -61q170 -31 170 -145q0 -37 -28.5 -72t-81.5 -66q-39 -23 -121 -49q-72 -23 -146 -28l-43 79q82 12 117 39q37 27 37 60t-23 49q-20 14 -61 18l4 4q3 3 12 25q12 27 25 64q4 16 12 36.5l17 42.5q-82 10 -152 39q-96 43 -172 121q-74 78 -121 193q-47 117 -47 260z" />
<glyph unicode="&#xc8;" horiz-adv-x="1095" d="M41 0v84q74 16 100 29q33 14 33 30v971q0 12 -31 31q-27 16 -102 33v82h905l43 -35q-3 -25 -6 -68q-2 -29 -10 -86l-12 -84q-6 -39 -13 -57h-86q-6 104 -24 147q-23 53 -58 53h-325v-395h395l37 -39q-8 -14 -20.5 -32.5t-24.5 -38.5q-16 -25 -25 -35q-14 -18 -22 -25 q-20 20 -33 27q-23 10 -41 16q-27 8 -53 10q-20 2 -72 3h-141v-426q0 -10 8 -27q6 -10 29 -21q22 -9 61 -12q80 -6 106 -6h89q41 0 79 14q33 12 58 39q23 27 45 70q14 31 41 100l84 -28q-2 -18 -5 -41t-6 -52q-2 -16 -5 -48.5t-5 -49.5l-12 -82q-2 -10 -4 -27.5t-4 -23.5 h-973zM199 1589l10 67q2 4 33 27q12 10 26.5 18.5t26.5 18.5q8 6 55 35l21.5 13t15.5 9l358 -356q-4 -4 -9 -11.5t-10 -13.5t-11 -12q-23 -23 -35 -29z" />
<glyph unicode="&#xc9;" horiz-adv-x="1095" d="M41 0v84q74 16 100 29q33 14 33 30v971q0 12 -31 31q-27 16 -102 33v82h905l43 -35q-3 -25 -6 -68q-2 -29 -10 -86l-12 -84q-6 -39 -13 -57h-86q-6 104 -24 147q-23 53 -58 53h-325v-395h395l37 -39q-8 -14 -20.5 -32.5t-24.5 -38.5q-16 -25 -25 -35q-14 -18 -22 -25 q-20 20 -33 27q-23 10 -41 16q-27 8 -53 10q-20 2 -72 3h-141v-426q0 -10 8 -27q6 -10 29 -21q22 -9 61 -12q80 -6 106 -6h89q41 0 79 14q33 12 58 39q23 27 45 70q14 31 41 100l84 -28q-2 -18 -5 -41t-6 -52q-2 -16 -5 -48.5t-5 -49.5l-12 -82q-2 -10 -4 -27.5t-4 -23.5 h-973zM340 1431l357 346l27.5 -14t31.5 -17l60 -36q6 -4 16 -11.5t18.5 -12.5t14.5 -9q29 -20 30 -23l9 -55l-490 -244q-9 3 -18 13q-2 2 -6.5 6t-8.5 7t-6 7t-8 11l-10 12q-4 6 -9.5 12t-7.5 8z" />
<glyph unicode="&#xca;" horiz-adv-x="1095" d="M41 0v84q74 16 100 29q33 14 33 30v971q0 12 -31 31q-27 16 -102 33v82h905l43 -35q-3 -25 -6 -68q-2 -29 -10 -86l-12 -84q-6 -39 -13 -57h-86q-6 104 -24 147q-23 53 -58 53h-325v-395h395l37 -39q-8 -14 -20.5 -32.5t-24.5 -38.5q-16 -25 -25 -35q-14 -18 -22 -25 q-20 20 -33 27q-23 10 -41 16q-27 8 -53 10q-20 2 -72 3h-141v-426q0 -10 8 -27q6 -10 29 -21q22 -9 61 -12q80 -6 106 -6h89q41 0 79 14q33 12 58 39q23 27 45 70q14 31 41 100l84 -28q-2 -18 -5 -41t-6 -52q-2 -16 -5 -48.5t-5 -49.5l-12 -82q-2 -10 -4 -27.5t-4 -23.5 h-973zM201 1421l282 330h127l283 -330q-16 -25 -29 -37q-23 -23 -34 -29l-283 150l-283 -150q-8 4 -32 29z" />
<glyph unicode="&#xcb;" horiz-adv-x="1095" d="M41 0v84q74 16 100 29q33 14 33 30v971q0 12 -31 31q-27 16 -102 33v82h905l43 -35q-3 -25 -6 -68q-2 -29 -10 -86l-12 -84q-6 -39 -13 -57h-86q-6 104 -24 147q-23 53 -58 53h-325v-395h395l37 -39q-8 -14 -20.5 -32.5t-24.5 -38.5q-16 -25 -25 -35q-14 -18 -22 -25 q-20 20 -33 27q-23 10 -41 16q-27 8 -53 10q-20 2 -72 3h-141v-426q0 -10 8 -27q6 -10 29 -21q22 -9 61 -12q80 -6 106 -6h89q41 0 79 14q33 12 58 39q23 27 45 70q14 31 41 100l84 -28q-2 -18 -5 -41t-6 -52q-2 -16 -5 -48.5t-5 -49.5l-12 -82q-2 -10 -4 -27.5t-4 -23.5 h-973zM182 1488q0 45 15 76q16 37 39 60q29 29 53 41q29 14 63 14q59 0 97 -33q35 -31 34 -96q0 -37 -14 -76q-12 -35 -37 -59q-29 -29 -53 -41q-29 -14 -66 -15q-63 0 -96 33q-35 35 -35 96zM612 1488q0 45 15 76q16 37 39 60q29 29 53 41q29 14 63 14q59 0 97 -33 q35 -31 34 -96q0 -37 -14 -76q-12 -35 -37 -59q-27 -27 -55.5 -41.5t-62.5 -14.5q-63 0 -97 33q-35 35 -35 96z" />
<glyph unicode="&#xcc;" horiz-adv-x="688" d="M59 0v84q78 18 103 29q33 14 33 30v971q0 12 -31 31q-27 16 -105 33v82h551v-82q-80 -18 -102 -31q-33 -18 -33 -33v-971q0 -10 31 -28q20 -12 104 -31v-84h-551zM-14 1589l10 67q2 4 33 27q12 10 26.5 18.5t26.5 18.5q8 6 55 35l21.5 13t15.5 9l358 -356q-4 -4 -9 -11.5 t-10 -13.5t-11 -12q-23 -23 -35 -29z" />
<glyph unicode="&#xcd;" horiz-adv-x="688" d="M59 0v84q78 18 103 29q33 14 33 30v971q0 12 -31 31q-27 16 -105 33v82h551v-82q-80 -18 -102 -31q-33 -18 -33 -33v-971q0 -10 31 -28q20 -12 104 -31v-84h-551zM129 1431l357 346l27.5 -14t31.5 -17l60 -36q6 -4 16 -11.5t18.5 -12.5t14.5 -9q29 -20 30 -23l9 -55 l-490 -244q-9 3 -18 13q-2 2 -6.5 6t-8.5 7t-6 7t-8 11l-10 12q-4 6 -9.5 12t-7.5 8z" />
<glyph unicode="&#xce;" horiz-adv-x="688" d="M59 0v84q78 18 103 29q33 14 33 30v971q0 12 -31 31q-27 16 -105 33v82h551v-82q-80 -18 -102 -31q-33 -18 -33 -33v-971q0 -10 31 -28q20 -12 104 -31v-84h-551zM-10 1421l282 330h127l283 -330q-16 -25 -29 -37q-23 -23 -34 -29l-283 150l-283 -150q-8 4 -32 29z" />
<glyph unicode="&#xcf;" horiz-adv-x="688" d="M59 0v84q78 18 103 29q33 14 33 30v971q0 12 -31 31q-27 16 -105 33v82h551v-82q-80 -18 -102 -31q-33 -18 -33 -33v-971q0 -10 31 -28q20 -12 104 -31v-84h-551zM-31 1488q0 45 15 76q16 37 39 60q29 29 53 41q29 14 63 14q59 0 97 -33q35 -31 34 -96q0 -37 -14 -76 q-12 -35 -37 -59q-29 -29 -53 -41q-29 -14 -66 -15q-63 0 -96 33q-35 35 -35 96zM399 1488q0 45 15 76q16 37 39 60q29 29 53 41q29 14 63 14q59 0 97 -33q35 -31 34 -96q0 -37 -14 -76q-12 -35 -37 -59q-27 -27 -55.5 -41.5t-62.5 -14.5q-63 0 -97 33q-35 35 -35 96z" />
<glyph unicode="&#xd0;" horiz-adv-x="1333" d="M27 1231q25 6 120 22q8 2 150 19q102 12 156 14q106 4 145 4q164 0 281 -41q125 -43 204 -121q86 -82 127 -192q43 -113 43 -260q0 -117 -26 -223q-23 -90 -70 -174q-39 -72 -104 -129q-57 -51 -127 -87q-61 -31 -142 -47q-78 -16 -145 -16h-598v84q74 16 100 29 q33 14 33 30v471h-125l-20 25q0 2 2 9l4 14q4 14 10 30.5t12 30.5t9 22h108v402l-133 -19zM455 190q0 -20 2 -30q2 -14 16 -24.5t41 -16.5q18 -4 84 -4q51 0 115 28q66 31 116 93q51 63 89 161q35 92 34 240q0 266 -108 403q-106 135 -322 136h-33q-6 0 -17 -1t-17 -1v-429 h235l25 -22l-39 -109h-221v-424z" />
<glyph unicode="&#xd1;" horiz-adv-x="1368" d="M41 0v84q74 8 102 27q31 18 31 32v959q-20 20 -65 49q-31 20 -68 27v82h301q18 0 25 -3q12 -4 18 -10q14 -14 23 -24l8 -11.5t9 -11.5t13 -18l596 -830v762q0 8 -6 16q-4 6 -20 17q-4 2 -41 16q-18 6 -68 15v82h430v-82q-70 -8 -102.5 -29t-32.5 -35v-1145q-51 2 -98 17 q-57 16 -80 26q-37 16 -60 37q-31 27 -41 41l-579 805v-752q0 -4 6 -14q4 -4 23 -16q4 -2 41 -17q12 -4 63 -12v-84h-428zM275 1388l45 94q23 49 59.5 98.5t75.5 77.5q43 31 90 31t92 -16q29 -10 82 -35l35.5 -17.5t42.5 -19.5q35 -14 72 -14q45 0 77 26q34 28 68 86l84 -32 l-21.5 -43t-23.5 -50q-23 -49 -60 -98q-33 -45 -75.5 -75.5t-89.5 -30.5q-43 0 -89 16q-29 10 -81 35q-63 29 -78 35q-43 16 -78 16q-18 0 -43 -8q-23 -6 -35 -21q-29 -27 -33 -34l-32 -50z" />
<glyph unicode="&#xd2;" horiz-adv-x="1288" d="M49 612q0 129 45 258q43 123 125 217q80 92 194.5 147.5t250.5 55.5q133 0 237.5 -55t173.5 -143q68 -86 107 -207q37 -117 37 -238q0 -86 -23 -176q-18 -72 -63 -160q-39 -76 -97 -139q-49 -55 -125 -106q-63 -43 -145 -70q-84 -27 -162 -27q-123 0 -229 54 q-104 51 -176 143q-72 90 -111 204.5t-39 241.5zM336 641q0 -111 24 -209q25 -96 68 -168q45 -74 102 -112q59 -41 123 -41q59 0 113 30q49 29 88 97q35 61 57 161q23 102 23 230q0 104 -24.5 198.5t-67.5 167.5q-45 76 -103 117q-61 43 -135 43q-66 0 -117 -35 q-49 -33 -84 -100q-31 -59 -51 -162q-16 -84 -16 -217zM297 1589l10 67q2 4 33 27q12 10 26.5 18.5t26.5 18.5q8 6 55 35l21.5 13t15.5 9l358 -356q-4 -4 -9 -11.5t-10 -13.5t-11 -12q-23 -23 -35 -29z" />
<glyph unicode="&#xd3;" horiz-adv-x="1288" d="M49 612q0 129 45 258q43 123 125 217q80 92 194.5 147.5t250.5 55.5q133 0 237.5 -55t173.5 -143q68 -86 107 -207q37 -117 37 -238q0 -86 -23 -176q-18 -72 -63 -160q-39 -76 -97 -139q-49 -55 -125 -106q-63 -43 -145 -70q-84 -27 -162 -27q-123 0 -229 54 q-104 51 -176 143q-72 90 -111 204.5t-39 241.5zM336 641q0 -111 24 -209q25 -96 68 -168q45 -74 102 -112q59 -41 123 -41q59 0 113 30q49 29 88 97q35 61 57 161q23 102 23 230q0 104 -24.5 198.5t-67.5 167.5q-45 76 -103 117q-61 43 -135 43q-66 0 -117 -35 q-49 -33 -84 -100q-31 -59 -51 -162q-16 -84 -16 -217zM440 1431l357 346l27.5 -14t31.5 -17l60 -36q6 -4 16 -11.5t18.5 -12.5t14.5 -9q29 -20 30 -23l9 -55l-490 -244q-9 3 -18 13q-2 2 -6.5 6t-8.5 7t-6 7t-8 11l-10 12q-4 6 -9.5 12t-7.5 8z" />
<glyph unicode="&#xd4;" horiz-adv-x="1288" d="M49 612q0 129 45 258q43 123 125 217q80 92 194.5 147.5t250.5 55.5q133 0 237.5 -55t173.5 -143q68 -86 107 -207q37 -117 37 -238q0 -86 -23 -176q-18 -72 -63 -160q-39 -76 -97 -139q-49 -55 -125 -106q-63 -43 -145 -70q-84 -27 -162 -27q-123 0 -229 54 q-104 51 -176 143q-72 90 -111 204.5t-39 241.5zM336 641q0 -111 24 -209q25 -96 68 -168q45 -74 102 -112q59 -41 123 -41q59 0 113 30q49 29 88 97q35 61 57 161q23 102 23 230q0 104 -24.5 198.5t-67.5 167.5q-45 76 -103 117q-61 43 -135 43q-66 0 -117 -35 q-49 -33 -84 -100q-31 -59 -51 -162q-16 -84 -16 -217zM299 1421l282 330h127l283 -330q-16 -25 -29 -37q-23 -23 -34 -29l-283 150l-283 -150q-8 4 -32 29z" />
<glyph unicode="&#xd5;" horiz-adv-x="1288" d="M49 612q0 129 45 258q43 123 125 217q80 92 194.5 147.5t250.5 55.5q133 0 237.5 -55t173.5 -143q68 -86 107 -207q37 -117 37 -238q0 -86 -23 -176q-18 -72 -63 -160q-39 -76 -97 -139q-49 -55 -125 -106q-63 -43 -145 -70q-84 -27 -162 -27q-123 0 -229 54 q-104 51 -176 143q-72 90 -111 204.5t-39 241.5zM336 641q0 -111 24 -209q25 -96 68 -168q45 -74 102 -112q59 -41 123 -41q59 0 113 30q49 29 88 97q35 61 57 161q23 102 23 230q0 104 -24.5 198.5t-67.5 167.5q-45 76 -103 117q-61 43 -135 43q-66 0 -117 -35 q-49 -33 -84 -100q-31 -59 -51 -162q-16 -84 -16 -217zM236 1388l45 94q23 49 59.5 98.5t75.5 77.5q43 31 90 31t92 -16q29 -10 82 -35l35.5 -17.5t42.5 -19.5q35 -14 72 -14q45 0 77 26q34 28 68 86l84 -32l-21.5 -43t-23.5 -50q-23 -49 -60 -98q-33 -45 -75.5 -75.5 t-89.5 -30.5q-43 0 -89 16q-29 10 -81 35q-63 29 -78 35q-43 16 -78 16q-18 0 -43 -8q-23 -6 -35 -21q-29 -27 -33 -34l-32 -50z" />
<glyph unicode="&#xd6;" horiz-adv-x="1288" d="M49 612q0 129 45 258q43 123 125 217q80 92 194.5 147.5t250.5 55.5q133 0 237.5 -55t173.5 -143q68 -86 107 -207q37 -117 37 -238q0 -86 -23 -176q-18 -72 -63 -160q-39 -76 -97 -139q-49 -55 -125 -106q-63 -43 -145 -70q-84 -27 -162 -27q-123 0 -229 54 q-104 51 -176 143q-72 90 -111 204.5t-39 241.5zM336 641q0 -111 24 -209q25 -96 68 -168q45 -74 102 -112q59 -41 123 -41q59 0 113 30q49 29 88 97q35 61 57 161q23 102 23 230q0 104 -24.5 198.5t-67.5 167.5q-45 76 -103 117q-61 43 -135 43q-66 0 -117 -35 q-49 -33 -84 -100q-31 -59 -51 -162q-16 -84 -16 -217zM280 1488q0 45 15 76q16 37 39 60q29 29 53 41q29 14 63 14q59 0 97 -33q35 -31 34 -96q0 -37 -14 -76q-12 -35 -37 -59q-29 -29 -53 -41q-29 -14 -66 -15q-63 0 -96 33q-35 35 -35 96zM710 1488q0 45 15 76 q16 37 39 60q29 29 53 41q29 14 63 14q59 0 97 -33q35 -31 34 -96q0 -37 -14 -76q-12 -35 -37 -59q-27 -27 -55.5 -41.5t-62.5 -14.5q-63 0 -97 33q-35 35 -35 96z" />
<glyph unicode="&#xd7;" horiz-adv-x="868" d="M80 281v34l246 248l-246 248v33q6 2 26.5 12t38.5 16l37 13l15.5 5t13.5 5l223 -223l223 223q4 -2 13.5 -5l15.5 -5l12.5 -4t12.5 -3t14 -6q12 -4 37 -16q16 -8 29 -12v-33l-248 -250l248 -246v-34q-4 -2 -11.5 -4.5t-17.5 -6.5q-18 -8 -39 -16q-31 -12 -37 -14t-15 -6.5 t-12 -4.5l-225 226l-223 -226q-2 0 -11.5 4.5t-15.5 6.5t-37 14q-20 8 -38 16q-10 4 -17.5 6.5t-11.5 4.5z" />
<glyph unicode="&#xd8;" horiz-adv-x="1288" d="M49 612q0 129 45 258q43 123 125 217q80 92 194.5 147.5t250.5 55.5q82 0 159 -22q68 -20 133 -66l48 62q4 2 36 16q14 6 47 14q6 2 15.5 5.5t17.5 5.5t17 2q23 2 39 6l32 -37l-135 -182q74 -96 109 -207q37 -117 37 -240q0 -86 -23 -176q-18 -72 -63 -160 q-39 -76 -97 -139q-49 -55 -125 -106q-63 -43 -145 -70q-84 -27 -162 -27q-84 0 -158 25q-80 27 -135 65l-45 -61q-8 -8 -30 -16q-33 -12 -52 -17q-37 -8 -53 -12q-25 -6 -39 -6l-33 39l138 184q-72 92 -109 203q-39 120 -39 239zM336 641q0 -74 8 -125q8 -55 25 -113 l456 619q-43 61 -98 98q-51 35 -123 35q-66 0 -117 -35q-49 -33 -84 -100q-31 -59 -51 -162q-16 -84 -16 -217zM444 240q43 -61 97 -97q51 -33 112 -32q59 0 113 30q49 29 88 97q35 61 57 161q23 102 23 230q0 53 -10 119q-10 68 -23 110z" />
<glyph unicode="&#xd9;" horiz-adv-x="1378" d="M41 1178v82h549v-82q-76 -16 -101 -31q-35 -18 -34 -33v-600q0 -100 14 -170q14 -66 51 -121q34 -49 92 -73q59 -25 144 -25q72 0 118 31q45 31 74 84q29 55 41 120q10 57 10 144v610q0 12 -30 31q-27 16 -105 33v82h461v-82q-80 -18 -102 -31q-33 -18 -33 -33v-590 q0 -131 -39 -233q-41 -104 -107 -174q-70 -74 -157 -109q-96 -39 -201 -39q-100 0 -197 29q-86 27 -161 88q-74 61 -113 147q-41 92 -41 211v670q0 12 -31 31q-26 17 -102 33zM348 1589l10 67q2 4 33 27q12 10 26.5 18.5t26.5 18.5q8 6 55 35l21.5 13t15.5 9l358 -356 q-4 -4 -9 -11.5t-10 -13.5t-11 -12q-23 -23 -35 -29z" />
<glyph unicode="&#xda;" horiz-adv-x="1378" d="M41 1178v82h549v-82q-76 -16 -101 -31q-35 -18 -34 -33v-600q0 -100 14 -170q14 -66 51 -121q34 -49 92 -73q59 -25 144 -25q72 0 118 31q45 31 74 84q29 55 41 120q10 57 10 144v610q0 12 -30 31q-27 16 -105 33v82h461v-82q-80 -18 -102 -31q-33 -18 -33 -33v-590 q0 -131 -39 -233q-41 -104 -107 -174q-70 -74 -157 -109q-96 -39 -201 -39q-100 0 -197 29q-86 27 -161 88q-74 61 -113 147q-41 92 -41 211v670q0 12 -31 31q-26 17 -102 33zM489 1431l357 346l27.5 -14t31.5 -17l60 -36q6 -4 16 -11.5t18.5 -12.5t14.5 -9q29 -20 30 -23 l9 -55l-490 -244q-9 3 -18 13q-2 2 -6.5 6t-8.5 7t-6 7t-8 11l-10 12q-4 6 -9.5 12t-7.5 8z" />
<glyph unicode="&#xdb;" horiz-adv-x="1378" d="M41 1178v82h549v-82q-76 -16 -101 -31q-35 -18 -34 -33v-600q0 -100 14 -170q14 -66 51 -121q34 -49 92 -73q59 -25 144 -25q72 0 118 31q45 31 74 84q29 55 41 120q10 57 10 144v610q0 12 -30 31q-27 16 -105 33v82h461v-82q-80 -18 -102 -31q-33 -18 -33 -33v-590 q0 -131 -39 -233q-41 -104 -107 -174q-70 -74 -157 -109q-96 -39 -201 -39q-100 0 -197 29q-86 27 -161 88q-74 61 -113 147q-41 92 -41 211v670q0 12 -31 31q-26 17 -102 33zM350 1421l282 330h127l283 -330q-16 -25 -29 -37q-23 -23 -34 -29l-283 150l-283 -150 q-8 4 -32 29z" />
<glyph unicode="&#xdc;" horiz-adv-x="1378" d="M41 1178v82h549v-82q-76 -16 -101 -31q-35 -18 -34 -33v-600q0 -100 14 -170q14 -66 51 -121q34 -49 92 -73q59 -25 144 -25q72 0 118 31q45 31 74 84q29 55 41 120q10 57 10 144v610q0 12 -30 31q-27 16 -105 33v82h461v-82q-80 -18 -102 -31q-33 -18 -33 -33v-590 q0 -131 -39 -233q-41 -104 -107 -174q-70 -74 -157 -109q-96 -39 -201 -39q-100 0 -197 29q-86 27 -161 88q-74 61 -113 147q-41 92 -41 211v670q0 12 -31 31q-26 17 -102 33zM331 1488q0 45 15 76q16 37 39 60q29 29 53 41q29 14 63 14q59 0 97 -33q35 -31 34 -96 q0 -37 -14 -76q-12 -35 -37 -59q-29 -29 -53 -41q-29 -14 -66 -15q-63 0 -96 33q-35 35 -35 96zM761 1488q0 45 15 76q16 37 39 60q29 29 53 41q29 14 63 14q59 0 97 -33q35 -31 34 -96q0 -37 -14 -76q-12 -35 -37 -59q-27 -27 -55.5 -41.5t-62.5 -14.5q-63 0 -97 33 q-35 35 -35 96z" />
<glyph unicode="&#xdd;" horiz-adv-x="1265" d="M0 1239q29 4 68 10q53 8 79 11q53 4 76 6q45 4 56 4q31 0 61 -13q25 -10 47 -36q47 -61 78 -113q23 -35 80 -135q41 -72 80 -148l73 -147l224 432q16 25 -11 41q-29 18 -100 27v82h426v-82q-37 -6 -59 -13q-10 -2 -24.5 -8t-16.5 -6q-8 -2 -29 -18q-12 -8 -18 -23 l-316 -596v-358q0 -4 6 -15q6 -9 25 -18q29 -14 49 -21q33 -10 76 -18v-84h-590v84q43 8 76 18q27 8 47 19q18 9 24 18q6 8 7 17v370q-41 90 -80 164q-43 84 -88 162l-90 145q-31 49 -78 113q-6 8 -19 20q-8 8 -24 15q-10 4 -43 8q-16 2 -68 2zM428 1431l357 346l27.5 -14 t31.5 -17l60 -36q6 -4 16 -11.5t18.5 -12.5t14.5 -9q29 -20 30 -23l9 -55l-490 -244q-9 3 -18 13q-2 2 -6.5 6t-8.5 7t-6 7t-8 11l-10 12q-4 6 -9.5 12t-7.5 8z" />
<glyph unicode="&#xde;" horiz-adv-x="1189" d="M39 0v84q78 18 102 29q33 14 33 30v971q0 12 -31 31q-27 16 -104 33v82h582v-82q-47 -8 -84 -19q-45 -12 -52 -14q-14 -6 -24 -15q-6 -6 -6 -16v-88q23 2 69 2q12 0 34 1t32 1q115 0 217 -22q92 -20 168 -70q68 -43 108 -111q39 -63 39 -151q0 -100 -41 -182t-104 -134 q-66 -53 -139 -79q-68 -25 -146 -25q-45 0 -90 6q-43 6 -80 23l-33 114q39 -18 70 -24q18 -4 63.5 -4t82.5 14q33 12 67 47q27 27 47 82q18 49 19 121q0 63 -23 119q-20 51 -61 88q-37 35 -95 53q-55 18 -127 18h-36q-6 0 -19.5 -1t-21.5 -1v-768q0 -6 6 -12q4 -4 24 -14 q12 -6 50 -17q12 -4 86 -16v-84h-582z" />
<glyph unicode="&#xdf;" horiz-adv-x="1331" d="M45 0v84q72 12 98 29q31 18 31 28v799q0 113 27 207q25 88 63 147q41 63 84 101q47 41 84 63q66 39 141 66q78 27 170.5 26.5t178.5 -33t137 -81.5q61 -57 88 -115q31 -63 31 -131q0 -76 -27 -133q-23 -49 -64 -86q-33 -31 -81 -53l-46.5 -22.5l-37.5 -18.5 q-41 -20 -64 -43q-25 -25 -24 -64q0 -47 32 -80q34 -34 86.5 -61.5t110.5 -55t111 -67.5q49 -37 83 -92q35 -53 35 -131q0 -68 -26.5 -123.5t-77.5 -98.5q-52 -43 -129 -67q-76 -25 -180 -25q-51 0 -95 8q-53 10 -90 21q-53 14 -71 22q-27 10 -35 23q-8 8 -10 31 q-2 16 -3 55v70q0 45 3 67l5 30.5t3 25.5q4 27 8 30l92 -10q23 -115 86 -180q58 -61 135 -62q61 0 98 25t37 82q0 43 -20 80q-20 39 -51 63q-34 28 -74 49q-16 8 -37.5 21.5t-46.5 25.5q-51 25 -86 48q-33 20 -72 59q-37 37 -53 76q-18 43 -18 100q0 61 22 98q27 43 60 68 q41 31 77 49q53 27 78 43q33 23 60 55q25 31 24 80q0 61 -20 117q-18 49 -54 84q-37 37 -81 53q-49 18 -105 19q-39 0 -78 -17q-35 -14 -63 -59q-27 -43 -43 -121q-16 -82 -17 -203v-995h-399z" />
<glyph unicode="&#xe0;" d="M59 207q0 65 25 110q27 49 61 84q29 29 56 48q29 20 84 43q33 12 135 40q72 18 203 39v111q0 39 -5 55q-4 20 -20 43q-12 18 -36.5 28.5t-55.5 10.5q-25 0 -43 -8q-25 -10 -39 -25q-16 -16 -25 -38q-10 -29 -8 -54q0 -8 -16 -16q-18 -9 -49 -19q-6 -2 -29 -9l-37 -11 q-8 -2 -31.5 -9t-35.5 -9q-10 -2 -30 -6.5t-28 -6.5q-29 -4 -33 -2l-24 60q25 63 78 116q49 49 124.5 92.5t157.5 63.5q90 23 176 23q68 0 125 -21q53 -18 88 -53t50 -78q16 -49 16 -96v-455q0 -45 10 -59q12 -18 31 -19h12q6 0 19 4q18 6 22 9l35 14l25 -84 q-82 -53 -91 -57q-53 -31 -94 -50q-35 -16 -84 -32q-43 -14 -55 -15q-39 0 -66 43q-27 41 -32 113q-43 -43 -93 -76q-43 -29 -86 -47t-81 -25q-53 -8 -72 -8q-41 0 -86 17q-39 14 -74 45q-31 27 -53 73q-21 42 -21 103zM344 268q0 -35 8 -53t23 -33q8 -8 28 -16q14 -6 29 -6 q8 0 33 4q20 4 41 12q14 6 51 31q33 23 66 49v211q-55 -10 -91 -18q-53 -14 -61 -17q-27 -10 -41 -18q-16 -8 -29 -23q-25 -27 -41 -53q-16 -29 -16 -70zM213 1413l33 62q6 3 25 6q18 4 43 8q8 2 26.5 5t26.5 5q14 2 26.5 5t24.5 5q16 2 45 7l29 4l211 -433q-4 -4 -21 -12 q-12 -8 -26 -16q-10 -4 -26.5 -12.5t-22.5 -10.5z" />
<glyph unicode="&#xe1;" d="M59 207q0 65 25 110q27 49 61 84q29 29 56 48q29 20 84 43q33 12 135 40q72 18 203 39v111q0 39 -5 55q-4 20 -20 43q-12 18 -36.5 28.5t-55.5 10.5q-25 0 -43 -8q-25 -10 -39 -25q-16 -16 -25 -38q-10 -29 -8 -54q0 -8 -16 -16q-18 -9 -49 -19q-6 -2 -29 -9l-37 -11 q-8 -2 -31.5 -9t-35.5 -9q-10 -2 -30 -6.5t-28 -6.5q-29 -4 -33 -2l-24 60q25 63 78 116q49 49 124.5 92.5t157.5 63.5q90 23 176 23q68 0 125 -21q53 -18 88 -53t50 -78q16 -49 16 -96v-455q0 -45 10 -59q12 -18 31 -19h12q6 0 19 4q18 6 22 9l35 14l25 -84 q-82 -53 -91 -57q-53 -31 -94 -50q-35 -16 -84 -32q-43 -14 -55 -15q-39 0 -66 43q-27 41 -32 113q-43 -43 -93 -76q-43 -29 -86 -47t-81 -25q-53 -8 -72 -8q-41 0 -86 17q-39 14 -74 45q-31 27 -53 73q-21 42 -21 103zM344 268q0 -35 8 -53t23 -33q8 -8 28 -16q14 -6 29 -6 q8 0 33 4q20 4 41 12q14 6 51 31q33 23 66 49v211q-55 -10 -91 -18q-53 -14 -61 -17q-27 -10 -41 -18q-16 -8 -29 -23q-25 -27 -41 -53q-16 -29 -16 -70zM365 1085l202 435q4 0 6 -1t8.5 -2t14.5 -1q12 -2 45 -7q20 -2 55 -10q29 -4 54 -8q8 -2 24.5 -5t22.5 -3q20 -2 26 -6 l33 -60l-395 -381q-2 0 -23 8q-6 2 -14 6.5t-14.5 6.5t-14.5 8t-12 8q-12 6 -18 12z" />
<glyph unicode="&#xe2;" d="M59 207q0 65 25 110q27 49 61 84q29 29 56 48q29 20 84 43q33 12 135 40q72 18 203 39v111q0 39 -5 55q-4 20 -20 43q-12 18 -36.5 28.5t-55.5 10.5q-25 0 -43 -8q-25 -10 -39 -25q-16 -16 -25 -38q-10 -29 -8 -54q0 -8 -16 -16q-18 -9 -49 -19q-6 -2 -29 -9l-37 -11 q-8 -2 -31.5 -9t-35.5 -9q-10 -2 -30 -6.5t-28 -6.5q-29 -4 -33 -2l-24 60q25 63 78 116q49 49 124.5 92.5t157.5 63.5q90 23 176 23q68 0 125 -21q53 -18 88 -53t50 -78q16 -49 16 -96v-455q0 -45 10 -59q12 -18 31 -19h12q6 0 19 4q18 6 22 9l35 14l25 -84 q-82 -53 -91 -57q-53 -31 -94 -50q-35 -16 -84 -32q-43 -14 -55 -15q-39 0 -66 43q-27 41 -32 113q-43 -43 -93 -76q-43 -29 -86 -47t-81 -25q-53 -8 -72 -8q-41 0 -86 17q-39 14 -74 45q-31 27 -53 73q-21 42 -21 103zM344 268q0 -35 8 -53t23 -33q8 -8 28 -16q14 -6 29 -6 q8 0 33 4q20 4 41 12q14 6 51 31q33 23 66 49v211q-55 -10 -91 -18q-53 -14 -61 -17q-27 -10 -41 -18q-16 -8 -29 -23q-25 -27 -41 -53q-16 -29 -16 -70zM170 1112l282 389h148l272 -389q-2 -4 -7 -12l-10 -15.5t-12 -15.5q-18 -25 -34 -33l-283 209l-283 -209q-6 2 -16 13 l-6 6t-8 7t-6.5 7t-10.5 11t-10 12q-10 12 -16 20z" />
<glyph unicode="&#xe3;" d="M59 207q0 65 25 110q27 49 61 84q29 29 56 48q29 20 84 43q33 12 135 40q72 18 203 39v111q0 39 -5 55q-4 20 -20 43q-12 18 -36.5 28.5t-55.5 10.5q-25 0 -43 -8q-25 -10 -39 -25q-16 -16 -25 -38q-10 -29 -8 -54q0 -8 -16 -16q-18 -9 -49 -19q-6 -2 -29 -9l-37 -11 q-8 -2 -31.5 -9t-35.5 -9q-10 -2 -30 -6.5t-28 -6.5q-29 -4 -33 -2l-24 60q25 63 78 116q49 49 124.5 92.5t157.5 63.5q90 23 176 23q68 0 125 -21q53 -18 88 -53t50 -78q16 -49 16 -96v-455q0 -45 10 -59q12 -18 31 -19h12q6 0 19 4q18 6 22 9l35 14l25 -84 q-82 -53 -91 -57q-53 -31 -94 -50q-35 -16 -84 -32q-43 -14 -55 -15q-39 0 -66 43q-27 41 -32 113q-43 -43 -93 -76q-43 -29 -86 -47t-81 -25q-53 -8 -72 -8q-41 0 -86 17q-39 14 -74 45q-31 27 -53 73q-21 42 -21 103zM344 268q0 -35 8 -53t23 -33q8 -8 28 -16q14 -6 29 -6 q8 0 33 4q20 4 41 12q14 6 51 31q33 23 66 49v211q-55 -10 -91 -18q-53 -14 -61 -17q-27 -10 -41 -18q-16 -8 -29 -23q-25 -27 -41 -53q-16 -29 -16 -70zM115 1110l21 43l24 49q23 49 59.5 98.5t75.5 77.5q43 31 90 31q51 0 92 -14q8 -4 82 -37q53 -25 78 -35q39 -16 72 -16 q45 0 77 26q34 28 68 86l84 -33q-6 -14 -21.5 -44.5t-23.5 -47.5q-20 -43 -60 -96q-37 -49 -75 -78q-43 -31 -90 -30q-43 0 -89 16q-29 10 -81 35q-6 2 -34 16t-44 21q-43 16 -78 16q-18 0 -43 -8q-18 -6 -35 -23q-29 -29 -33 -35l-32 -49z" />
<glyph unicode="&#xe4;" d="M59 207q0 65 25 110q27 49 61 84q29 29 56 48q29 20 84 43q33 12 135 40q72 18 203 39v111q0 39 -5 55q-4 20 -20 43q-12 18 -36.5 28.5t-55.5 10.5q-25 0 -43 -8q-25 -10 -39 -25q-16 -16 -25 -38q-10 -29 -8 -54q0 -8 -16 -16q-18 -9 -49 -19q-6 -2 -29 -9l-37 -11 q-8 -2 -31.5 -9t-35.5 -9q-10 -2 -30 -6.5t-28 -6.5q-29 -4 -33 -2l-24 60q25 63 78 116q49 49 124.5 92.5t157.5 63.5q90 23 176 23q68 0 125 -21q53 -18 88 -53t50 -78q16 -49 16 -96v-455q0 -45 10 -59q12 -18 31 -19h12q6 0 19 4q18 6 22 9l35 14l25 -84 q-82 -53 -91 -57q-53 -31 -94 -50q-35 -16 -84 -32q-43 -14 -55 -15q-39 0 -66 43q-27 41 -32 113q-43 -43 -93 -76q-43 -29 -86 -47t-81 -25q-53 -8 -72 -8q-41 0 -86 17q-39 14 -74 45q-31 27 -53 73q-21 42 -21 103zM344 268q0 -35 8 -53t23 -33q8 -8 28 -16q14 -6 29 -6 q8 0 33 4q20 4 41 12q14 6 51 31q33 23 66 49v211q-55 -10 -91 -18q-53 -14 -61 -17q-27 -10 -41 -18q-16 -8 -29 -23q-25 -27 -41 -53q-16 -29 -16 -70zM159 1210q0 43 15 74q16 37 39 59q29 29 53 41q33 16 63 17q59 0 97 -33q35 -31 34 -98q0 -35 -14 -74t-37 -61 q-25 -25 -53 -39q-33 -16 -66 -17q-63 0 -96 33q-35 35 -35 98zM589 1210q0 43 15 74q16 37 39 59q29 29 53 41q33 16 63 17q59 0 97 -33q35 -31 34 -98q0 -35 -14 -74t-36.5 -61.5t-55.5 -39t-63 -16.5q-63 0 -97 33q-35 35 -35 98z" />
<glyph unicode="&#xe5;" d="M59 207q0 65 25 110q27 49 61 84q29 29 56 48q29 20 84 43q33 12 135 40q72 18 203 39v111q0 39 -5 55q-4 20 -20 43q-12 18 -36.5 28.5t-55.5 10.5q-25 0 -43 -8q-25 -10 -39 -25q-16 -16 -25 -38q-10 -29 -8 -54q0 -8 -16 -16q-18 -9 -49 -19q-6 -2 -29 -9l-37 -11 q-8 -2 -31.5 -9t-35.5 -9q-10 -2 -30 -6.5t-28 -6.5q-29 -4 -33 -2l-24 60q25 63 78 116q49 49 124.5 92.5t157.5 63.5q90 23 176 23q68 0 125 -21q53 -18 88 -53t50 -78q16 -49 16 -96v-455q0 -45 10 -59q12 -18 31 -19h12q6 0 19 4q18 6 22 9l35 14l25 -84 q-82 -53 -91 -57q-53 -31 -94 -50q-35 -16 -84 -32q-43 -14 -55 -15q-39 0 -66 43q-27 41 -32 113q-43 -43 -93 -76q-43 -29 -86 -47t-81 -25q-53 -8 -72 -8q-41 0 -86 17q-39 14 -74 45q-31 27 -53 73q-21 42 -21 103zM344 268q0 -35 8 -53t23 -33q8 -8 28 -16q14 -6 29 -6 q8 0 33 4q20 4 41 12q14 6 51 31q33 23 66 49v211q-55 -10 -91 -18q-53 -14 -61 -17q-27 -10 -41 -18q-16 -8 -29 -23q-25 -27 -41 -53q-16 -29 -16 -70zM309 1204q0 55 20 103q23 53 54 86q33 37 77 57q43 20 97 20q86 0 135 -51q49 -52 49 -135q0 -55 -20 -102 q-23 -49 -54 -84q-33 -35 -80 -58q-43 -20 -94 -20q-40 0 -74 12q-35 12 -59.5 37t-36.5 57q-14 39 -14 78zM458 1245q0 -25 7 -39q8 -20 14 -28.5t18 -16.5q9 -6 19 -6q37 0 57 27q18 25 18 61q0 23 -6 41q-6 16 -14 29q-6 8 -18 16q-6 4 -19 4q-20 0 -35 -8 q-12 -8 -22 -20q-12 -16 -15 -29q-4 -21 -4 -31z" />
<glyph unicode="&#xe6;" horiz-adv-x="1527" d="M59 207q0 55 23 112q18 47 70 99q41 41 122 82q66 33 179 59q14 4 32 6q8 2 22.5 3t22.5 1q33 4 52 4q8 0 26.5 1t26.5 1v76q0 49 -8 80q-8 33 -25 51q-16 20 -37 29q-18 8 -49 8q-27 0 -49 -8q-33 -12 -47 -23q-20 -14 -31 -38q-10 -23 -4 -54q0 -8 -16 -16 q-29 -14 -47 -21l-64 -20q-6 -2 -29.5 -9t-35.5 -9q-41 -8 -58 -11q-29 -4 -33 -2l-24 58q25 59 63 100q43 47 86 78q37 27 101 53q55 23 100 37q43 14 96 20q46 6 80 7q74 0 127 -21q57 -23 94 -72q63 49 140 72q68 20 133 21q86 0 155.5 -35t116.5 -90q49 -59 74 -131 q25 -74 24 -158q-14 -14 -26 -23l-37 -24q-20 -12 -41 -23q-10 -6 -37 -16h-442v-12q0 -45 14 -95q15 -52 43 -98q23 -37 74 -74q43 -31 104 -30q31 0 62 6q20 4 65 20q29 10 74 35l84 53l14 -14q4 -4 17 -21q4 -6 8 -11t8 -11l4 -8t4 -6q-68 -72 -110 -107 q-51 -41 -101 -70q-37 -20 -104 -36q-51 -12 -119 -13q-45 0 -88 15q-51 16 -94 43q-51 31 -86 65q-45 45 -72 88q-90 -113 -190 -162q-98 -49 -203 -49q-39 0 -78 12.5t-74 41.5q-39 31 -57 71q-25 54 -25 113zM334 268q0 -31 8 -49q8 -20 25 -33q23 -18 30 -20 q18 -6 35 -6q43 0 98 22q49 20 117 88q-4 14 -8 47t-4 48v92q-49 -4 -68 -4q-35 0 -41 -2q-63 -12 -96 -33q-41 -25 -59.5 -45.5t-28.5 -50.5q-8 -25 -8 -54zM891 580h295q16 0 28 8q8 6 9 28q0 53 -12.5 96.5t-32.5 69.5q-22 28 -50 43q-27 14 -61 15q-25 0 -49 -9 q-31 -10 -53 -34q-25 -27 -45 -78q-19 -45 -29 -139z" />
<glyph unicode="&#xe7;" horiz-adv-x="944" d="M59 444q0 102 41 201q39 94 113 164q76 74 172 111q104 41 225 41q33 0 76 -7q35 -4 88 -16q39 -8 78 -25q35 -14 53 -32q0 -2 -4 -31l-10 -51q-2 -12 -9.5 -34t-9.5 -30q-6 -23 -18 -63q-6 -18 -20 -54q-8 -16 -17 -30l-76 10q-18 61 -39 102q-25 47 -45 72 q-25 27 -53 43q-27 14 -63 14q-43 0 -80 -18q-41 -20 -67.5 -61t-45 -109t-18.5 -166q0 -78 18 -139q16 -53 53 -100q33 -43 78 -64q49 -23 99 -22q18 0 55 4q23 2 57.5 16t69.5 33q45 25 92 57l57 -70q-68 -78 -121 -116q-70 -51 -108 -68q-51 -23 -96 -29l-27 -61 q170 -31 170 -145q0 -37 -28.5 -72t-82.5 -66q-39 -23 -120 -49q-72 -23 -146 -28l-43 79q82 12 117 39q37 27 37 60t-23 49q-20 14 -61 18l4 4q3 3 12 25q25 55 27 64q2 2 24 77q-63 6 -120 31q-78 35 -136 94q-61 66 -94 150q-35 92 -35 198z" />
<glyph unicode="&#xe8;" horiz-adv-x="1005" d="M59 444q0 137 49.5 237.5t151.5 178.5q57 45 133 72q80 29 162 29q92 0 170 -33q72 -29 123 -88q49 -55 74 -131q25 -78 24 -162q-10 -10 -28 -23q-25 -16 -39 -24l-45 -23q-10 -6 -37 -16h-457q2 -59 20 -127q16 -59 46 -98q35 -45 71 -64q45 -23 98 -22q20 0 62 4 q29 2 65 16q31 10 78 35q35 16 103 61l14 -14q12 -12 18 -21q4 -6 8.5 -11t8.5 -11l4 -8t4 -6q-78 -74 -127 -113q-59 -47 -108.5 -69.5t-104.5 -32.5q-57 -10 -115 -11q-86 0 -166 35q-72 31 -135 98q-53 57 -90 150q-35 88 -35 192zM342 580h301q23 0 31 8t8 28 q0 35 -8 68q-8 35 -29 72q-18 35 -51 57.5t-78 22.5t-76 -19q-33 -18 -51 -49q-18 -29 -33 -82q-10 -40 -14 -106zM231 1413l33 62q6 3 25 6q18 4 43 8q8 2 26.5 5t26.5 5q14 2 26.5 5t24.5 5q16 2 45 7l29 4l211 -433q-4 -4 -21 -12q-12 -8 -26 -16q-10 -4 -26.5 -12.5 t-22.5 -10.5z" />
<glyph unicode="&#xe9;" horiz-adv-x="1005" d="M59 444q0 137 49.5 237.5t151.5 178.5q57 45 133 72q80 29 162 29q92 0 170 -33q72 -29 123 -88q49 -55 74 -131q25 -78 24 -162q-10 -10 -28 -23q-25 -16 -39 -24l-45 -23q-10 -6 -37 -16h-457q2 -59 20 -127q16 -59 46 -98q35 -45 71 -64q45 -23 98 -22q20 0 62 4 q29 2 65 16q31 10 78 35q35 16 103 61l14 -14q12 -12 18 -21q4 -6 8.5 -11t8.5 -11l4 -8t4 -6q-78 -74 -127 -113q-59 -47 -108.5 -69.5t-104.5 -32.5q-57 -10 -115 -11q-86 0 -166 35q-72 31 -135 98q-53 57 -90 150q-35 88 -35 192zM342 580h301q23 0 31 8t8 28 q0 35 -8 68q-8 35 -29 72q-18 35 -51 57.5t-78 22.5t-76 -19q-33 -18 -51 -49q-18 -29 -33 -82q-10 -40 -14 -106zM381 1085l202 435q4 0 6 -1t8.5 -2t14.5 -1q12 -2 45 -7q20 -2 55 -10q29 -4 54 -8q8 -2 24.5 -5t22.5 -3q20 -2 26 -6l33 -60l-395 -381q-2 0 -23 8 q-6 2 -14 6.5t-14.5 6.5t-14.5 8t-12 8q-12 6 -18 12z" />
<glyph unicode="&#xea;" horiz-adv-x="1005" d="M59 444q0 137 49.5 237.5t151.5 178.5q57 45 133 72q80 29 162 29q92 0 170 -33q72 -29 123 -88q49 -55 74 -131q25 -78 24 -162q-10 -10 -28 -23q-25 -16 -39 -24l-45 -23q-10 -6 -37 -16h-457q2 -59 20 -127q16 -59 46 -98q35 -45 71 -64q45 -23 98 -22q20 0 62 4 q29 2 65 16q31 10 78 35q35 16 103 61l14 -14q12 -12 18 -21q4 -6 8.5 -11t8.5 -11l4 -8t4 -6q-78 -74 -127 -113q-59 -47 -108.5 -69.5t-104.5 -32.5q-57 -10 -115 -11q-86 0 -166 35q-72 31 -135 98q-53 57 -90 150q-35 88 -35 192zM342 580h301q23 0 31 8t8 28 q0 35 -8 68q-8 35 -29 72q-18 35 -51 57.5t-78 22.5t-76 -19q-33 -18 -51 -49q-18 -29 -33 -82q-10 -40 -14 -106zM189 1112l282 389h148l272 -389q-2 -4 -7 -12l-10 -15.5t-12 -15.5q-18 -25 -34 -33l-283 209l-283 -209q-6 2 -16 13l-6 6t-8 7t-6.5 7t-10.5 11t-10 12 q-10 12 -16 20z" />
<glyph unicode="&#xeb;" horiz-adv-x="1005" d="M59 444q0 137 49.5 237.5t151.5 178.5q57 45 133 72q80 29 162 29q92 0 170 -33q72 -29 123 -88q49 -55 74 -131q25 -78 24 -162q-10 -10 -28 -23q-25 -16 -39 -24l-45 -23q-10 -6 -37 -16h-457q2 -59 20 -127q16 -59 46 -98q35 -45 71 -64q45 -23 98 -22q20 0 62 4 q29 2 65 16q31 10 78 35q35 16 103 61l14 -14q12 -12 18 -21q4 -6 8.5 -11t8.5 -11l4 -8t4 -6q-78 -74 -127 -113q-59 -47 -108.5 -69.5t-104.5 -32.5q-57 -10 -115 -11q-86 0 -166 35q-72 31 -135 98q-53 57 -90 150q-35 88 -35 192zM342 580h301q23 0 31 8t8 28 q0 35 -8 68q-8 35 -29 72q-18 35 -51 57.5t-78 22.5t-76 -19q-33 -18 -51 -49q-18 -29 -33 -82q-10 -40 -14 -106zM178 1210q0 43 15 74q16 37 39 59q29 29 53 41q33 16 63 17q59 0 97 -33q35 -31 34 -98q0 -35 -14 -74t-37 -61q-25 -25 -53 -39q-33 -16 -66 -17 q-63 0 -96 33q-35 35 -35 98zM608 1210q0 43 15 74q16 37 39 59q29 29 53 41q33 16 63 17q59 0 97 -33q35 -31 34 -98q0 -35 -14 -74t-36.5 -61.5t-55.5 -39t-63 -16.5q-63 0 -97 33q-35 35 -35 98z" />
<glyph unicode="&#xec;" horiz-adv-x="634" d="M59 0v84q80 18 101 29q31 15 30 30v496v84q0 31 -12 49q-10 14 -39 25q-23 8 -80 14v80q109 14 174 27q53 10 152 43h76v-818q0 -10 28 -28q20 -14 101 -31v-84h-531zM12 1413l33 62q6 3 25 6q18 4 43 8q8 2 26.5 5t26.5 5q14 2 26.5 5t24.5 5q16 2 45 7l29 4l211 -433 q-4 -4 -21 -12q-12 -8 -26 -16q-10 -4 -26.5 -12.5t-22.5 -10.5z" />
<glyph unicode="&#xed;" horiz-adv-x="634" d="M59 0v84q80 18 101 29q31 15 30 30v496v84q0 31 -12 49q-10 14 -39 25q-23 8 -80 14v80q109 14 174 27q53 10 152 43h76v-818q0 -10 28 -28q20 -14 101 -31v-84h-531zM162 1085l202 435q4 0 6 -1t8.5 -2t14.5 -1q12 -2 45 -7q20 -2 55 -10q29 -4 54 -8q8 -2 24.5 -5 t22.5 -3q20 -2 26 -6l33 -60l-395 -381q-2 0 -23 8q-6 2 -14 6.5t-14.5 6.5t-14.5 8t-12 8q-12 6 -18 12z" />
<glyph unicode="&#xee;" horiz-adv-x="634" d="M59 0v84q80 18 101 29q31 15 30 30v496v84q0 31 -12 49q-10 14 -39 25q-23 8 -80 14v80q109 14 174 27q53 10 152 43h76v-818q0 -10 28 -28q20 -14 101 -31v-84h-531zM-30 1112l282 389h148l272 -389q-2 -4 -7 -12l-10 -15.5t-12 -15.5q-18 -25 -34 -33l-283 209 l-283 -209q-6 2 -16 13l-6 6t-8 7t-6.5 7t-10.5 11t-10 12q-10 12 -16 20z" />
<glyph unicode="&#xef;" horiz-adv-x="634" d="M59 0v84q80 18 101 29q31 15 30 30v496v84q0 31 -12 49q-10 14 -39 25q-23 8 -80 14v80q109 14 174 27q53 10 152 43h76v-818q0 -10 28 -28q20 -14 101 -31v-84h-531zM-41 1210q0 43 15 74q16 37 39 59q29 29 53 41q33 16 63 17q59 0 97 -33q35 -31 34 -98q0 -35 -14 -74 t-37 -61q-25 -25 -53 -39q-33 -16 -66 -17q-63 0 -96 33q-35 35 -35 98zM389 1210q0 43 15 74q16 37 39 59q29 29 53 41q33 16 63 17q59 0 97 -33q35 -31 34 -98q0 -35 -14 -74t-36.5 -61.5t-55.5 -39t-63 -16.5q-63 0 -97 33q-35 35 -35 98z" />
<glyph unicode="&#xf0;" horiz-adv-x="1054" d="M59 444q0 94 33 193q31 92 90 164q63 76 142 117q82 43 182 43q123 0 196 -76q-4 12 -11 35.5t-9 29.5q-10 37 -25 64q-18 39 -36 63q-4 6 -52 64l-204 -84q-29 0 -70 4q-39 4 -68 14l-12 47l264 109q-49 35 -131 59q-66 18 -162 6l-16 82l293 103l55 -39l57 -43l56 -41 l47 -41l180 74q18 -2 46 -5.5t34 -3.5q29 -2 59 -14l9 -45l-240 -96q59 -66 106 -146q45 -76 72 -151q27 -72 39 -156q12 -80 12 -162q0 -111 -22 -206q-23 -94 -59.5 -166t-84.5 -121q-43 -45 -102 -84q-52 -34 -104 -49q-55 -16 -97 -17q-111 0 -196 37q-88 37 -146 98 q-61 63 -92 152q-33 92 -33 188zM336 494q0 -86 14 -152q16 -76 41 -125q27 -53 66 -86q37 -31 80 -31q55 0 90 27q39 29 59 86q23 59 31 145q8 80 8 213v50q-16 53 -43 90q-29 39 -57.5 61.5t-67.5 36.5q-29 10 -61 10q-82 0 -121 -82q-39 -79 -39 -243z" />
<glyph unicode="&#xf1;" horiz-adv-x="1208" d="M45 0v84q94 27 98 29q31 12 31 30v539v61q0 20 -14 35q-16 16 -37 21q-31 6 -78 12v80q16 2 49 5t49 5q35 4 86 17l78 18q35 8 78 25l45 -46l10 -108q51 35 119 72q55 31 104.5 49t92.5 24q57 8 84 9q45 0 82 -15q43 -16 71 -45q31 -31 49 -84q18 -51 19 -127v-547 q0 -8 4 -12q10 -10 20 -14q4 -2 18.5 -6.5t22.5 -8.5q27 -10 64 -18v-84h-531v84q82 20 103 33q29 16 29 26v430q0 51 -7 89q-6 41 -16 57q-12 23 -29 31q-20 10 -47 10q-12 0 -45 -4q-23 -2 -51 -13q-37 -12 -66 -26q-20 -10 -86 -47v-527q0 -16 33 -30q25 -10 98 -29v-84 h-530zM205 1110l21 43l24 49q23 49 59.5 98.5t75.5 77.5q43 31 90 31q51 0 92 -14q8 -4 82 -37q53 -25 78 -35q39 -16 72 -16q45 0 77 26q34 28 68 86l84 -33q-6 -14 -21.5 -44.5t-23.5 -47.5q-20 -43 -60 -96q-37 -49 -75 -78q-43 -31 -90 -30q-43 0 -89 16q-29 10 -81 35 q-6 2 -34 16t-44 21q-43 16 -78 16q-18 0 -43 -8q-18 -6 -35 -23q-29 -29 -33 -35l-32 -49z" />
<glyph unicode="&#xf2;" horiz-adv-x="1089" d="M59 444q0 59 17 129q12 53 49 123q29 53 76 105q49 53 100 84q55 34 123 55q63 20 141 21q104 0 191 -37q90 -39 147 -99q59 -61 94 -151q33 -84 33 -189q0 -68 -18.5 -131t-50.5 -121q-33 -55 -80 -106q-47 -49 -103 -84q-57 -35 -121 -53q-72 -20 -131 -21 q-106 0 -192 37q-90 39 -148 98q-59 61 -94 152q-33 84 -33 188zM344 473q0 -76 16.5 -147.5t42.5 -118.5q31 -53 66 -78q41 -29 86 -29q57 0 92 20.5t58 65.5q22 43 30 105q10 68 10 143q0 70 -14 152q-10 61 -39 125q-25 57 -65.5 87.5t-89.5 30.5q-59 0 -95 -26 q-39 -29 -59 -76q-18 -43 -29 -113q-10 -71 -10 -141zM253 1413l33 62q6 3 25 6q18 4 43 8q8 2 26.5 5t26.5 5q14 2 26.5 5t24.5 5q16 2 45 7l29 4l211 -433q-4 -4 -21 -12q-12 -8 -26 -16q-10 -4 -26.5 -12.5t-22.5 -10.5z" />
<glyph unicode="&#xf3;" horiz-adv-x="1089" d="M59 444q0 59 17 129q12 53 49 123q29 53 76 105q49 53 100 84q55 34 123 55q63 20 141 21q104 0 191 -37q90 -39 147 -99q59 -61 94 -151q33 -84 33 -189q0 -68 -18.5 -131t-50.5 -121q-33 -55 -80 -106q-47 -49 -103 -84q-57 -35 -121 -53q-72 -20 -131 -21 q-106 0 -192 37q-90 39 -148 98q-59 61 -94 152q-33 84 -33 188zM344 473q0 -76 16.5 -147.5t42.5 -118.5q31 -53 66 -78q41 -29 86 -29q57 0 92 20.5t58 65.5q22 43 30 105q10 68 10 143q0 70 -14 152q-10 61 -39 125q-25 57 -65.5 87.5t-89.5 30.5q-59 0 -95 -26 q-39 -29 -59 -76q-18 -43 -29 -113q-10 -71 -10 -141zM406 1085l202 435q4 0 6 -1t8.5 -2t14.5 -1q12 -2 45 -7q20 -2 55 -10q29 -4 54 -8q8 -2 24.5 -5t22.5 -3q20 -2 26 -6l33 -60l-395 -381q-2 0 -23 8q-6 2 -14 6.5t-14.5 6.5t-14.5 8t-12 8q-12 6 -18 12z" />
<glyph unicode="&#xf4;" horiz-adv-x="1089" d="M59 444q0 59 17 129q12 53 49 123q29 53 76 105q49 53 100 84q55 34 123 55q63 20 141 21q104 0 191 -37q90 -39 147 -99q59 -61 94 -151q33 -84 33 -189q0 -68 -18.5 -131t-50.5 -121q-33 -55 -80 -106q-47 -49 -103 -84q-57 -35 -121 -53q-72 -20 -131 -21 q-106 0 -192 37q-90 39 -148 98q-59 61 -94 152q-33 84 -33 188zM344 473q0 -76 16.5 -147.5t42.5 -118.5q31 -53 66 -78q41 -29 86 -29q57 0 92 20.5t58 65.5q22 43 30 105q10 68 10 143q0 70 -14 152q-10 61 -39 125q-25 57 -65.5 87.5t-89.5 30.5q-59 0 -95 -26 q-39 -29 -59 -76q-18 -43 -29 -113q-10 -71 -10 -141zM211 1112l282 389h148l272 -389q-2 -4 -7 -12l-10 -15.5t-12 -15.5q-18 -25 -34 -33l-283 209l-283 -209q-6 2 -16 13l-6 6t-8 7t-6.5 7t-10.5 11t-10 12q-10 12 -16 20z" />
<glyph unicode="&#xf5;" horiz-adv-x="1089" d="M59 444q0 59 17 129q12 53 49 123q29 53 76 105q49 53 100 84q55 34 123 55q63 20 141 21q104 0 191 -37q90 -39 147 -99q59 -61 94 -151q33 -84 33 -189q0 -68 -18.5 -131t-50.5 -121q-33 -55 -80 -106q-47 -49 -103 -84q-57 -35 -121 -53q-72 -20 -131 -21 q-106 0 -192 37q-90 39 -148 98q-59 61 -94 152q-33 84 -33 188zM344 473q0 -76 16.5 -147.5t42.5 -118.5q31 -53 66 -78q41 -29 86 -29q57 0 92 20.5t58 65.5q22 43 30 105q10 68 10 143q0 70 -14 152q-10 61 -39 125q-25 57 -65.5 87.5t-89.5 30.5q-59 0 -95 -26 q-39 -29 -59 -76q-18 -43 -29 -113q-10 -71 -10 -141zM156 1110l21 43l24 49q23 49 59.5 98.5t75.5 77.5q43 31 90 31q51 0 92 -14q8 -4 82 -37q53 -25 78 -35q39 -16 72 -16q45 0 77 26q34 28 68 86l84 -33q-6 -14 -21.5 -44.5t-23.5 -47.5q-20 -43 -60 -96 q-37 -49 -75 -78q-43 -31 -90 -30q-43 0 -89 16q-29 10 -81 35q-6 2 -34 16t-44 21q-43 16 -78 16q-18 0 -43 -8q-18 -6 -35 -23q-29 -29 -33 -35l-32 -49z" />
<glyph unicode="&#xf6;" horiz-adv-x="1089" d="M59 444q0 59 17 129q12 53 49 123q29 53 76 105q49 53 100 84q55 34 123 55q63 20 141 21q104 0 191 -37q90 -39 147 -99q59 -61 94 -151q33 -84 33 -189q0 -68 -18.5 -131t-50.5 -121q-33 -55 -80 -106q-47 -49 -103 -84q-57 -35 -121 -53q-72 -20 -131 -21 q-106 0 -192 37q-90 39 -148 98q-59 61 -94 152q-33 84 -33 188zM344 473q0 -76 16.5 -147.5t42.5 -118.5q31 -53 66 -78q41 -29 86 -29q57 0 92 20.5t58 65.5q22 43 30 105q10 68 10 143q0 70 -14 152q-10 61 -39 125q-25 57 -65.5 87.5t-89.5 30.5q-59 0 -95 -26 q-39 -29 -59 -76q-18 -43 -29 -113q-10 -71 -10 -141zM200 1210q0 43 15 74q16 37 39 59q29 29 53 41q33 16 63 17q59 0 97 -33q35 -31 34 -98q0 -35 -14 -74t-37 -61q-25 -25 -53 -39q-33 -16 -66 -17q-63 0 -96 33q-35 35 -35 98zM630 1210q0 43 15 74q16 37 39 59 q29 29 53 41q33 16 63 17q59 0 97 -33q35 -31 34 -98q0 -35 -14 -74t-36.5 -61.5t-55.5 -39t-63 -16.5q-63 0 -97 33q-35 35 -35 98z" />
<glyph unicode="&#xf7;" horiz-adv-x="868" d="M49 518q2 8 10 29q2 4 15 33q4 8 7 17t7 17l12 25h684l35 -33q-4 -16 -8 -28q-4 -8 -8 -17.5t-8 -17.5q-12 -29 -15 -33q-2 -6 -7 -14.5t-5 -10.5h-682zM328 274q0 29 10 60q8 27 26.5 47t41.5 33q25 12 51 12q94 0 94 -107q0 -29 -10 -59q-10 -29 -27 -49 q-18 -23 -41 -33q-25 -12 -51 -12q-49 0 -71.5 28.5t-22.5 79.5zM328 809q0 27 10 57q10 29 27 49q16 18 40.5 30.5t51.5 12.5q94 0 94 -104q0 -29 -10 -59q-10 -29 -27 -50q-18 -20 -41 -32q-25 -12 -51 -13q-51 0 -72 27q-22 29 -22 82z" />
<glyph unicode="&#xf8;" horiz-adv-x="1089" d="M59 444q0 59 17 129q12 53 49 123q29 53 76 105q49 53 100 84q55 34 123 55q63 20 141 21q61 0 127 -17q49 -12 111 -43l12 14q10 8 35 19l45 20q37 14 47 17q8 2 21.5 6t19.5 6l31 -31l-105 -133q53 -63 88 -149q33 -84 33 -185q0 -68 -18.5 -131t-50.5 -121 q-33 -55 -80 -106q-47 -49 -103 -84q-57 -35 -121 -53q-72 -20 -131 -20.5t-129 16.5q-51 12 -112 43l-15 -17q-6 -6 -30 -16l-45 -19l-50 -18q-23 -8 -41 -12l-26 30l104 134q-53 63 -88 149q-35 88 -35 184zM342 473q0 -20 4 -74q2 -37 10 -69l322 411q-25 39 -64 64 q-37 25 -77 24q-59 0 -95 -26q-39 -29 -59 -76q-23 -49 -31 -113q-10 -71 -10 -141zM412 193q27 -37 63 -66q35 -27 80 -27q57 0 92 21q37 23 60 65q22 43 30 105q10 68 11 143q0 39 -7 82q-8 57 -12 80z" />
<glyph unicode="&#xf9;" horiz-adv-x="1173" d="M31 823v80q20 2 53 6t47 4q35 2 86 11q59 8 82 14q27 6 84 23l37 -50v-567q0 -57 6 -94q4 -31 20 -57q10 -18 33 -27q18 -6 43 -6q10 0 39 4q25 4 49 14q33 14 62 33q41 27 73 51v420q0 35 -4 72q-2 25 -16 41q-10 14 -39 20q-18 4 -72 8v80q111 9 197 25q106 18 164 33 l41 -50v-616v-51q0 -14 4 -31q3 -12 6 -18q2 -2 6 -5.5t6 -5.5l13 -6q10 0 18 2q2 0 27 10l43 17l30 -84q-27 -18 -86 -51q-76 -43 -94 -52q-55 -25 -82 -36q-35 -14 -47 -15q-16 0 -35 6q-23 8 -35 20.5t-26 47.5q-12 31 -19 84q-66 -55 -110 -84q-55 -35 -88 -47 q-35 -14 -74 -21q-35 -6 -65 -6q-39 0 -93 15q-43 12 -82 47q-41 39 -61 94q-23 63 -22 154v403v74q0 23 -13 39q-8 12 -35 18q-5 2 -71 10zM276 1413l33 62q6 3 25 6q18 4 43 8q8 2 26.5 5t26.5 5q14 2 26.5 5t24.5 5q16 2 45 7l29 4l211 -433q-4 -4 -21 -12 q-12 -8 -26 -16q-10 -4 -26.5 -12.5t-22.5 -10.5z" />
<glyph unicode="&#xfa;" horiz-adv-x="1173" d="M31 823v80q20 2 53 6t47 4q35 2 86 11q59 8 82 14q27 6 84 23l37 -50v-567q0 -57 6 -94q4 -31 20 -57q10 -18 33 -27q18 -6 43 -6q10 0 39 4q25 4 49 14q33 14 62 33q41 27 73 51v420q0 35 -4 72q-2 25 -16 41q-10 14 -39 20q-18 4 -72 8v80q111 9 197 25q106 18 164 33 l41 -50v-616v-51q0 -14 4 -31q3 -12 6 -18q2 -2 6 -5.5t6 -5.5l13 -6q10 0 18 2q2 0 27 10l43 17l30 -84q-27 -18 -86 -51q-76 -43 -94 -52q-55 -25 -82 -36q-35 -14 -47 -15q-16 0 -35 6q-23 8 -35 20.5t-26 47.5q-12 31 -19 84q-66 -55 -110 -84q-55 -35 -88 -47 q-35 -14 -74 -21q-35 -6 -65 -6q-39 0 -93 15q-43 12 -82 47q-41 39 -61 94q-23 63 -22 154v403v74q0 23 -13 39q-8 12 -35 18q-5 2 -71 10zM426 1085l202 435q4 0 6 -1t8.5 -2t14.5 -1q12 -2 45 -7q20 -2 55 -10q29 -4 54 -8q8 -2 24.5 -5t22.5 -3q20 -2 26 -6l33 -60 l-395 -381q-2 0 -23 8q-6 2 -14 6.5t-14.5 6.5t-14.5 8t-12 8q-12 6 -18 12z" />
<glyph unicode="&#xfb;" horiz-adv-x="1173" d="M31 823v80q20 2 53 6t47 4q35 2 86 11q59 8 82 14q27 6 84 23l37 -50v-567q0 -57 6 -94q4 -31 20 -57q10 -18 33 -27q18 -6 43 -6q10 0 39 4q25 4 49 14q33 14 62 33q41 27 73 51v420q0 35 -4 72q-2 25 -16 41q-10 14 -39 20q-18 4 -72 8v80q111 9 197 25q106 18 164 33 l41 -50v-616v-51q0 -14 4 -31q3 -12 6 -18q2 -2 6 -5.5t6 -5.5l13 -6q10 0 18 2q2 0 27 10l43 17l30 -84q-27 -18 -86 -51q-76 -43 -94 -52q-55 -25 -82 -36q-35 -14 -47 -15q-16 0 -35 6q-23 8 -35 20.5t-26 47.5q-12 31 -19 84q-66 -55 -110 -84q-55 -35 -88 -47 q-35 -14 -74 -21q-35 -6 -65 -6q-39 0 -93 15q-43 12 -82 47q-41 39 -61 94q-23 63 -22 154v403v74q0 23 -13 39q-8 12 -35 18q-5 2 -71 10zM234 1112l282 389h148l272 -389q-2 -4 -7 -12l-10 -15.5t-12 -15.5q-18 -25 -34 -33l-283 209l-283 -209q-6 2 -16 13l-6 6t-8 7 t-6.5 7t-10.5 11t-10 12q-10 12 -16 20z" />
<glyph unicode="&#xfc;" horiz-adv-x="1173" d="M31 823v80q20 2 53 6t47 4q35 2 86 11q59 8 82 14q27 6 84 23l37 -50v-567q0 -57 6 -94q4 -31 20 -57q10 -18 33 -27q18 -6 43 -6q10 0 39 4q25 4 49 14q33 14 62 33q41 27 73 51v420q0 35 -4 72q-2 25 -16 41q-10 14 -39 20q-18 4 -72 8v80q111 9 197 25q106 18 164 33 l41 -50v-616v-51q0 -14 4 -31q3 -12 6 -18q2 -2 6 -5.5t6 -5.5l13 -6q10 0 18 2q2 0 27 10l43 17l30 -84q-27 -18 -86 -51q-76 -43 -94 -52q-55 -25 -82 -36q-35 -14 -47 -15q-16 0 -35 6q-23 8 -35 20.5t-26 47.5q-12 31 -19 84q-66 -55 -110 -84q-55 -35 -88 -47 q-35 -14 -74 -21q-35 -6 -65 -6q-39 0 -93 15q-43 12 -82 47q-41 39 -61 94q-23 63 -22 154v403v74q0 23 -13 39q-8 12 -35 18q-5 2 -71 10zM223 1210q0 43 15 74q16 37 39 59q29 29 53 41q33 16 63 17q59 0 97 -33q35 -31 34 -98q0 -35 -14 -74t-37 -61q-25 -25 -53 -39 q-33 -16 -66 -17q-63 0 -96 33q-35 35 -35 98zM653 1210q0 43 15 74q16 37 39 59q29 29 53 41q33 16 63 17q59 0 97 -33q35 -31 34 -98q0 -35 -14 -74t-36.5 -61.5t-55.5 -39t-63 -16.5q-63 0 -97 33q-35 35 -35 98z" />
<glyph unicode="&#xfd;" d="M-68 -418q0 12 19 39q12 18 45 59t51 60q33 33 43 39q57 -37 103 -45q20 -3 36 -4q28 0 52 10q25 8 36 16q25 16 39 31q18 18 37 49q20 37 37 72l29 69l-338 801q-12 29 -35 43q-20 12 -76 27v82h475v-82q-35 -6 -59 -12q-20 -6 -27 -13q-10 -8 -6 -18q2 -6 10 -27 l193 -456l184 456l5 15.5t3 11.5q4 12 -2 18q-8 8 -20 13q-20 6 -51 12v82h323v-82l-49 -14q-12 -4 -28 -13q-10 -4 -19 -18q-6 -9 -12 -25l-334 -850q-37 -96 -94 -188q-47 -78 -105 -131q-51 -49 -118 -76q-57 -23 -132 -22q-43 0 -77 8q-51 12 -68 18q-31 12 -49 25 q-21 14 -21 20zM385 1085l202 435q4 0 6 -1t8.5 -2t14.5 -1q12 -2 45 -7q20 -2 55 -10q29 -4 54 -8q8 -2 24.5 -5t22.5 -3q20 -2 26 -6l33 -60l-395 -381q-2 0 -23 8q-6 2 -14 6.5t-14.5 6.5t-14.5 8t-12 8q-12 6 -18 12z" />
<glyph unicode="&#xfe;" horiz-adv-x="1163" d="M45 -397q70 16 98 30q31 14 31 31v1598q0 33 -4 65q-2 20 -18 37q-12 12 -39 16q-8 2 -31 5.5l-37 5.5v79q74 6 113 15q43 8 88 18q53 12 78 21q16 6 25 9l21.5 7t28.5 10l45 -45v-688q58 46 105 74q43 25 88 43q37 14 72 20q34 6 61 7q66 0 129 -29q59 -27 107 -84 q41 -49 71 -141q29 -86 29 -195q0 -68 -19 -135q-20 -72 -47 -127q-35 -70 -67 -113q-39 -51 -82 -88q-41 -35 -86 -57.5t-82 -22.5q-29 0 -59 6q-29 6 -64 19q-27 10 -70 33l-86 51v-414q0 -14 39 -31q37 -16 131 -30v-82h-569v82zM444 233q29 -16 97 -47q23 -10 69 -24 q35 -10 54 -10q8 0 24.5 -1t22.5 -1q68 0 104 77q35 72 35 209q0 89 -18.5 153.5t-49.5 104.5q-35 45 -69 62q-40 18 -80 18h-33q-4 0 -8 -1t-7 -2t-9.5 -3t-10.5 -4q-18 -4 -49 -23q-59 -33 -72 -41v-467z" />
<glyph unicode="&#xff;" d="M-68 -418q0 12 19 39q12 18 45 59t51 60q33 33 43 39q57 -37 103 -45q20 -3 36 -4q28 0 52 10q25 8 36 16q25 16 39 31q18 18 37 49q20 37 37 72l29 69l-338 801q-12 29 -35 43q-20 12 -76 27v82h475v-82q-35 -6 -59 -12q-20 -6 -27 -13q-10 -8 -6 -18q2 -6 10 -27 l193 -456l184 456l5 15.5t3 11.5q4 12 -2 18q-8 8 -20 13q-20 6 -51 12v82h323v-82l-49 -14q-12 -4 -28 -13q-10 -4 -19 -18q-6 -9 -12 -25l-334 -850q-37 -96 -94 -188q-47 -78 -105 -131q-51 -49 -118 -76q-57 -23 -132 -22q-43 0 -77 8q-51 12 -68 18q-31 12 -49 25 q-21 14 -21 20zM182 1210q0 43 15 74q16 37 39 59q29 29 53 41q33 16 63 17q59 0 97 -33q35 -31 34 -98q0 -35 -14 -74t-37 -61q-25 -25 -53 -39q-33 -16 -66 -17q-63 0 -96 33q-35 35 -35 98zM612 1210q0 43 15 74q16 37 39 59q29 29 53 41q33 16 63 17q59 0 97 -33 q35 -31 34 -98q0 -35 -14 -74t-36.5 -61.5t-55.5 -39t-63 -16.5q-63 0 -97 33q-35 35 -35 98z" />
<glyph unicode="&#x100;" horiz-adv-x="1308" d="M0 0v84q70 12 102 25q37 12 45 43l342 1044q45 35 60 43q23 12 67 33q23 10 68 26q12 4 35.5 10.5t28.5 8.5l419 -1165l13 -25q4 -8 20 -21q10 -6 35 -14q16 -4 53 -8v-84h-522v84q77 3 104 18q29 16 17 50l-99 274h-393l-90 -274q-8 -31 23 -46q29 -12 116 -22v-84h-444 zM438 555h305l-161 449zM198 1488q3 12 13 31q2 6 5 12.5l6 13.5t5 13q2 4 18 41q4 10 8.5 17.5t6.5 11.5h815l35 -33q-2 -10 -13 -33q-8 -20 -18 -41q-2 -4 -19 -41q-10 -20 -12 -26h-815z" />
<glyph unicode="&#x101;" d="M59 207q0 65 25 110q27 49 61 84q29 29 56 48q29 20 84 43q33 12 135 40q72 18 203 39v111q0 39 -5 55q-4 20 -20 43q-12 18 -36.5 28.5t-55.5 10.5q-25 0 -43 -8q-25 -10 -39 -25q-16 -16 -25 -38q-10 -29 -8 -54q0 -8 -16 -16q-18 -9 -49 -19q-6 -2 -29 -9l-37 -11 q-8 -2 -31.5 -9t-35.5 -9q-10 -2 -30 -6.5t-28 -6.5q-29 -4 -33 -2l-24 60q25 63 78 116q49 49 124.5 92.5t157.5 63.5q90 23 176 23q68 0 125 -21q53 -18 88 -53t50 -78q16 -49 16 -96v-455q0 -45 10 -59q12 -18 31 -19h12q6 0 19 4q18 6 22 9l35 14l25 -84 q-82 -53 -91 -57q-53 -31 -94 -50q-35 -16 -84 -32q-43 -14 -55 -15q-39 0 -66 43q-27 41 -32 113q-43 -43 -93 -76q-43 -29 -86 -47t-81 -25q-53 -8 -72 -8q-41 0 -86 17q-39 14 -74 45q-31 27 -53 73q-21 42 -21 103zM344 268q0 -35 8 -53t23 -33q8 -8 28 -16q14 -6 29 -6 q8 0 33 4q20 4 41 12q14 6 51 31q33 23 66 49v211q-55 -10 -91 -18q-53 -14 -61 -17q-27 -10 -41 -18q-16 -8 -29 -23q-25 -27 -41 -53q-16 -29 -16 -70zM80 1208q3 12 13 31q4 6 9 20.5l7 20.5q2 4 18 41q4 10 8.5 17.5t6.5 11.5h815l35 -35q-2 -4 -13 -31q-8 -20 -18 -41 q-2 -4 -19 -41q-10 -20 -12 -26h-815z" />
<glyph unicode="&#x102;" horiz-adv-x="1308" d="M0 0v84q70 12 102 25q37 12 45 43l342 1044q45 35 60 43q23 12 67 33q23 10 68 26q12 4 35.5 10.5t28.5 8.5l419 -1165l13 -25q4 -8 20 -21q10 -6 35 -14q16 -4 53 -8v-84h-522v84q77 3 104 18q29 16 17 50l-99 274h-393l-90 -274q-8 -31 23 -46q29 -12 116 -22v-84h-444 zM438 555h305l-161 449zM278 1689q2 4 8.5 10t8.5 11l22 22l25 19q18 14 20 14q23 -39 60 -76q27 -27 71 -53q35 -20 76 -33q40 -12 74 -12q41 0 74 10q39 12 77 35q45 27 72 53q37 37 60 76q2 0 20 -14l10 -8q10 -7 15 -11l7 -7t9 -8t6 -7.5t8 -10.5t8 -10 q-31 -78 -71 -139q-39 -57 -88 -96q-51 -41 -98.5 -57.5t-104.5 -16.5q-63 0 -111 16q-51 18 -100 57.5t-88 96.5q-37 53 -70 139z" />
<glyph unicode="&#x103;" d="M59 207q0 65 25 110q27 49 61 84q29 29 56 48q29 20 84 43q33 12 135 40q72 18 203 39v111q0 39 -5 55q-4 20 -20 43q-12 18 -36.5 28.5t-55.5 10.5q-25 0 -43 -8q-25 -10 -39 -25q-16 -16 -25 -38q-10 -29 -8 -54q0 -8 -16 -16q-18 -9 -49 -19q-6 -2 -29 -9l-37 -11 q-8 -2 -31.5 -9t-35.5 -9q-10 -2 -30 -6.5t-28 -6.5q-29 -4 -33 -2l-24 60q25 63 78 116q49 49 124.5 92.5t157.5 63.5q90 23 176 23q68 0 125 -21q53 -18 88 -53t50 -78q16 -49 16 -96v-455q0 -45 10 -59q12 -18 31 -19h12q6 0 19 4q18 6 22 9l35 14l25 -84 q-82 -53 -91 -57q-53 -31 -94 -50q-35 -16 -84 -32q-43 -14 -55 -15q-39 0 -66 43q-27 41 -32 113q-43 -43 -93 -76q-43 -29 -86 -47t-81 -25q-53 -8 -72 -8q-41 0 -86 17q-39 14 -74 45q-31 27 -53 73q-21 42 -21 103zM344 268q0 -35 8 -53t23 -33q8 -8 28 -16q14 -6 29 -6 q8 0 33 4q20 4 41 12q14 6 51 31q33 23 66 49v211q-55 -10 -91 -18q-53 -14 -61 -17q-27 -10 -41 -18q-16 -8 -29 -23q-25 -27 -41 -53q-16 -29 -16 -70zM159 1370q2 4 8.5 10t8.5 11l22 22l25 19q18 14 20 14q23 -39 60 -76q27 -27 71 -53q35 -20 76 -33q40 -12 74 -12 q41 0 74 10q39 12 77 35q45 27 72 53q37 37 60 76q2 0 20 -14l10 -8q10 -7 15 -11l7 -7t9 -8t6 -7.5t8 -10.5t8 -10q-31 -78 -71 -139q-39 -57 -88 -96q-51 -41 -98.5 -57.5t-104.5 -16.5q-63 0 -111 16q-51 18 -100 57.5t-88 96.5q-37 53 -70 139z" />
<glyph unicode="&#x106;" horiz-adv-x="1157" d="M49 586q0 156 51 291q49 129 136 221q88 94 204.5 143t255.5 49q59 0 109 -8q43 -8 104 -22q49 -12 92 -31q45 -18 68 -39q2 -2 0 -21q0 -4 -14 -41q-4 -10 -13.5 -28.5t-11.5 -24.5l-26 -53q-16 -33 -25 -47q-10 -18 -21 -29l-73 17q-49 102 -114.5 145t-137.5 43 q-52 0 -105 -25q-55 -27 -96 -84q-41 -59 -70 -161q-27 -98 -26 -258q0 -126 31 -215q31 -88 84 -148q51 -57 114 -84q61 -27 127 -26q29 0 66 6q43 6 80 20q53 18 92 41q49 29 100 70q4 -2 14 -17l17 -22l16 -23q8 -12 10 -14q-129 -129 -253 -184q-131 -57 -242 -58 q-104 0 -203 43q-96 43 -172 121q-74 78 -121 193q-47 117 -47 260zM438 1431l357 346l27.5 -14t31.5 -17l60 -36q6 -4 16 -11.5t18.5 -12.5t14.5 -9q29 -20 30 -23l9 -55l-490 -244q-9 3 -18 13q-2 2 -6.5 6t-8.5 7t-6 7t-8 11l-10 12q-4 6 -9.5 12t-7.5 8z" />
<glyph unicode="&#x107;" horiz-adv-x="944" d="M59 444q0 102 41 201q39 94 113 164q76 74 172 111q104 41 225 41q33 0 76 -7q35 -4 88 -16q39 -8 78 -25q35 -14 53 -32q0 -2 -4 -31l-10 -51q-2 -12 -9.5 -34t-9.5 -30q-6 -23 -18 -63q-6 -18 -20 -54q-8 -16 -17 -30l-76 10q-18 61 -39 102q-25 47 -45 72 q-25 27 -53 43q-27 14 -63 14q-43 0 -80 -18q-41 -20 -67.5 -61t-45 -109t-18.5 -166q0 -78 18 -139q16 -53 53 -100q33 -43 78 -64q49 -23 99 -22q18 0 55 4q23 2 57.5 16t69.5 33q45 25 92 57l57 -70q-68 -78 -121 -116q-70 -51 -108 -68q-55 -23 -100 -29q-61 -8 -95 -8 q-88 0 -161 33q-78 35 -136 94q-61 66 -94 150q-35 92 -35 198zM357 1085l202 435q4 0 6 -1t8.5 -2t14.5 -1q12 -2 45 -7q20 -2 55 -10q29 -4 54 -8q8 -2 24.5 -5t22.5 -3q20 -2 26 -6l33 -60l-395 -381q-2 0 -23 8q-6 2 -14 6.5t-14.5 6.5t-14.5 8t-12 8q-12 6 -18 12z" />
<glyph unicode="&#x108;" horiz-adv-x="1157" d="M49 586q0 156 51 291q49 129 136 221q88 94 204.5 143t255.5 49q59 0 109 -8q43 -8 104 -22q49 -12 92 -31q45 -18 68 -39q2 -2 0 -21q0 -4 -14 -41q-4 -10 -13.5 -28.5t-11.5 -24.5l-26 -53q-16 -33 -25 -47q-10 -18 -21 -29l-73 17q-49 102 -114.5 145t-137.5 43 q-52 0 -105 -25q-55 -27 -96 -84q-41 -59 -70 -161q-27 -98 -26 -258q0 -126 31 -215q31 -88 84 -148q51 -57 114 -84q61 -27 127 -26q29 0 66 6q43 6 80 20q53 18 92 41q49 29 100 70q4 -2 14 -17l17 -22l16 -23q8 -12 10 -14q-129 -129 -253 -184q-131 -57 -242 -58 q-104 0 -203 43q-96 43 -172 121q-74 78 -121 193q-47 117 -47 260zM299 1421l282 330h127l283 -330q-16 -25 -29 -37q-23 -23 -34 -29l-283 150l-283 -150q-8 4 -32 29z" />
<glyph unicode="&#x109;" horiz-adv-x="944" d="M59 444q0 102 41 201q39 94 113 164q76 74 172 111q104 41 225 41q33 0 76 -7q35 -4 88 -16q39 -8 78 -25q35 -14 53 -32q0 -2 -4 -31l-10 -51q-2 -12 -9.5 -34t-9.5 -30q-6 -23 -18 -63q-6 -18 -20 -54q-8 -16 -17 -30l-76 10q-18 61 -39 102q-25 47 -45 72 q-25 27 -53 43q-27 14 -63 14q-43 0 -80 -18q-41 -20 -67.5 -61t-45 -109t-18.5 -166q0 -78 18 -139q16 -53 53 -100q33 -43 78 -64q49 -23 99 -22q18 0 55 4q23 2 57.5 16t69.5 33q45 25 92 57l57 -70q-68 -78 -121 -116q-70 -51 -108 -68q-55 -23 -100 -29q-61 -8 -95 -8 q-88 0 -161 33q-78 35 -136 94q-61 66 -94 150q-35 92 -35 198zM162 1112l282 389h148l272 -389q-2 -4 -7 -12l-10 -15.5t-12 -15.5q-18 -25 -34 -33l-283 209l-283 -209q-6 2 -16 13l-6 6t-8 7t-6.5 7t-10.5 11t-10 12q-10 12 -16 20z" />
<glyph unicode="&#x10a;" horiz-adv-x="1157" d="M49 586q0 156 51 291q49 129 136 221q88 94 204.5 143t255.5 49q59 0 109 -8q43 -8 104 -22q49 -12 92 -31q45 -18 68 -39q2 -2 0 -21q0 -4 -14 -41q-4 -10 -13.5 -28.5t-11.5 -24.5l-26 -53q-16 -33 -25 -47q-10 -18 -21 -29l-73 17q-49 102 -114.5 145t-137.5 43 q-52 0 -105 -25q-55 -27 -96 -84q-41 -59 -70 -161q-27 -98 -26 -258q0 -126 31 -215q31 -88 84 -148q51 -57 114 -84q61 -27 127 -26q29 0 66 6q43 6 80 20q53 18 92 41q49 29 100 70q4 -2 14 -17l17 -22l16 -23q8 -12 10 -14q-129 -129 -253 -184q-131 -57 -242 -58 q-104 0 -203 43q-96 43 -172 121q-74 78 -121 193q-47 117 -47 260zM493 1488q0 45 15 76q16 37 39 60q29 29 53 41q29 14 63 14q59 0 97 -33q35 -31 34 -96q0 -37 -14 -76q-12 -35 -37 -59q-29 -29 -53 -41q-29 -14 -66 -15q-63 0 -96 33q-35 35 -35 96z" />
<glyph unicode="&#x10b;" horiz-adv-x="944" d="M59 444q0 102 41 201q39 94 113 164q76 74 172 111q104 41 225 41q33 0 76 -7q35 -4 88 -16q39 -8 78 -25q35 -14 53 -32q0 -2 -4 -31l-10 -51q-2 -12 -9.5 -34t-9.5 -30q-6 -23 -18 -63q-6 -18 -20 -54q-8 -16 -17 -30l-76 10q-18 61 -39 102q-25 47 -45 72 q-25 27 -53 43q-27 14 -63 14q-43 0 -80 -18q-41 -20 -67.5 -61t-45 -109t-18.5 -166q0 -78 18 -139q16 -53 53 -100q33 -43 78 -64q49 -23 99 -22q18 0 55 4q23 2 57.5 16t69.5 33q45 25 92 57l57 -70q-68 -78 -121 -116q-70 -51 -108 -68q-55 -23 -100 -29q-61 -8 -95 -8 q-88 0 -161 33q-78 35 -136 94q-61 66 -94 150q-35 92 -35 198zM366 1210q0 43 15 74q16 37 39 59q29 29 53 41q33 16 63 17q59 0 97 -33q35 -31 34 -98q0 -35 -14 -74t-37 -61q-25 -25 -53 -39q-33 -16 -66 -17q-63 0 -96 33q-35 35 -35 98z" />
<glyph unicode="&#x10c;" horiz-adv-x="1157" d="M49 586q0 156 51 291q49 129 136 221q88 94 204.5 143t255.5 49q59 0 109 -8q43 -8 104 -22q49 -12 92 -31q45 -18 68 -39q2 -2 0 -21q0 -4 -14 -41q-4 -10 -13.5 -28.5t-11.5 -24.5l-26 -53q-16 -33 -25 -47q-10 -18 -21 -29l-73 17q-49 102 -114.5 145t-137.5 43 q-52 0 -105 -25q-55 -27 -96 -84q-41 -59 -70 -161q-27 -98 -26 -258q0 -126 31 -215q31 -88 84 -148q51 -57 114 -84q61 -27 127 -26q29 0 66 6q43 6 80 20q53 18 92 41q49 29 100 70q4 -2 14 -17l17 -22l16 -23q8 -12 10 -14q-129 -129 -253 -184q-131 -57 -242 -58 q-104 0 -203 43q-96 43 -172 121q-74 78 -121 193q-47 117 -47 260zM299 1718q20 29 31 39q20 20 32 26l285 -180l281 180q16 -8 34 -26q14 -14 29 -39l-272 -336h-148z" />
<glyph unicode="&#x10d;" horiz-adv-x="944" d="M59 444q0 102 41 201q39 94 113 164q76 74 172 111q104 41 225 41q33 0 76 -7q35 -4 88 -16q39 -8 78 -25q35 -14 53 -32q0 -2 -4 -31l-10 -51q-2 -12 -9.5 -34t-9.5 -30q-6 -23 -18 -63q-6 -18 -20 -54q-8 -16 -17 -30l-76 10q-18 61 -39 102q-25 47 -45 72 q-25 27 -53 43q-27 14 -63 14q-43 0 -80 -18q-41 -20 -67.5 -61t-45 -109t-18.5 -166q0 -78 18 -139q16 -53 53 -100q33 -43 78 -64q49 -23 99 -22q18 0 55 4q23 2 57.5 16t69.5 33q45 25 92 57l57 -70q-68 -78 -121 -116q-70 -51 -108 -68q-55 -23 -100 -29q-61 -8 -95 -8 q-88 0 -161 33q-78 35 -136 94q-61 66 -94 150q-35 92 -35 198zM166 1450q2 4 7 12l10 15.5t12 15.5q18 25 34 33l283 -207l283 207q6 -2 16 -13l6 -6t8 -7t6 -7q4 -4 10.5 -10t10.5 -10q6 -6 10 -13.5t6 -9.5l-282 -387h-148z" />
<glyph unicode="&#x10e;" horiz-adv-x="1333" d="M27 1231q25 6 120 22q8 2 150 19q102 12 156 14q106 4 145 4q164 0 281 -41q125 -43 204 -121q86 -82 127 -192q43 -113 43 -260q0 -117 -26 -223q-23 -90 -70 -174q-39 -72 -104 -129q-57 -51 -127 -87q-61 -31 -142 -47q-78 -16 -145 -16h-598v84q74 16 100 29 q33 14 33 30v1004l-133 -19zM455 190q0 -20 2 -30q2 -14 16 -24.5t41 -16.5q18 -4 84 -4q51 0 115 28q66 31 116 93q51 63 89 161q35 92 34 240q0 266 -108 403q-106 135 -322 136h-33q-6 0 -17 -1t-17 -1v-984zM256 1718q20 29 31 39q20 20 32 26l285 -180l281 180 q16 -8 34 -26q14 -14 29 -39l-272 -336h-148z" />
<glyph unicode="&#x110;" horiz-adv-x="1333" d="M27 1231q25 6 120 22q8 2 150 19q102 12 156 14q106 4 145 4q164 0 281 -41q125 -43 204 -121q86 -82 127 -192q43 -113 43 -260q0 -117 -26 -223q-23 -90 -70 -174q-39 -72 -104 -129q-57 -51 -127 -87q-61 -31 -142 -47q-78 -16 -145 -16h-598v84q74 16 100 29 q33 14 33 30v471h-125l-20 25q0 2 2 9l4 14q4 14 10 30.5t12 30.5t9 22h108v402l-133 -19zM455 190q0 -20 2 -30q2 -14 16 -24.5t41 -16.5q18 -4 84 -4q51 0 115 28q66 31 116 93q51 63 89 161q35 92 34 240q0 266 -108 403q-106 135 -322 136h-33q-6 0 -17 -1t-17 -1v-429 h235l25 -22l-39 -109h-221v-424z" />
<glyph unicode="&#x111;" horiz-adv-x="1173" d="M59 444q0 106 37 199q39 96 101 164q57 63 155 111q90 43 199 43q47 0 94 -13q49 -12 100 -47v205h-292l-23 20q0 2 2 10.5t4 14.5l13 31q6 16 12 30q4 10 8 23h276v18q0 57 -2 76q-4 29 -16 45.5t-41 22.5q-35 8 -76 10v78q102 10 115 12q49 8 100 19q10 2 41 7t45 9 q43 10 64 18l41 -41v-274h141l23 -25l-39 -104h-125v-793v-57q0 -18 4 -39q2 -6 8 -20q4 -6 10 -11q8 -4 13 -4h16q2 0 12.5 3t16.5 5q31 10 43 17l32 -82q-53 -35 -98 -59l-96 -50q-55 -27 -80 -34q-33 -12 -47 -13q-39 0 -62 43q-23 45 -34 123q-59 -55 -88 -78 q-53 -41 -74 -51q-41 -20 -74 -28.5t-82 -8.5q-74 0 -139 33q-68 33 -119 94q-53 61 -86 150q-33 85 -33 198zM330 506q0 -78 18 -139q16 -55 49 -101q31 -43 70 -63q41 -23 80 -23q20 0 49 4q10 2 45 15q23 8 49 28l55 45v426q-37 57 -88 90q-49 31 -116 31q-49 0 -84 -16 q-40 -18 -68 -55t-43 -99q-16 -65 -16 -143z" />
<glyph unicode="&#x112;" horiz-adv-x="1095" d="M41 0v84q74 16 100 29q33 14 33 30v971q0 12 -31 31q-27 16 -102 33v82h905l43 -35q-3 -25 -6 -68q-2 -29 -10 -86l-12 -84q-6 -39 -13 -57h-86q-6 104 -24 147q-23 53 -58 53h-325v-395h395l37 -39q-8 -14 -20.5 -32.5t-24.5 -38.5q-16 -25 -25 -35q-14 -18 -22 -25 q-20 20 -33 27q-23 10 -41 16q-27 8 -53 10q-20 2 -72 3h-141v-426q0 -10 8 -27q6 -10 29 -21q22 -9 61 -12q80 -6 106 -6h89q41 0 79 14q33 12 58 39q23 27 45 70q14 31 41 100l84 -28q-2 -18 -5 -41t-6 -52q-2 -16 -5 -48.5t-5 -49.5l-12 -82q-2 -10 -4 -27.5t-4 -23.5 h-973zM100 1488q3 12 13 31q2 6 5 12.5l6 13.5t5 13q2 4 18 41q4 10 8.5 17.5t6.5 11.5h815l35 -33q-2 -10 -13 -33q-8 -20 -18 -41q-2 -4 -19 -41q-10 -20 -12 -26h-815z" />
<glyph unicode="&#x113;" horiz-adv-x="1005" d="M59 444q0 137 49.5 237.5t151.5 178.5q57 45 133 72q80 29 162 29q92 0 170 -33q72 -29 123 -88q49 -55 74 -131q25 -78 24 -162q-10 -10 -28 -23q-25 -16 -39 -24l-45 -23q-10 -6 -37 -16h-457q2 -59 20 -127q16 -59 46 -98q35 -45 71 -64q45 -23 98 -22q20 0 62 4 q29 2 65 16q31 10 78 35q35 16 103 61l14 -14q12 -12 18 -21q4 -6 8.5 -11t8.5 -11l4 -8t4 -6q-78 -74 -127 -113q-59 -47 -108.5 -69.5t-104.5 -32.5q-57 -10 -115 -11q-86 0 -166 35q-72 31 -135 98q-53 57 -90 150q-35 88 -35 192zM342 580h301q23 0 31 8t8 28 q0 35 -8 68q-8 35 -29 72q-18 35 -51 57.5t-78 22.5t-76 -19q-33 -18 -51 -49q-18 -29 -33 -82q-10 -40 -14 -106zM98 1208q3 12 13 31q4 6 9 20.5l7 20.5q2 4 18 41q4 10 8.5 17.5t6.5 11.5h815l35 -35q-2 -4 -13 -31q-8 -20 -18 -41q-2 -4 -19 -41q-10 -20 -12 -26h-815z " />
<glyph unicode="&#x114;" horiz-adv-x="1095" d="M41 0v84q74 16 100 29q33 14 33 30v971q0 12 -31 31q-27 16 -102 33v82h905l43 -35q-3 -25 -6 -68q-2 -29 -10 -86l-12 -84q-6 -39 -13 -57h-86q-6 104 -24 147q-23 53 -58 53h-325v-395h395l37 -39q-8 -14 -20.5 -32.5t-24.5 -38.5q-16 -25 -25 -35q-14 -18 -22 -25 q-20 20 -33 27q-23 10 -41 16q-27 8 -53 10q-20 2 -72 3h-141v-426q0 -10 8 -27q6 -10 29 -21q22 -9 61 -12q80 -6 106 -6h89q41 0 79 14q33 12 58 39q23 27 45 70q14 31 41 100l84 -28q-2 -18 -5 -41t-6 -52q-2 -16 -5 -48.5t-5 -49.5l-12 -82q-2 -10 -4 -27.5t-4 -23.5 h-973zM182 1689q2 4 8.5 10t8.5 11l22 22l25 19q18 14 20 14q23 -39 60 -76q27 -27 71 -53q35 -20 76 -33q40 -12 74 -12q41 0 74 10q39 12 77 35q45 27 72 53q37 37 60 76q2 0 20 -14l10 -8q10 -7 15 -11l7 -7t9 -8t6 -7.5t8 -10.5t8 -10q-31 -78 -71 -139q-39 -57 -88 -96 q-51 -41 -98.5 -57.5t-104.5 -16.5q-63 0 -111 16q-51 18 -100 57.5t-88 96.5q-37 53 -70 139z" />
<glyph unicode="&#x115;" horiz-adv-x="1005" d="M59 444q0 137 49.5 237.5t151.5 178.5q57 45 133 72q80 29 162 29q92 0 170 -33q72 -29 123 -88q49 -55 74 -131q25 -78 24 -162q-10 -10 -28 -23q-25 -16 -39 -24l-45 -23q-10 -6 -37 -16h-457q2 -59 20 -127q16 -59 46 -98q35 -45 71 -64q45 -23 98 -22q20 0 62 4 q29 2 65 16q31 10 78 35q35 16 103 61l14 -14q12 -12 18 -21q4 -6 8.5 -11t8.5 -11l4 -8t4 -6q-78 -74 -127 -113q-59 -47 -108.5 -69.5t-104.5 -32.5q-57 -10 -115 -11q-86 0 -166 35q-72 31 -135 98q-53 57 -90 150q-35 88 -35 192zM342 580h301q23 0 31 8t8 28 q0 35 -8 68q-8 35 -29 72q-18 35 -51 57.5t-78 22.5t-76 -19q-33 -18 -51 -49q-18 -29 -33 -82q-10 -40 -14 -106zM178 1370q2 4 8.5 10t8.5 11l22 22l25 19q18 14 20 14q23 -39 60 -76q27 -27 71 -53q35 -20 76 -33q40 -12 74 -12q41 0 74 10q39 12 77 35q45 27 72 53 q37 37 60 76q2 0 20 -14l10 -8q10 -7 15 -11l7 -7t9 -8t6 -7.5t8 -10.5t8 -10q-31 -78 -71 -139q-39 -57 -88 -96q-51 -41 -98.5 -57.5t-104.5 -16.5q-63 0 -111 16q-51 18 -100 57.5t-88 96.5q-37 53 -70 139z" />
<glyph unicode="&#x116;" horiz-adv-x="1095" d="M41 0v84q74 16 100 29q33 14 33 30v971q0 12 -31 31q-27 16 -102 33v82h905l43 -35q-3 -25 -6 -68q-2 -29 -10 -86l-12 -84q-6 -39 -13 -57h-86q-6 104 -24 147q-23 53 -58 53h-325v-395h395l37 -39q-8 -14 -20.5 -32.5t-24.5 -38.5q-16 -25 -25 -35q-14 -18 -22 -25 q-20 20 -33 27q-23 10 -41 16q-27 8 -53 10q-20 2 -72 3h-141v-426q0 -10 8 -27q6 -10 29 -21q22 -9 61 -12q80 -6 106 -6h89q41 0 79 14q33 12 58 39q23 27 45 70q14 31 41 100l84 -28q-2 -18 -5 -41t-6 -52q-2 -16 -5 -48.5t-5 -49.5l-12 -82q-2 -10 -4 -27.5t-4 -23.5 h-973zM397 1488q0 45 15 76q16 37 39 60q29 29 53 41q29 14 63 14q59 0 97 -33q35 -31 34 -96q0 -37 -14 -76q-12 -35 -37 -59q-29 -29 -53 -41q-29 -14 -66 -15q-63 0 -96 33q-35 35 -35 96z" />
<glyph unicode="&#x117;" horiz-adv-x="1005" d="M59 444q0 137 49.5 237.5t151.5 178.5q57 45 133 72q80 29 162 29q92 0 170 -33q72 -29 123 -88q49 -55 74 -131q25 -78 24 -162q-10 -10 -28 -23q-25 -16 -39 -24l-45 -23q-10 -6 -37 -16h-457q2 -59 20 -127q16 -59 46 -98q35 -45 71 -64q45 -23 98 -22q20 0 62 4 q29 2 65 16q31 10 78 35q35 16 103 61l14 -14q12 -12 18 -21q4 -6 8.5 -11t8.5 -11l4 -8t4 -6q-78 -74 -127 -113q-59 -47 -108.5 -69.5t-104.5 -32.5q-57 -10 -115 -11q-86 0 -166 35q-72 31 -135 98q-53 57 -90 150q-35 88 -35 192zM342 580h301q23 0 31 8t8 28 q0 35 -8 68q-8 35 -29 72q-18 35 -51 57.5t-78 22.5t-76 -19q-33 -18 -51 -49q-18 -29 -33 -82q-10 -40 -14 -106zM393 1210q0 43 15 74q16 37 39 59q29 29 53 41q33 16 63 17q59 0 97 -33q35 -31 34 -98q0 -35 -14 -74t-37 -61q-25 -25 -53 -39q-33 -16 -66 -17 q-63 0 -96 33q-35 35 -35 98z" />
<glyph unicode="&#x11a;" horiz-adv-x="1095" d="M41 0v84q74 16 100 29q33 14 33 30v971q0 12 -31 31q-27 16 -102 33v82h905l43 -35q-3 -25 -6 -68q-2 -29 -10 -86l-12 -84q-6 -39 -13 -57h-86q-6 104 -24 147q-23 53 -58 53h-325v-395h395l37 -39q-8 -14 -20.5 -32.5t-24.5 -38.5q-16 -25 -25 -35q-14 -18 -22 -25 q-20 20 -33 27q-23 10 -41 16q-27 8 -53 10q-20 2 -72 3h-141v-426q0 -10 8 -27q6 -10 29 -21q22 -9 61 -12q80 -6 106 -6h89q41 0 79 14q33 12 58 39q23 27 45 70q14 31 41 100l84 -28q-2 -18 -5 -41t-6 -52q-2 -16 -5 -48.5t-5 -49.5l-12 -82q-2 -10 -4 -27.5t-4 -23.5 h-973zM201 1718q20 29 31 39q20 20 32 26l285 -180l281 180q16 -8 34 -26q14 -14 29 -39l-272 -336h-148z" />
<glyph unicode="&#x11b;" horiz-adv-x="1005" d="M59 444q0 137 49.5 237.5t151.5 178.5q57 45 133 72q80 29 162 29q92 0 170 -33q72 -29 123 -88q49 -55 74 -131q25 -78 24 -162q-10 -10 -28 -23q-25 -16 -39 -24l-45 -23q-10 -6 -37 -16h-457q2 -59 20 -127q16 -59 46 -98q35 -45 71 -64q45 -23 98 -22q20 0 62 4 q29 2 65 16q31 10 78 35q35 16 103 61l14 -14q12 -12 18 -21q4 -6 8.5 -11t8.5 -11l4 -8t4 -6q-78 -74 -127 -113q-59 -47 -108.5 -69.5t-104.5 -32.5q-57 -10 -115 -11q-86 0 -166 35q-72 31 -135 98q-53 57 -90 150q-35 88 -35 192zM342 580h301q23 0 31 8t8 28 q0 35 -8 68q-8 35 -29 72q-18 35 -51 57.5t-78 22.5t-76 -19q-33 -18 -51 -49q-18 -29 -33 -82q-10 -40 -14 -106zM193 1450q2 4 7 12l10 15.5t12 15.5q18 25 34 33l283 -207l283 207q6 -2 16 -13l6 -6t8 -7t6 -7q4 -4 10.5 -10t10.5 -10q6 -6 10 -13.5t6 -9.5l-282 -387 h-148z" />
<glyph unicode="&#x11c;" horiz-adv-x="1243" d="M49 582q0 158 55 297q51 131 148 223q92 90 223 139q129 49 283 49q18 0 80 -8q53 -6 98 -18q39 -10 96 -33q53 -20 80 -43q4 -2 0 -21l-14 -41q-8 -20 -25 -51q-27 -47 -29 -51q-4 -8 -13 -23.5t-13 -21.5q-12 -18 -23 -29l-71 17q-34 55 -68 92q-37 39 -68 59 q-39 25 -71.5 33t-77.5 8q-31 0 -57 -8q-33 -10 -68 -35q-41 -31 -65 -61q-37 -49 -58 -97q-27 -61 -41 -139q-14 -74 -14 -182q0 -127 29 -225q27 -92 77 -156q49 -61 113 -88q68 -29 131 -29q53 0 86 8q45 12 68 23v295q0 16 -2 22q-4 10 -17 21q-12 9 -43 18 q-49 14 -84 21v84h510v-84q-27 -6 -47 -16.5t-29 -18.5q-12 -12 -14 -23q-4 -16 -4 -24v-291q-66 -55 -139 -100q-70 -43 -125 -64q-58 -22 -111 -30q-57 -10 -96 -11q-70 0 -147 17q-66 14 -137.5 51t-121.5 84q-59 55 -96 119q-43 74 -63 153q-25 99 -25 189zM316 1421 l282 330h127l283 -330q-16 -25 -29 -37q-23 -23 -34 -29l-283 150l-283 -150q-8 4 -32 29z" />
<glyph unicode="&#x11d;" horiz-adv-x="1077" d="M10 -219q0 29 10 49q14 29 39 53q23 23 76 62q43 31 121 73q-59 23 -86 48q-29 25 -29 47t47 80q41 47 148 122q-58 15 -105 43q-53 31 -81 64q-33 35 -52 82q-18 46 -18 98q0 74 37 139q35 63 98 113q63 51 145 78q86 29 175 29q68 0 135 -21q61 -18 112 -53q27 4 80 16 q40 9 74 19q35 10 63 20q28 9 50 19l30 -41l-8 -25q-8 -20 -14 -32.5t-19 -33.5l-7 -14t-9 -14q-45 -8 -68 -10q-34 -3 -73 -7q39 -63 39 -143q0 -78 -33 -141q-33 -61 -92 -109q-61 -49 -133 -72q-76 -25 -162 -24h-13q-33 -33 -43 -53q-8 -16 -8 -27q0 -6 4 -14 q4 -6 27 -17q12 -6 63 -16q41 -8 121 -18q121 -16 201 -37q86 -23 125 -50q49 -33 65 -69q18 -39 19 -94q0 -41 -23 -90q-20 -45 -59 -91q-39 -47 -90 -81q-57 -41 -113 -66q-70 -31 -127 -45q-70 -16 -133 -16q-53 0 -110 6q-70 8 -117 20q-74 20 -107 35q-43 18 -88 53 q-43 33 -61 68q-23 41 -23 88zM281 -180q0 -31 22.5 -59.5t63.5 -49t100 -33.5q68 -14 125 -14q49 0 96 14q33 10 64 37q25 22 36 49q12 27 13 60q0 16 -8 33q-10 20 -33 34q-27 16 -70 31q-46 15 -123 25q-104 12 -178 33q-37 -27 -61 -54q-14 -16 -31 -41q-10 -16 -14 -35 q-2 -10 -2 -30zM340 659q0 -47 10 -94q8 -41 33 -76q23 -33 57.5 -51t83.5 -18q33 0 54 10q23 12 43 34.5t28 55.5q10 37 10 80q0 49 -12 92q-12 41 -35 78q-18 31 -57 51q-34 18 -80 19q-29 0 -49 -11q-23 -12 -43 -34q-18 -22 -30.5 -56t-12.5 -80zM179 1112l282 389h148 l272 -389q-2 -4 -7 -12l-10 -15.5t-12 -15.5q-18 -25 -34 -33l-283 209l-283 -209q-6 2 -16 13l-6 6t-8 7t-6.5 7t-10.5 11t-10 12q-10 12 -16 20z" />
<glyph unicode="&#x11e;" horiz-adv-x="1243" d="M49 582q0 158 55 297q51 131 148 223q92 90 223 139q129 49 283 49q18 0 80 -8q53 -6 98 -18q39 -10 96 -33q53 -20 80 -43q4 -2 0 -21l-14 -41q-8 -20 -25 -51q-27 -47 -29 -51q-4 -8 -13 -23.5t-13 -21.5q-12 -18 -23 -29l-71 17q-34 55 -68 92q-37 39 -68 59 q-39 25 -71.5 33t-77.5 8q-31 0 -57 -8q-33 -10 -68 -35q-41 -31 -65 -61q-37 -49 -58 -97q-27 -61 -41 -139q-14 -74 -14 -182q0 -127 29 -225q27 -92 77 -156q49 -61 113 -88q68 -29 131 -29q53 0 86 8q45 12 68 23v295q0 16 -2 22q-4 10 -17 21q-12 9 -43 18 q-49 14 -84 21v84h510v-84q-27 -6 -47 -16.5t-29 -18.5q-12 -12 -14 -23q-4 -16 -4 -24v-291q-66 -55 -139 -100q-70 -43 -125 -64q-58 -22 -111 -30q-57 -10 -96 -11q-70 0 -147 17q-66 14 -137.5 51t-121.5 84q-59 55 -96 119q-43 74 -63 153q-25 99 -25 189zM297 1689 q2 4 8.5 10t8.5 11l22 22l25 19q18 14 20 14q23 -39 60 -76q27 -27 71 -53q35 -20 76 -33q40 -12 74 -12q41 0 74 10q39 12 77 35q45 27 72 53q37 37 60 76q2 0 20 -14l10 -8q10 -7 15 -11l7 -7t9 -8t6 -7.5t8 -10.5t8 -10q-31 -78 -71 -139q-39 -57 -88 -96 q-51 -41 -98.5 -57.5t-104.5 -16.5q-63 0 -111 16q-51 18 -100 57.5t-88 96.5q-37 53 -70 139z" />
<glyph unicode="&#x11f;" horiz-adv-x="1077" d="M10 -219q0 29 10 49q14 29 39 53q23 23 76 62q43 31 121 73q-59 23 -86 48q-29 25 -29 47t47 80q41 47 148 122q-58 15 -105 43q-53 31 -81 64q-33 35 -52 82q-18 46 -18 98q0 74 37 139q35 63 98 113q63 51 145 78q86 29 175 29q68 0 135 -21q61 -18 112 -53q27 4 80 16 q40 9 74 19q35 10 63 20q28 9 50 19l30 -41l-8 -25q-8 -20 -14 -32.5t-19 -33.5l-7 -14t-9 -14q-45 -8 -68 -10q-34 -3 -73 -7q39 -63 39 -143q0 -78 -33 -141q-33 -61 -92 -109q-61 -49 -133 -72q-76 -25 -162 -24h-13q-33 -33 -43 -53q-8 -16 -8 -27q0 -6 4 -14 q4 -6 27 -17q12 -6 63 -16q41 -8 121 -18q121 -16 201 -37q86 -23 125 -50q49 -33 65 -69q18 -39 19 -94q0 -41 -23 -90q-20 -45 -59 -91q-39 -47 -90 -81q-57 -41 -113 -66q-70 -31 -127 -45q-70 -16 -133 -16q-53 0 -110 6q-70 8 -117 20q-74 20 -107 35q-43 18 -88 53 q-43 33 -61 68q-23 41 -23 88zM281 -180q0 -31 22.5 -59.5t63.5 -49t100 -33.5q68 -14 125 -14q49 0 96 14q33 10 64 37q25 22 36 49q12 27 13 60q0 16 -8 33q-10 20 -33 34q-27 16 -70 31q-46 15 -123 25q-104 12 -178 33q-37 -27 -61 -54q-14 -16 -31 -41q-10 -16 -14 -35 q-2 -10 -2 -30zM340 659q0 -47 10 -94q8 -41 33 -76q23 -33 57.5 -51t83.5 -18q33 0 54 10q23 12 43 34.5t28 55.5q10 37 10 80q0 49 -12 92q-12 41 -35 78q-18 31 -57 51q-34 18 -80 19q-29 0 -49 -11q-23 -12 -43 -34q-18 -22 -30.5 -56t-12.5 -80zM168 1370q2 4 8.5 10 t8.5 11l22 22l25 19q18 14 20 14q23 -39 60 -76q27 -27 71 -53q35 -20 76 -33q40 -12 74 -12q41 0 74 10q39 12 77 35q45 27 72 53q37 37 60 76q2 0 20 -14l10 -8q10 -7 15 -11l7 -7t9 -8t6 -7.5t8 -10.5t8 -10q-31 -78 -71 -139q-39 -57 -88 -96q-51 -41 -98.5 -57.5 t-104.5 -16.5q-63 0 -111 16q-51 18 -100 57.5t-88 96.5q-37 53 -70 139z" />
<glyph unicode="&#x120;" horiz-adv-x="1243" d="M49 582q0 158 55 297q51 131 148 223q92 90 223 139q129 49 283 49q18 0 80 -8q53 -6 98 -18q39 -10 96 -33q53 -20 80 -43q4 -2 0 -21l-14 -41q-8 -20 -25 -51q-27 -47 -29 -51q-4 -8 -13 -23.5t-13 -21.5q-12 -18 -23 -29l-71 17q-34 55 -68 92q-37 39 -68 59 q-39 25 -71.5 33t-77.5 8q-31 0 -57 -8q-33 -10 -68 -35q-41 -31 -65 -61q-37 -49 -58 -97q-27 -61 -41 -139q-14 -74 -14 -182q0 -127 29 -225q27 -92 77 -156q49 -61 113 -88q68 -29 131 -29q53 0 86 8q45 12 68 23v295q0 16 -2 22q-4 10 -17 21q-12 9 -43 18 q-49 14 -84 21v84h510v-84q-27 -6 -47 -16.5t-29 -18.5q-12 -12 -14 -23q-4 -16 -4 -24v-291q-66 -55 -139 -100q-70 -43 -125 -64q-58 -22 -111 -30q-57 -10 -96 -11q-70 0 -147 17q-66 14 -137.5 51t-121.5 84q-59 55 -96 119q-43 74 -63 153q-25 99 -25 189zM512 1488 q0 45 15 76q16 37 39 60q29 29 53 41q29 14 63 14q59 0 97 -33q35 -31 34 -96q0 -37 -14 -76q-12 -35 -37 -59q-29 -29 -53 -41q-29 -14 -66 -15q-63 0 -96 33q-35 35 -35 96z" />
<glyph unicode="&#x121;" horiz-adv-x="1077" d="M10 -219q0 29 10 49q14 29 39 53q23 23 76 62q43 31 121 73q-59 23 -86 48q-29 25 -29 47t47 80q41 47 148 122q-58 15 -105 43q-53 31 -81 64q-33 35 -52 82q-18 46 -18 98q0 74 37 139q35 63 98 113q63 51 145 78q86 29 175 29q68 0 135 -21q61 -18 112 -53q27 4 80 16 q40 9 74 19q35 10 63 20q28 9 50 19l30 -41l-8 -25q-8 -20 -14 -32.5t-19 -33.5l-7 -14t-9 -14q-45 -8 -68 -10q-34 -3 -73 -7q39 -63 39 -143q0 -78 -33 -141q-33 -61 -92 -109q-61 -49 -133 -72q-76 -25 -162 -24h-13q-33 -33 -43 -53q-8 -16 -8 -27q0 -6 4 -14 q4 -6 27 -17q12 -6 63 -16q41 -8 121 -18q121 -16 201 -37q86 -23 125 -50q49 -33 65 -69q18 -39 19 -94q0 -41 -23 -90q-20 -45 -59 -91q-39 -47 -90 -81q-57 -41 -113 -66q-70 -31 -127 -45q-70 -16 -133 -16q-53 0 -110 6q-70 8 -117 20q-74 20 -107 35q-43 18 -88 53 q-43 33 -61 68q-23 41 -23 88zM281 -180q0 -31 22.5 -59.5t63.5 -49t100 -33.5q68 -14 125 -14q49 0 96 14q33 10 64 37q25 22 36 49q12 27 13 60q0 16 -8 33q-10 20 -33 34q-27 16 -70 31q-46 15 -123 25q-104 12 -178 33q-37 -27 -61 -54q-14 -16 -31 -41q-10 -16 -14 -35 q-2 -10 -2 -30zM340 659q0 -47 10 -94q8 -41 33 -76q23 -33 57.5 -51t83.5 -18q33 0 54 10q23 12 43 34.5t28 55.5q10 37 10 80q0 49 -12 92q-12 41 -35 78q-18 31 -57 51q-34 18 -80 19q-29 0 -49 -11q-23 -12 -43 -34q-18 -22 -30.5 -56t-12.5 -80zM383 1210q0 43 15 74 q16 37 39 59q29 29 53 41q33 16 63 17q59 0 97 -33q35 -31 34 -98q0 -35 -14 -74t-37 -61q-25 -25 -53 -39q-33 -16 -66 -17q-63 0 -96 33q-35 35 -35 98z" />
<glyph unicode="&#x124;" horiz-adv-x="1417" d="M41 0v84q74 16 100 29q33 14 33 30v971q0 12 -31 31q-27 16 -102 33v82h549v-82q-76 -16 -101 -31q-35 -18 -34 -33v-389h489v389q0 12 -31 31q-27 16 -102 33v82h549v-82q-76 -16 -100 -31q-35 -18 -35 -33v-971q0 -8 32 -28q23 -12 103 -31v-84h-549v84q74 16 100 29 q33 14 33 30v453h-489v-453q0 -10 30 -28q23 -14 105 -31v-84h-549zM354 1421l282 330h127l283 -330q-16 -25 -29 -37q-23 -23 -34 -29l-283 150l-283 -150q-8 4 -32 29z" />
<glyph unicode="&#x125;" horiz-adv-x="1208" d="M45 0v84q94 27 98 29q31 12 31 30v1114q0 49 -2 66q-4 27 -14 37q-12 12 -39 18q-31 6 -74 13v79q106 16 109 17q8 2 40.5 7t49.5 9q53 12 78 21q49 16 75 26l47 -45v-692q76 49 117 70q47 23 105 45q49 18 92 24q57 8 82 9q45 0 82 -15q43 -16 71 -45q31 -31 49 -84 q18 -51 19 -127v-547q0 -8 4 -12q10 -10 20 -14q4 -2 18.5 -6.5t22.5 -8.5q27 -10 64 -18v-84h-531v84q82 20 103 33q29 16 29 26v410q0 61 -6.5 100t-18.5 64q-12 23 -35 33q-25 10 -49 10q-29 0 -53 -6q-27 -6 -54 -19q-45 -20 -59 -28l-72 -37v-527q0 -16 33 -30 q25 -10 98 -29v-84h-530zM270 1671l282 330h127l283 -330q-16 -25 -29 -37q-23 -23 -34 -29l-283 150l-283 -150q-8 4 -32 29z" />
<glyph unicode="&#x128;" horiz-adv-x="688" d="M59 0v84q78 18 103 29q33 14 33 30v971q0 12 -31 31q-27 16 -105 33v82h551v-82q-80 -18 -102 -31q-33 -18 -33 -33v-971q0 -10 31 -28q20 -12 104 -31v-84h-551zM-75 1388l45 94q23 49 59.5 98.5t75.5 77.5q43 31 90 31t92 -16q29 -10 82 -35l35.5 -17.5t42.5 -19.5 q35 -14 72 -14q45 0 77 26q34 28 68 86l84 -32l-21.5 -43t-23.5 -50q-23 -49 -60 -98q-33 -45 -75.5 -75.5t-89.5 -30.5q-43 0 -89 16q-29 10 -81 35q-63 29 -78 35q-43 16 -78 16q-18 0 -43 -8q-23 -6 -35 -21q-29 -27 -33 -34l-32 -50z" />
<glyph unicode="&#x129;" horiz-adv-x="634" d="M59 0v84q80 18 101 29q31 15 30 30v496v84q0 31 -12 49q-10 14 -39 25q-23 8 -80 14v80q109 14 174 27q53 10 152 43h76v-818q0 -10 28 -28q20 -14 101 -31v-84h-531zM-86 1110l21 43l24 49q23 49 59.5 98.5t75.5 77.5q43 31 90 31q51 0 92 -14q8 -4 82 -37 q53 -25 78 -35q39 -16 72 -16q45 0 77 26q34 28 68 86l84 -33q-6 -14 -21.5 -44.5t-23.5 -47.5q-20 -43 -60 -96q-37 -49 -75 -78q-43 -31 -90 -30q-43 0 -89 16q-29 10 -81 35q-6 2 -34 16t-44 21q-43 16 -78 16q-18 0 -43 -8q-18 -6 -35 -23q-29 -29 -33 -35l-32 -49z" />
<glyph unicode="&#x12a;" horiz-adv-x="688" d="M59 0v84q78 18 103 29q33 14 33 30v971q0 12 -31 31q-27 16 -105 33v82h551v-82q-80 -18 -102 -31q-33 -18 -33 -33v-971q0 -10 31 -28q20 -12 104 -31v-84h-551zM10 1527q6 20 10 31q6 12 19 41q2 4 18 41q4 10 8 17.5t7 11.5h573l35 -35q-2 -4 -13 -31q-8 -20 -18 -41 q-2 -4 -18 -41l-13 -26h-573z" />
<glyph unicode="&#x12b;" horiz-adv-x="634" d="M59 0v84q80 18 101 29q31 15 30 30v496v84q0 31 -12 49q-10 14 -39 25q-23 8 -80 14v80q109 14 174 27q53 10 152 43h76v-818q0 -10 28 -28q20 -14 101 -31v-84h-531zM0 1208q6 20 10 31q6 12 19 41q2 4 18 41q4 10 8 17.5t7 11.5h573l35 -35q-2 -4 -13 -31 q-8 -20 -18 -41q-2 -4 -18 -41l-13 -26h-573z" />
<glyph unicode="&#x12c;" horiz-adv-x="688" d="M59 0v84q78 18 103 29q33 14 33 30v971q0 12 -31 31q-27 16 -105 33v82h551v-82q-80 -18 -102 -31q-33 -18 -33 -33v-971q0 -10 31 -28q20 -12 104 -31v-84h-551zM-31 1689q2 4 8.5 10t8.5 11l22 22l25 19q18 14 20 14q23 -39 60 -76q27 -27 71 -53q35 -20 76 -33 q40 -12 74 -12q41 0 74 10q39 12 77 35q45 27 72 53q37 37 60 76q2 0 20 -14l10 -8q10 -7 15 -11l7 -7t9 -8t6 -7.5t8 -10.5t8 -10q-31 -78 -71 -139q-39 -57 -88 -96q-51 -41 -98.5 -57.5t-104.5 -16.5q-63 0 -111 16q-51 18 -100 57.5t-88 96.5q-37 53 -70 139z" />
<glyph unicode="&#x12d;" horiz-adv-x="634" d="M59 0v84q80 18 101 29q31 15 30 30v496v84q0 31 -12 49q-10 14 -39 25q-23 8 -80 14v80q109 14 174 27q53 10 152 43h76v-818q0 -10 28 -28q20 -14 101 -31v-84h-531zM-41 1370q2 4 8.5 10t8.5 11l22 22l25 19q18 14 20 14q23 -39 60 -76q27 -27 71 -53q35 -20 76 -33 q40 -12 74 -12q41 0 74 10q39 12 77 35q45 27 72 53q37 37 60 76q2 0 20 -14l10 -8q10 -7 15 -11l7 -7t9 -8t6 -7.5t8 -10.5t8 -10q-31 -78 -71 -139q-39 -57 -88 -96q-51 -41 -98.5 -57.5t-104.5 -16.5q-63 0 -111 16q-51 18 -100 57.5t-88 96.5q-37 53 -70 139z" />
<glyph unicode="&#x130;" horiz-adv-x="688" d="M59 0v84q78 18 103 29q33 14 33 30v971q0 12 -31 31q-27 16 -105 33v82h551v-82q-80 -18 -102 -31q-33 -18 -33 -33v-971q0 -10 31 -28q20 -12 104 -31v-84h-551zM184 1488q0 45 15 76q16 37 39 60q29 29 53 41q29 14 63 14q59 0 97 -33q35 -31 34 -96q0 -37 -14 -76 q-12 -35 -37 -59q-29 -29 -53 -41q-29 -14 -66 -15q-63 0 -96 33q-35 35 -35 96z" />
<glyph unicode="&#x131;" horiz-adv-x="634" d="M59 0v84q80 18 101 29q31 15 30 30v496v84q0 31 -12 49q-10 14 -39 25q-23 8 -80 14v80q109 14 174 27q53 10 152 43h76v-818q0 -10 28 -28q20 -14 101 -31v-84h-531z" />
<glyph unicode="&#x132;" horiz-adv-x="1394" d="M59 0v84q78 18 103 29q33 14 33 30v971q0 12 -31 31q-27 16 -105 33v82h551v-82q-80 -18 -102 -31q-33 -18 -33 -33v-971q0 -10 31 -28q20 -12 104 -31v-84h-551zM399 -330q0 6 12 23q25 31 29 35l39 39q2 2 43 38q20 18 37 29q23 14 27 16q57 -55 108 -75q55 -23 90 -23 q18 0 51 12q25 10 43 46q18 37 31 106q10 59 10 186v1012q0 8 -6 14q-2 2 -26 15q-10 4 -56 16q-39 10 -96 19v82h600v-82q-80 -18 -102 -31q-33 -18 -33 -33v-940q0 -104 -25 -184q-27 -84 -59 -137q-35 -53 -82 -99q-45 -41 -84 -71q-37 -29 -59.5 -43.5t-71.5 -34.5 q-39 -16 -76 -25q-45 -10 -78 -10q-57 0 -96 10q-61 16 -86 27q-41 16 -59 33q-25 20 -25 30z" />
<glyph unicode="&#x133;" horiz-adv-x="1243" d="M59 0v84q80 18 101 29q31 15 30 30v496v84q0 31 -12 49q-10 14 -39 25q-23 8 -80 14v80q109 14 174 27q53 10 152 43h76v-818q0 -10 28 -28q20 -14 101 -31v-84h-531zM160 1221q0 37 14 63q16 29 39 49q23 18 59 33q29 10 72 10q29 0 57 -6q31 -6 50 -20q27 -18 36 -37 q12 -23 13 -51q0 -39 -15 -66q-16 -29 -38.5 -49.5t-57.5 -32.5q-29 -10 -74 -10q-29 0 -57 6q-31 6 -49 20q-27 18 -37 37q-12 21 -12 54zM326 -391q0 14 10 26q25 31 29 35t11 12.5t14 14.5l14 12q29 25 43 35q6 4 19 14.5t19 14.5q23 14 27 16q10 -12 41 -37 q27 -20 51 -31q39 -18 51 -20q25 -6 46 -6q25 0 47 12q20 12 37 51q18 43 26 107q8 59 8 178v596v84q0 29 -12 47t-39 27q-25 8 -78 14v80q47 4 99 12q29 4 77 17q25 6 70 18l78 23h76v-852q0 -111 -23 -195q-18 -70 -57 -133q-33 -53 -78 -92q-76 -66 -82 -70 q-12 -10 -61 -41q-27 -16 -70 -35q-39 -16 -71.5 -24t-65.5 -8q-49 0 -88 10q-55 14 -84 26q-41 16 -62 33q-22 17 -22 29zM795 1221q0 37 14 63q16 29 39 49q23 18 59 33q29 10 72 10q29 0 57 -6q31 -6 50 -20q27 -18 36 -37q12 -23 13 -51q0 -39 -15 -66 q-16 -29 -38.5 -49.5t-57.5 -32.5q-29 -10 -74 -10q-29 0 -57 6q-31 6 -49 20q-27 18 -37 37q-12 21 -12 54z" />
<glyph unicode="&#x139;" horiz-adv-x="1064" d="M41 0v84q74 16 100 29q33 14 33 30v971q0 12 -31 31q-27 16 -102 33v82h549v-82q-76 -16 -101 -31q-35 -18 -34 -33v-909q0 -23 8 -33q10 -14 31 -22q18 -8 57 -15q37 -6 90 -6h102q43 0 78 14q33 12 56 39q25 29 43 70q29 66 41 100l83 -28q-2 -25 -10 -93l-4 -49 t-6 -49l-12 -82q-2 -10 -4 -27.5t-4 -23.5h-963zM301 1431l357 346l27.5 -14t31.5 -17l60 -36q6 -4 16 -11.5t18.5 -12.5t14.5 -9q29 -20 30 -23l9 -55l-490 -244q-9 3 -18 13q-2 2 -6.5 6t-8.5 7t-6 7t-8 11l-10 12q-4 6 -9.5 12t-7.5 8z" />
<glyph unicode="&#x13a;" horiz-adv-x="634" d="M49 0v84q20 2 72 14q16 4 43 15q14 6 20 14t6 16v1112q0 37 -4 70q-4 27 -18 39q-16 14 -41 16q-8 2 -30.5 5.5t-37.5 5.5v79q20 2 57.5 7.5t45.5 7.5q31 4 88 16q51 10 82 21l82 28l47 -45v-1362q0 -8 6 -14l22 -16q12 -8 43 -15q57 -12 68 -14v-84h-551zM118 1751 l357 346l27.5 -14t31.5 -17l60 -36q6 -4 16 -11.5t18.5 -12.5t14.5 -9q29 -20 30 -23l9 -55l-490 -244q-9 3 -18 13q-2 2 -6.5 6t-8.5 7t-6 7t-8 11l-10 12q-4 6 -9.5 12t-7.5 8z" />
<glyph unicode="&#x141;" horiz-adv-x="1064" d="M20 408q0 14 7 36q2 6 5 20.5t5 20.5l12 37q6 16 12 27l113 57v508q0 12 -31 31q-27 16 -102 33v82h549v-82q-76 -16 -101 -31q-35 -18 -34 -33v-366l286 145l27 -27q-2 -6 -4 -17t-2 -18q-2 -16 -10 -38q-2 -6 -7.5 -18.5t-7.5 -18.5q-4 -12 -12 -29l-270 -135v-387 q0 -23 8 -33q10 -14 31 -22q18 -8 57 -15q37 -6 90 -6h102q43 0 78 14q33 12 56 39q25 29 43 70q29 66 41 100l83 -28q-2 -25 -10 -93l-4 -49t-6 -49l-12 -82q-2 -10 -4 -27.5t-4 -23.5h-963v84q74 16 100 29q33 14 33 30v306l-127 -64z" />
<glyph unicode="&#x142;" horiz-adv-x="673" d="M31 512q0 18 6 43q10 39 14 51q2 6 7 22.5t10 24.5q10 27 14 31l129 90v492q0 20 -6 69q-4 27 -19 39q-16 14 -39 17q-8 2 -30.5 5l-36.5 5v80q20 2 57 7t45 7q31 4 88 16q51 10 82 21q12 4 82 29l45 -45v-553l156 106l24 -25q-4 -25 -8 -40q-2 -8 -7 -24.5t-7 -25.5 q-4 -16 -16 -45q-2 -6 -7.5 -18t-7.5 -17l-127 -88v-643q0 -6 8 -14q8 -6 23 -16q12 -8 43 -15q57 -12 68 -14v-84h-551v84q20 2 71 14q16 4 43 15q14 6 20.5 14t6.5 16v455l-154 -109z" />
<glyph unicode="&#x143;" horiz-adv-x="1368" d="M41 0v84q74 8 102 27q31 18 31 32v959q-20 20 -65 49q-31 20 -68 27v82h301q18 0 25 -3q12 -4 18 -10q14 -14 23 -24l8 -11.5t9 -11.5t13 -18l596 -830v762q0 8 -6 16q-4 6 -20 17q-4 2 -41 16q-18 6 -68 15v82h430v-82q-70 -8 -102.5 -29t-32.5 -35v-1145q-51 2 -98 17 q-57 16 -80 26q-37 16 -60 37q-31 27 -41 41l-579 805v-752q0 -4 6 -14q4 -4 23 -16q4 -2 41 -17q12 -4 63 -12v-84h-428zM479 1431l357 346l27.5 -14t31.5 -17l60 -36q6 -4 16 -11.5t18.5 -12.5t14.5 -9q29 -20 30 -23l9 -55l-490 -244q-9 3 -18 13q-2 2 -6.5 6t-8.5 7 t-6 7t-8 11l-10 12q-4 6 -9.5 12t-7.5 8z" />
<glyph unicode="&#x144;" horiz-adv-x="1208" d="M45 0v84q94 27 98 29q31 12 31 30v539v61q0 20 -14 35q-16 16 -37 21q-31 6 -78 12v80q16 2 49 5t49 5q35 4 86 17l78 18q35 8 78 25l45 -46l10 -108q51 35 119 72q55 31 104.5 49t92.5 24q57 8 84 9q45 0 82 -15q43 -16 71 -45q31 -31 49 -84q18 -51 19 -127v-547 q0 -8 4 -12q10 -10 20 -14q4 -2 18.5 -6.5t22.5 -8.5q27 -10 64 -18v-84h-531v84q82 20 103 33q29 16 29 26v430q0 51 -7 89q-6 41 -16 57q-12 23 -29 31q-20 10 -47 10q-12 0 -45 -4q-23 -2 -51 -13q-37 -12 -66 -26q-20 -10 -86 -47v-527q0 -16 33 -30q25 -10 98 -29v-84 h-530zM455 1085l202 435q4 0 6 -1t8.5 -2t14.5 -1q12 -2 45 -7q20 -2 55 -10q29 -4 54 -8q8 -2 24.5 -5t22.5 -3q20 -2 26 -6l33 -60l-395 -381q-2 0 -23 8q-6 2 -14 6.5t-14.5 6.5t-14.5 8t-12 8q-12 6 -18 12z" />
<glyph unicode="&#x147;" horiz-adv-x="1368" d="M41 0v84q74 8 102 27q31 18 31 32v959q-20 20 -65 49q-31 20 -68 27v82h301q18 0 25 -3q12 -4 18 -10q14 -14 23 -24l8 -11.5t9 -11.5t13 -18l596 -830v762q0 8 -6 16q-4 6 -20 17q-4 2 -41 16q-18 6 -68 15v82h430v-82q-70 -8 -102.5 -29t-32.5 -35v-1145q-51 2 -98 17 q-57 16 -80 26q-37 16 -60 37q-31 27 -41 41l-579 805v-752q0 -4 6 -14q4 -4 23 -16q4 -2 41 -17q12 -4 63 -12v-84h-428zM338 1718q20 29 31 39q20 20 32 26l285 -180l281 180q16 -8 34 -26q14 -14 29 -39l-272 -336h-148z" />
<glyph unicode="&#x148;" horiz-adv-x="1208" d="M45 0v84q94 27 98 29q31 12 31 30v539v61q0 20 -14 35q-16 16 -37 21q-31 6 -78 12v80q16 2 49 5t49 5q35 4 86 17l78 18q35 8 78 25l45 -46l10 -108q51 35 119 72q55 31 104.5 49t92.5 24q57 8 84 9q45 0 82 -15q43 -16 71 -45q31 -31 49 -84q18 -51 19 -127v-547 q0 -8 4 -12q10 -10 20 -14q4 -2 18.5 -6.5t22.5 -8.5q27 -10 64 -18v-84h-531v84q82 20 103 33q29 16 29 26v430q0 51 -7 89q-6 41 -16 57q-12 23 -29 31q-20 10 -47 10q-12 0 -45 -4q-23 -2 -51 -13q-37 -12 -66 -26q-20 -10 -86 -47v-527q0 -16 33 -30q25 -10 98 -29v-84 h-530zM264 1450q2 4 7 12l10 15.5t12 15.5q18 25 34 33l283 -207l283 207q6 -2 16 -13l6 -6t8 -7t6 -7q4 -4 10.5 -10t10.5 -10q6 -6 10 -13.5t6 -9.5l-282 -387h-148z" />
<glyph unicode="&#x14a;" horiz-adv-x="1363" d="M39 0v84q78 18 102 29q33 14 33 30v846v64q0 20 -14.5 38.5t-36.5 22.5q-31 6 -78 12v84q55 4 84 11l98 18l99 25q51 12 84 26l45 -45v-186q76 61 153 112q76 49 131 72q74 31 117 37q61 10 109 10q43 0 88 -12q37 -10 84 -49q39 -33 63.5 -94.5t24.5 -153.5v-705 q0 -113 -17 -184q-20 -88 -51 -149.5t-84 -124.5q-39 -47 -117 -117q-27 -25 -63 -45q-57 -33 -80 -43q-41 -18 -96 -31q-53 -12 -109 -12q-31 0 -63 6q-23 4 -68 16q-51 14 -67 21q-10 4 -56 27q-23 10 -39 24q-16 12 -16 25q0 2 14 20q8 10 35 37l13.5 13.5t16.5 17.5 t15 14q4 4 51 43q8 6 14.5 12.5l9.5 9.5t8 7t11 8q18 14 29 18l57 -53q27 -23 58 -45q29 -20 63.5 -32.5t69.5 -12.5q41 0 76 29q33 27 57 86q20 49 35 149q12 88 12 213v649q0 66 -6 107q-6 45 -20 63q-18 25 -39 31q-25 6 -62 6q-31 0 -61 -8q-43 -12 -80 -33 q-45 -27 -101 -65q-59 -43 -120 -105v-725q0 -10 37 -28q29 -14 108 -31v-84h-561z" />
<glyph unicode="&#x14b;" horiz-adv-x="1159" d="M45 0v84q94 27 98 29q31 12 31 30v539q0 49 -2 66q-2 20 -16 34q-12 12 -39 19q-8 2 -72 10v80q37 0 82 6q25 4 94 16q39 8 92 23q57 16 72 25l45 -46l10 -108q51 35 119 72q55 31 104.5 49t92.5 24q57 8 84 9q49 0 90 -19q45 -20 69 -51q33 -39 45 -78q16 -49 17 -102 v-592q0 -96 -17 -172q-16 -72 -43 -127q-27 -53 -71 -99q-49 -49 -92 -81.5t-62 -45.5q-37 -23 -78 -40q-45 -20 -90 -31q-49 -12 -106 -12q-55 0 -109 12q-43 10 -96 33q-41 18 -66 38q-27 23 -26 35q0 6 12 25q8 12 33 37l45 43l49 43l45 33q18 14 33 20q29 -37 47 -53 q23 -20 57 -47q25 -18 56 -33q29 -12 51 -12q6 0 26 4q16 4 33 14t35 33q16 18 33 61q12 33 22 97q8 51 9 141v538q0 51 -7 89q-6 41 -16 57q-12 23 -29 31q-20 10 -47 10q-12 0 -45 -4q-23 -2 -51 -13q-37 -12 -66 -26q-20 -10 -86 -47v-527q0 -16 33 -30q25 -10 98 -29 v-84h-530z" />
<glyph unicode="&#x14c;" horiz-adv-x="1288" d="M49 612q0 129 45 258q43 123 125 217q80 92 194.5 147.5t250.5 55.5q133 0 237.5 -55t173.5 -143q68 -86 107 -207q37 -117 37 -238q0 -86 -23 -176q-18 -72 -63 -160q-39 -76 -97 -139q-49 -55 -125 -106q-63 -43 -145 -70q-84 -27 -162 -27q-123 0 -229 54 q-104 51 -176 143q-72 90 -111 204.5t-39 241.5zM336 641q0 -111 24 -209q25 -96 68 -168q45 -74 102 -112q59 -41 123 -41q59 0 113 30q49 29 88 97q35 61 57 161q23 102 23 230q0 104 -24.5 198.5t-67.5 167.5q-45 76 -103 117q-61 43 -135 43q-66 0 -117 -35 q-49 -33 -84 -100q-31 -59 -51 -162q-16 -84 -16 -217zM200 1488q3 12 13 31q2 6 5 12.5l6 13.5t5 13q2 4 18 41q4 10 8.5 17.5t6.5 11.5h815l35 -33q-2 -10 -13 -33q-8 -20 -18 -41q-2 -4 -19 -41q-10 -20 -12 -26h-815z" />
<glyph unicode="&#x14d;" horiz-adv-x="1089" d="M59 444q0 59 17 129q12 53 49 123q29 53 76 105q49 53 100 84q55 34 123 55q63 20 141 21q104 0 191 -37q90 -39 147 -99q59 -61 94 -151q33 -84 33 -189q0 -68 -18.5 -131t-50.5 -121q-33 -55 -80 -106q-47 -49 -103 -84q-57 -35 -121 -53q-72 -20 -131 -21 q-106 0 -192 37q-90 39 -148 98q-59 61 -94 152q-33 84 -33 188zM344 473q0 -76 16.5 -147.5t42.5 -118.5q31 -53 66 -78q41 -29 86 -29q57 0 92 20.5t58 65.5q22 43 30 105q10 68 10 143q0 70 -14 152q-10 61 -39 125q-25 57 -65.5 87.5t-89.5 30.5q-59 0 -95 -26 q-39 -29 -59 -76q-18 -43 -29 -113q-10 -71 -10 -141zM121 1208q3 12 13 31q4 6 9 20.5l7 20.5q2 4 18 41q4 10 8.5 17.5t6.5 11.5h815l35 -35q-2 -4 -13 -31q-8 -20 -18 -41q-2 -4 -19 -41q-10 -20 -12 -26h-815z" />
<glyph unicode="&#x14e;" horiz-adv-x="1288" d="M49 612q0 129 45 258q43 123 125 217q80 92 194.5 147.5t250.5 55.5q133 0 237.5 -55t173.5 -143q68 -86 107 -207q37 -117 37 -238q0 -86 -23 -176q-18 -72 -63 -160q-39 -76 -97 -139q-49 -55 -125 -106q-63 -43 -145 -70q-84 -27 -162 -27q-123 0 -229 54 q-104 51 -176 143q-72 90 -111 204.5t-39 241.5zM336 641q0 -111 24 -209q25 -96 68 -168q45 -74 102 -112q59 -41 123 -41q59 0 113 30q49 29 88 97q35 61 57 161q23 102 23 230q0 104 -24.5 198.5t-67.5 167.5q-45 76 -103 117q-61 43 -135 43q-66 0 -117 -35 q-49 -33 -84 -100q-31 -59 -51 -162q-16 -84 -16 -217zM280 1689q2 4 8.5 10t8.5 11l22 22l25 19q18 14 20 14q23 -39 60 -76q27 -27 71 -53q35 -20 76 -33q40 -12 74 -12q41 0 74 10q39 12 77 35q45 27 72 53q37 37 60 76q2 0 20 -14l10 -8q10 -7 15 -11l7 -7t9 -8t6 -7.5 t8 -10.5t8 -10q-31 -78 -71 -139q-39 -57 -88 -96q-51 -41 -98.5 -57.5t-104.5 -16.5q-63 0 -111 16q-51 18 -100 57.5t-88 96.5q-37 53 -70 139z" />
<glyph unicode="&#x14f;" horiz-adv-x="1089" d="M59 444q0 59 17 129q12 53 49 123q29 53 76 105q49 53 100 84q55 34 123 55q63 20 141 21q104 0 191 -37q90 -39 147 -99q59 -61 94 -151q33 -84 33 -189q0 -68 -18.5 -131t-50.5 -121q-33 -55 -80 -106q-47 -49 -103 -84q-57 -35 -121 -53q-72 -20 -131 -21 q-106 0 -192 37q-90 39 -148 98q-59 61 -94 152q-33 84 -33 188zM344 473q0 -76 16.5 -147.5t42.5 -118.5q31 -53 66 -78q41 -29 86 -29q57 0 92 20.5t58 65.5q22 43 30 105q10 68 10 143q0 70 -14 152q-10 61 -39 125q-25 57 -65.5 87.5t-89.5 30.5q-59 0 -95 -26 q-39 -29 -59 -76q-18 -43 -29 -113q-10 -71 -10 -141zM200 1370q2 4 8.5 10t8.5 11l22 22l25 19q18 14 20 14q23 -39 60 -76q27 -27 71 -53q35 -20 76 -33q40 -12 74 -12q41 0 74 10q39 12 77 35q45 27 72 53q37 37 60 76q2 0 20 -14l10 -8q10 -7 15 -11l7 -7t9 -8t6 -7.5 t8 -10.5t8 -10q-31 -78 -71 -139q-39 -57 -88 -96q-51 -41 -98.5 -57.5t-104.5 -16.5q-63 0 -111 16q-51 18 -100 57.5t-88 96.5q-37 53 -70 139z" />
<glyph unicode="&#x150;" horiz-adv-x="1288" d="M49 612q0 129 45 258q43 123 125 217q80 92 194.5 147.5t250.5 55.5q133 0 237.5 -55t173.5 -143q68 -86 107 -207q37 -117 37 -238q0 -86 -23 -176q-18 -72 -63 -160q-39 -76 -97 -139q-49 -55 -125 -106q-63 -43 -145 -70q-84 -27 -162 -27q-123 0 -229 54 q-104 51 -176 143q-72 90 -111 204.5t-39 241.5zM336 641q0 -111 24 -209q25 -96 68 -168q45 -74 102 -112q59 -41 123 -41q59 0 113 30q49 29 88 97q35 61 57 161q23 102 23 230q0 104 -24.5 198.5t-67.5 167.5q-45 76 -103 117q-61 43 -135 43q-66 0 -117 -35 q-49 -33 -84 -100q-31 -59 -51 -162q-16 -84 -16 -217zM389 1402l146 426q4 0 9 -1t14 -2t16 -1q18 -2 59 -6l30.5 -5t24.5 -3q27 -4 35 -6l33 -62l-271 -387q-12 4 -20 8l-27 13q-6 2 -15 7t-11 7q-6 4 -12.5 7t-10.5 5zM719 1402l145 426q4 0 10.5 -1t15.5 -2t15 -1 q37 -4 58 -6l30.5 -5t24.5 -3q29 -4 37 -6l31 -62l-271 -387q-12 4 -20 8l-27 13q-6 2 -15 7t-12 7q-6 4 -12 7z" />
<glyph unicode="&#x151;" horiz-adv-x="1089" d="M59 444q0 59 17 129q12 53 49 123q29 53 76 105q49 53 100 84q55 34 123 55q63 20 141 21q104 0 191 -37q90 -39 147 -99q59 -61 94 -151q33 -84 33 -189q0 -68 -18.5 -131t-50.5 -121q-33 -55 -80 -106q-47 -49 -103 -84q-57 -35 -121 -53q-72 -20 -131 -21 q-106 0 -192 37q-90 39 -148 98q-59 61 -94 152q-33 84 -33 188zM344 473q0 -76 16.5 -147.5t42.5 -118.5q31 -53 66 -78q41 -29 86 -29q57 0 92 20.5t58 65.5q22 43 30 105q10 68 10 143q0 70 -14 152q-10 61 -39 125q-25 57 -65.5 87.5t-89.5 30.5q-59 0 -95 -26 q-39 -29 -59 -76q-18 -43 -29 -113q-10 -71 -10 -141zM309 1083l146 426q4 0 9 -1t14 -2t16 -1q18 -2 59 -6l30.5 -5t24.5 -3q27 -4 35 -6l33 -62l-271 -387q-12 4 -20 8l-27 13q-6 2 -15 7t-11 7q-6 4 -12.5 7t-10.5 5zM639 1083l145 426q4 0 10.5 -1t15.5 -2t15 -1 q37 -4 58 -6l30.5 -5t24.5 -3q29 -4 37 -6l31 -62l-271 -387q-12 4 -20 8l-27 13q-6 2 -15 7t-12 7q-6 4 -12 7z" />
<glyph unicode="&#x152;" horiz-adv-x="1755" d="M49 612q0 133 47 258q49 131 127 217q82 92 195 148q111 55 246 55q31 0 67 -4q27 -2 55 -10q33 -8 50 -10q49 -6 55 -6h715l43 -35q-3 -25 -7 -68q-2 -29 -10 -86l-12 -84q-6 -39 -12 -57h-84q-6 98 -27 147q-23 53 -55 53h-328v-395h395l37 -39q-4 -8 -9 -15t-11 -17.5 l-11.5 -20.5l-11.5 -20q-4 -8 -14 -20.5t-12 -16.5q-12 -20 -23 -27q-20 20 -33 27q-25 12 -39 16q-27 8 -53 10q-20 2 -74 2h-141v-419q0 -10 8 -27q6 -10 29 -21q22 -9 61 -12q80 -6 107 -6h90q39 0 78 14q33 12 57 39q23 27 45 70q14 31 41 100l84 -28q-6 -53 -8 -93 q-2 -10 -4 -30.5t-4 -37t-4 -30.5q-2 -10 -5 -38.5t-6 -43.5l-10 -51h-792q-18 0 -86 -6q-23 -2 -60 -10q-16 -4 -57 -9q-55 -6 -74 -6q-125 0 -227 54q-100 51 -176 143q-70 84 -111 205q-41 118 -41 241zM336 641q0 -111 24 -209q25 -102 66 -168q45 -74 102 -112 q59 -41 125 -41q45 0 62 2q20 2 47 10q10 2 37 16q18 9 37 25v893q-47 49 -107 73q-61 25 -125 25q-70 0 -117 -33q-49 -33 -84 -100q-31 -59 -51 -164q-16 -84 -16 -217z" />
<glyph unicode="&#x153;" horiz-adv-x="1658" d="M59 444q0 59 17 129q14 61 47 123q25 45 76 105q45 51 98 84t121 55q61 20 137 21q100 0 182 -37q84 -37 146 -103q35 35 71 60q47 31 113 55q68 25 150 25q66 0 131 -21q57 -18 100 -49q45 -33 72 -74q31 -49 47 -88q18 -46 24 -92q8 -61 8 -90q-14 -14 -26 -23 q-25 -16 -39 -24q-20 -12 -41 -23q-10 -6 -37 -16h-455q2 -59 21 -123q16 -57 45 -98q33 -45 74 -66q45 -23 102 -22q20 0 57 4q18 2 64 18q23 8 76 35q25 12 94 57l14 -14q12 -12 19 -21q8 -12 14 -22q8 -12 10 -14q-65 -74 -123 -117q-66 -49 -110 -70q-52 -25 -105 -31 q-70 -8 -104 -8q-78 0 -160 41q-72 37 -139 117q-70 -74 -156 -115q-88 -43 -188 -43q-95 0 -178 37q-88 39 -142 98q-57 63 -92 151.5t-35 188.5zM334 483q0 -86 16 -149q18 -70 45 -121q29 -53 68 -84q37 -29 82 -29q53 0 90 25t59 72q25 51 33 112q8 57 8 146v12 q0 84 -14 143q-16 66 -43 115q-31 53 -66 78q-39 27 -88 26q-53 0 -90 -24q-39 -27 -59 -70q-25 -53 -33 -108q-8 -58 -8 -144zM1004 580h311q16 0 28 8q10 6 11 28q0 27 -6 64q-8 43 -23 72q-20 37 -51 59q-33 25 -84 25q-84 0 -129 -63.5t-57 -192.5z" />
<glyph unicode="&#x154;" horiz-adv-x="1267" d="M27 1231q119 25 241 41q133 18 281 18q139 0 242 -22q88 -18 159 -66q61 -41 90 -96q27 -53 27 -119q0 -70 -20 -125q-23 -61 -58 -104q-37 -45 -88 -82q-51 -35 -113 -58l320 -419q10 -14 29 -33q14 -14 30 -21q20 -8 39 -8q35 0 58 2l16 -82l-78 -24q-51 -14 -88 -23 q-57 -12 -82 -16q-49 -8 -57 -8q-29 0 -57 16q-23 12 -41 39l-281 541q-2 0 -8 -1t-10 -1h-17q-35 0 -51 2q-20 2 -55 10v-449q0 -10 30 -28q23 -14 105 -31v-84h-549v84q74 16 100 29q33 14 33 30v1004l-133 -19zM455 711q29 -6 47 -6h43q68 0 108 16q47 18 74 51 q31 37 41 78q14 53 14 106q0 43 -12 82q-12 41 -43 72q-27 29 -86 47q-55 18 -139 19h-23h-24v-465zM364 1431l357 346l27.5 -14t31.5 -17l60 -36q6 -4 16 -11.5t18.5 -12.5t14.5 -9q29 -20 30 -23l9 -55l-490 -244q-9 3 -18 13q-2 2 -6.5 6t-8.5 7t-6 7t-8 11l-10 12 q-4 6 -9.5 12t-7.5 8z" />
<glyph unicode="&#x155;" horiz-adv-x="940" d="M45 0v84q129 31 129 59v512q0 41 -2 56q0 6 -1 18t-3 18.5t-5 14.5l-3 8q-2 4 -5 7t-3 5q-10 10 -15 13q-14 8 -18 8q-16 4 -29 4q-8 0 -45 4v80q23 4 58.5 8t46.5 6q16 2 43.5 7.5t35.5 7.5q18 2 72 16q41 10 84 25l45 -46l12 -116q18 23 62 61q31 29 74 51.5t84 34.5 q51 14 86 15q31 0 81 -15q47 -12 80 -33q6 -4 6 -28.5t-6 -57.5q-12 -72 -14 -77l-18 -80q-4 -16 -11.5 -41t-9.5 -31q-8 -31 -18 -51h-84q-4 51 -11 78q-8 39 -20 67.5t-35 48.5q-20 18 -45 19q-10 0 -39 -4q-23 -4 -47 -19q-27 -16 -53 -49q-31 -37 -60 -92v-453 q0 -15 43 -30q33 -12 138 -29v-84h-580zM359 1085l202 435q4 0 6 -1t8.5 -2t14.5 -1q12 -2 45 -7q20 -2 55 -10q29 -4 54 -8q8 -2 24.5 -5t22.5 -3q20 -2 26 -6l33 -60l-395 -381q-2 0 -23 8q-6 2 -14 6.5t-14.5 6.5t-14.5 8t-12 8q-12 6 -18 12z" />
<glyph unicode="&#x158;" horiz-adv-x="1267" d="M27 1231q119 25 241 41q133 18 281 18q139 0 242 -22q88 -18 159 -66q61 -41 90 -96q27 -53 27 -119q0 -70 -20 -125q-23 -61 -58 -104q-37 -45 -88 -82q-51 -35 -113 -58l320 -419q10 -14 29 -33q14 -14 30 -21q20 -8 39 -8q35 0 58 2l16 -82l-78 -24q-51 -14 -88 -23 q-57 -12 -82 -16q-49 -8 -57 -8q-29 0 -57 16q-23 12 -41 39l-281 541q-2 0 -8 -1t-10 -1h-17q-35 0 -51 2q-20 2 -55 10v-449q0 -10 30 -28q23 -14 105 -31v-84h-549v84q74 16 100 29q33 14 33 30v1004l-133 -19zM455 711q29 -6 47 -6h43q68 0 108 16q47 18 74 51 q31 37 41 78q14 53 14 106q0 43 -12 82q-12 41 -43 72q-27 29 -86 47q-55 18 -139 19h-23h-24v-465zM225 1718q20 29 31 39q20 20 32 26l285 -180l281 180q16 -8 34 -26q14 -14 29 -39l-272 -336h-148z" />
<glyph unicode="&#x159;" horiz-adv-x="940" d="M45 0v84q129 31 129 59v512q0 41 -2 56q0 6 -1 18t-3 18.5t-5 14.5l-3 8q-2 4 -5 7t-3 5q-10 10 -15 13q-14 8 -18 8q-16 4 -29 4q-8 0 -45 4v80q23 4 58.5 8t46.5 6q16 2 43.5 7.5t35.5 7.5q18 2 72 16q41 10 84 25l45 -46l12 -116q18 23 62 61q31 29 74 51.5t84 34.5 q51 14 86 15q31 0 81 -15q47 -12 80 -33q6 -4 6 -28.5t-6 -57.5q-12 -72 -14 -77l-18 -80q-4 -16 -11.5 -41t-9.5 -31q-8 -31 -18 -51h-84q-4 51 -11 78q-8 39 -20 67.5t-35 48.5q-20 18 -45 19q-10 0 -39 -4q-23 -4 -47 -19q-27 -16 -53 -49q-31 -37 -60 -92v-453 q0 -15 43 -30q33 -12 138 -29v-84h-580zM168 1450q2 4 7 12l10 15.5t12 15.5q18 25 34 33l283 -207l283 207q6 -2 16 -13l6 -6t8 -7t6 -7q4 -4 10.5 -10t10.5 -10q6 -6 10 -13.5t6 -9.5l-282 -387h-148z" />
<glyph unicode="&#x15a;" horiz-adv-x="1073" d="M98 199q0 47 2 71q4 49 9 72q6 34 12 61l82 -4q22 -58 55 -110q35 -55 72 -88q41 -37 88 -60q43 -20 98 -20q53 0 86 10q45 14 72 33q29 20 49 57q16 31 16 82q0 66 -26 107q-31 47 -72 79q-45 35 -100 62q-31 16 -61.5 29.5l-55.5 25.5q-39 18 -117 60q-57 31 -102 71 q-43 39 -72 94q-27 51 -27 125q0 31 13 68q12 35 38.5 76t63.5 71q33 29 92 60q51 27 121 43q72 16 152 16q37 0 110 -8q53 -6 101 -18q53 -14 82 -29q41 -20 55 -37q6 -2 2 -20q0 -4 -2 -8.5t-3 -7.5t-2 -9t-3 -10q-4 -14 -17 -47q-8 -23 -22 -47q-20 -37 -23 -39 q-14 -23 -18 -25l-78 6q-25 57 -47 86q-27 33 -59 56q-27 18 -64 28q-31 8 -61 8q-49 0 -82 -12q-39 -14 -56 -31q-27 -25 -32 -47q-10 -31 -11 -55q0 -45 29 -84t72 -68q68 -45 102 -61l117 -57q27 -12 117 -66q49 -29 102 -78q41 -39 72 -102q29 -61 28 -131 q0 -49 -14 -92q-18 -53 -41 -92q-29 -49 -70 -87q-41 -39 -100 -69q-57 -29 -131 -49q-71 -18 -160 -19q-20 0 -86 8q-43 6 -98 19q-49 12 -100 31q-47 18 -84 41q-6 2 -9 20q-4 25 -4 47v64zM340 1431l357 346l27.5 -14t31.5 -17l60 -36q6 -4 16 -11.5t18.5 -12.5t14.5 -9 q29 -20 30 -23l9 -55l-490 -244q-9 3 -18 13q-2 2 -6.5 6t-8.5 7t-6 7t-8 11l-10 12q-4 6 -9.5 12t-7.5 8z" />
<glyph unicode="&#x15b;" horiz-adv-x="878" d="M72 160q0 66 4 100q8 63 16 92l92 -10q12 -55 37 -102q23 -43 55 -76q31 -31 70 -47.5t80 -16.5q74 0 102 21q31 23 31 76q0 41 -20.5 73.5t-53 59t-75.5 51.5l-47.5 25.5l-40.5 21.5q-12 6 -84 47q-39 23 -78 57q-33 31 -56 72q-20 39 -20 86q0 63 31 113q31 47 86 84 t118 53q76 20 142 21q46 0 92 -7q35 -4 86 -16q53 -12 76 -23q35 -16 57 -32q6 -6 4 -35q-4 -33 -12 -72q-6 -27 -23 -76q-12 -39 -28 -57l-78 8q-18 94 -64 146q-47 53 -116 53q-59 0 -90 -24.5t-31 -65.5q0 -33 14 -55q16 -27 43 -48q29 -23 74 -45l98 -53l88 -47 q47 -27 78 -57q41 -41 57 -74q23 -45 23 -98q0 -70 -22.5 -121t-57.5 -86q-34 -34 -80 -56q-43 -20 -90 -32q-41 -10 -90 -15q-57 -4 -74 -4q-10 0 -22.5 1t-27.5 3t-26 2q-39 2 -81 13q-47 10 -80 22q-39 14 -72 33q-10 4 -12 37q-2 23 -2 80zM277 1085l202 435q4 0 6 -1 t8.5 -2t14.5 -1q12 -2 45 -7q20 -2 55 -10q29 -4 54 -8q8 -2 24.5 -5t22.5 -3q20 -2 26 -6l33 -60l-395 -381q-2 0 -23 8q-6 2 -14 6.5t-14.5 6.5t-14.5 8t-12 8q-12 6 -18 12z" />
<glyph unicode="&#x15c;" horiz-adv-x="1073" d="M98 199q0 47 2 71q4 49 9 72q6 34 12 61l82 -4q22 -58 55 -110q35 -55 72 -88q41 -37 88 -60q43 -20 98 -20q53 0 86 10q45 14 72 33q29 20 49 57q16 31 16 82q0 66 -26 107q-31 47 -72 79q-45 35 -100 62q-31 16 -61.5 29.5l-55.5 25.5q-39 18 -117 60q-57 31 -102 71 q-43 39 -72 94q-27 51 -27 125q0 31 13 68q12 35 38.5 76t63.5 71q33 29 92 60q51 27 121 43q72 16 152 16q37 0 110 -8q53 -6 101 -18q53 -14 82 -29q41 -20 55 -37q6 -2 2 -20q0 -4 -2 -8.5t-3 -7.5t-2 -9t-3 -10q-4 -14 -17 -47q-8 -23 -22 -47q-20 -37 -23 -39 q-14 -23 -18 -25l-78 6q-25 57 -47 86q-27 33 -59 56q-27 18 -64 28q-31 8 -61 8q-49 0 -82 -12q-39 -14 -56 -31q-27 -25 -32 -47q-10 -31 -11 -55q0 -45 29 -84t72 -68q68 -45 102 -61l117 -57q27 -12 117 -66q49 -29 102 -78q41 -39 72 -102q29 -61 28 -131 q0 -49 -14 -92q-18 -53 -41 -92q-29 -49 -70 -87q-41 -39 -100 -69q-57 -29 -131 -49q-71 -18 -160 -19q-20 0 -86 8q-43 6 -98 19q-49 12 -100 31q-47 18 -84 41q-6 2 -9 20q-4 25 -4 47v64zM201 1421l282 330h127l283 -330q-16 -25 -29 -37q-23 -23 -34 -29l-283 150 l-283 -150q-8 4 -32 29z" />
<glyph unicode="&#x15d;" horiz-adv-x="878" d="M72 160q0 66 4 100q8 63 16 92l92 -10q12 -55 37 -102q23 -43 55 -76q31 -31 70 -47.5t80 -16.5q74 0 102 21q31 23 31 76q0 41 -20.5 73.5t-53 59t-75.5 51.5l-47.5 25.5l-40.5 21.5q-12 6 -84 47q-39 23 -78 57q-33 31 -56 72q-20 39 -20 86q0 63 31 113q31 47 86 84 t118 53q76 20 142 21q46 0 92 -7q35 -4 86 -16q53 -12 76 -23q35 -16 57 -32q6 -6 4 -35q-4 -33 -12 -72q-6 -27 -23 -76q-12 -39 -28 -57l-78 8q-18 94 -64 146q-47 53 -116 53q-59 0 -90 -24.5t-31 -65.5q0 -33 14 -55q16 -27 43 -48q29 -23 74 -45l98 -53l88 -47 q47 -27 78 -57q41 -41 57 -74q23 -45 23 -98q0 -70 -22.5 -121t-57.5 -86q-34 -34 -80 -56q-43 -20 -90 -32q-41 -10 -90 -15q-57 -4 -74 -4q-10 0 -22.5 1t-27.5 3t-26 2q-39 2 -81 13q-47 10 -80 22q-39 14 -72 33q-10 4 -12 37q-2 23 -2 80zM84 1112l282 389h148 l272 -389q-2 -4 -7 -12l-10 -15.5t-12 -15.5q-18 -25 -34 -33l-283 209l-283 -209q-6 2 -16 13l-6 6t-8 7t-6.5 7t-10.5 11t-10 12q-10 12 -16 20z" />
<glyph unicode="&#x160;" horiz-adv-x="1073" d="M98 199q0 47 2 71q4 49 9 72q6 34 12 61l82 -4q22 -58 55 -110q35 -55 72 -88q41 -37 88 -60q43 -20 98 -20q53 0 86 10q45 14 72 33q29 20 49 57q16 31 16 82q0 66 -26 107q-31 47 -72 79q-45 35 -100 62q-31 16 -61.5 29.5l-55.5 25.5q-39 18 -117 60q-57 31 -102 71 q-43 39 -72 94q-27 51 -27 125q0 31 13 68q12 35 38.5 76t63.5 71q33 29 92 60q51 27 121 43q72 16 152 16q37 0 110 -8q53 -6 101 -18q53 -14 82 -29q41 -20 55 -37q6 -2 2 -20q0 -4 -2 -8.5t-3 -7.5t-2 -9t-3 -10q-4 -14 -17 -47q-8 -23 -22 -47q-20 -37 -23 -39 q-14 -23 -18 -25l-78 6q-25 57 -47 86q-27 33 -59 56q-27 18 -64 28q-31 8 -61 8q-49 0 -82 -12q-39 -14 -56 -31q-27 -25 -32 -47q-10 -31 -11 -55q0 -45 29 -84t72 -68q68 -45 102 -61l117 -57q27 -12 117 -66q49 -29 102 -78q41 -39 72 -102q29 -61 28 -131 q0 -49 -14 -92q-18 -53 -41 -92q-29 -49 -70 -87q-41 -39 -100 -69q-57 -29 -131 -49q-71 -18 -160 -19q-20 0 -86 8q-43 6 -98 19q-49 12 -100 31q-47 18 -84 41q-6 2 -9 20q-4 25 -4 47v64zM201 1718q20 29 31 39q20 20 32 26l285 -180l281 180q16 -8 34 -26 q14 -14 29 -39l-272 -336h-148z" />
<glyph unicode="&#x161;" horiz-adv-x="878" d="M72 160q0 66 4 100q8 63 16 92l92 -10q12 -55 37 -102q23 -43 55 -76q31 -31 70 -47.5t80 -16.5q74 0 102 21q31 23 31 76q0 41 -20.5 73.5t-53 59t-75.5 51.5l-47.5 25.5l-40.5 21.5q-12 6 -84 47q-39 23 -78 57q-33 31 -56 72q-20 39 -20 86q0 63 31 113q31 47 86 84 t118 53q76 20 142 21q46 0 92 -7q35 -4 86 -16q53 -12 76 -23q35 -16 57 -32q6 -6 4 -35q-4 -33 -12 -72q-6 -27 -23 -76q-12 -39 -28 -57l-78 8q-18 94 -64 146q-47 53 -116 53q-59 0 -90 -24.5t-31 -65.5q0 -33 14 -55q16 -27 43 -48q29 -23 74 -45l98 -53l88 -47 q47 -27 78 -57q41 -41 57 -74q23 -45 23 -98q0 -70 -22.5 -121t-57.5 -86q-34 -34 -80 -56q-43 -20 -90 -32q-41 -10 -90 -15q-57 -4 -74 -4q-10 0 -22.5 1t-27.5 3t-26 2q-39 2 -81 13q-47 10 -80 22q-39 14 -72 33q-10 4 -12 37q-2 23 -2 80zM86 1450q2 4 7 12l10 15.5 t12 15.5q18 25 34 33l283 -207l283 207q6 -2 16 -13l6 -6t8 -7t6 -7q4 -4 10.5 -10t10.5 -10q6 -6 10 -13.5t6 -9.5l-282 -387h-148z" />
<glyph unicode="&#x164;" horiz-adv-x="1206" d="M0 938q0 6 2 31.5t4 42.5l12 90l13 90q6 43 12 68h1090l41 -35q0 -8 -3.5 -32t-3.5 -34q-2 -18 -10 -80l-12 -86q-6 -43 -12 -73h-84q-14 68 -17 86q-6 41 -14 65q-10 31 -21 43q-12 16 -32 16h-234v-974q0 -4 6 -15q6 -9 25 -18q33 -16 47 -21q33 -10 76 -18v-84h-588 v84q43 8 76 18q25 8 47 19q18 9 24 18q6 8 7 17v974h-238q-15 0 -31 -12q-12 -10 -28 -39q-4 -6 -31 -69q-14 -33 -39 -101zM240 1718q20 29 31 39q20 20 32 26l285 -180l281 180q16 -8 34 -26q14 -14 29 -39l-272 -336h-148z" />
<glyph unicode="&#x168;" horiz-adv-x="1378" d="M41 1178v82h549v-82q-76 -16 -101 -31q-35 -18 -34 -33v-600q0 -100 14 -170q14 -66 51 -121q34 -49 92 -73q59 -25 144 -25q72 0 118 31q45 31 74 84q29 55 41 120q10 57 10 144v610q0 12 -30 31q-27 16 -105 33v82h461v-82q-80 -18 -102 -31q-33 -18 -33 -33v-590 q0 -131 -39 -233q-41 -104 -107 -174q-70 -74 -157 -109q-96 -39 -201 -39q-100 0 -197 29q-86 27 -161 88q-74 61 -113 147q-41 92 -41 211v670q0 12 -31 31q-26 17 -102 33zM285 1388l45 94q23 49 59.5 98.5t75.5 77.5q43 31 90 31t92 -16q29 -10 82 -35l35.5 -17.5 t42.5 -19.5q35 -14 72 -14q45 0 77 26q34 28 68 86l84 -32l-21.5 -43t-23.5 -50q-23 -49 -60 -98q-33 -45 -75.5 -75.5t-89.5 -30.5q-43 0 -89 16q-29 10 -81 35q-63 29 -78 35q-43 16 -78 16q-18 0 -43 -8q-23 -6 -35 -21q-29 -27 -33 -34l-32 -50z" />
<glyph unicode="&#x169;" horiz-adv-x="1173" d="M31 823v80q20 2 53 6t47 4q35 2 86 11q59 8 82 14q27 6 84 23l37 -50v-567q0 -57 6 -94q4 -31 20 -57q10 -18 33 -27q18 -6 43 -6q10 0 39 4q25 4 49 14q33 14 62 33q41 27 73 51v420q0 35 -4 72q-2 25 -16 41q-10 14 -39 20q-18 4 -72 8v80q111 9 197 25q106 18 164 33 l41 -50v-616v-51q0 -14 4 -31q3 -12 6 -18q2 -2 6 -5.5t6 -5.5l13 -6q10 0 18 2q2 0 27 10l43 17l30 -84q-27 -18 -86 -51q-76 -43 -94 -52q-55 -25 -82 -36q-35 -14 -47 -15q-16 0 -35 6q-23 8 -35 20.5t-26 47.5q-12 31 -19 84q-66 -55 -110 -84q-55 -35 -88 -47 q-35 -14 -74 -21q-35 -6 -65 -6q-39 0 -93 15q-43 12 -82 47q-41 39 -61 94q-23 63 -22 154v403v74q0 23 -13 39q-8 12 -35 18q-5 2 -71 10zM177 1110l21 43l24 49q23 49 59.5 98.5t75.5 77.5q43 31 90 31q51 0 92 -14q8 -4 82 -37q53 -25 78 -35q39 -16 72 -16q45 0 77 26 q34 28 68 86l84 -33q-6 -14 -21.5 -44.5t-23.5 -47.5q-20 -43 -60 -96q-37 -49 -75 -78q-43 -31 -90 -30q-43 0 -89 16q-29 10 -81 35q-6 2 -34 16t-44 21q-43 16 -78 16q-18 0 -43 -8q-18 -6 -35 -23q-29 -29 -33 -35l-32 -49z" />
<glyph unicode="&#x16a;" horiz-adv-x="1378" d="M41 1178v82h549v-82q-76 -16 -101 -31q-35 -18 -34 -33v-600q0 -100 14 -170q14 -66 51 -121q34 -49 92 -73q59 -25 144 -25q72 0 118 31q45 31 74 84q29 55 41 120q10 57 10 144v610q0 12 -30 31q-27 16 -105 33v82h461v-82q-80 -18 -102 -31q-33 -18 -33 -33v-590 q0 -131 -39 -233q-41 -104 -107 -174q-70 -74 -157 -109q-96 -39 -201 -39q-100 0 -197 29q-86 27 -161 88q-74 61 -113 147q-41 92 -41 211v670q0 12 -31 31q-26 17 -102 33zM252 1488q3 12 13 31q2 6 5 12.5l6 13.5t5 13q2 4 18 41q4 10 8.5 17.5t6.5 11.5h815l35 -33 q-2 -10 -13 -33q-8 -20 -18 -41q-2 -4 -19 -41q-10 -20 -12 -26h-815z" />
<glyph unicode="&#x16b;" horiz-adv-x="1173" d="M31 823v80q20 2 53 6t47 4q35 2 86 11q59 8 82 14q27 6 84 23l37 -50v-567q0 -57 6 -94q4 -31 20 -57q10 -18 33 -27q18 -6 43 -6q10 0 39 4q25 4 49 14q33 14 62 33q41 27 73 51v420q0 35 -4 72q-2 25 -16 41q-10 14 -39 20q-18 4 -72 8v80q111 9 197 25q106 18 164 33 l41 -50v-616v-51q0 -14 4 -31q3 -12 6 -18q2 -2 6 -5.5t6 -5.5l13 -6q10 0 18 2q2 0 27 10l43 17l30 -84q-27 -18 -86 -51q-76 -43 -94 -52q-55 -25 -82 -36q-35 -14 -47 -15q-16 0 -35 6q-23 8 -35 20.5t-26 47.5q-12 31 -19 84q-66 -55 -110 -84q-55 -35 -88 -47 q-35 -14 -74 -21q-35 -6 -65 -6q-39 0 -93 15q-43 12 -82 47q-41 39 -61 94q-23 63 -22 154v403v74q0 23 -13 39q-8 12 -35 18q-5 2 -71 10zM141 1208q3 12 13 31q4 6 9 20.5l7 20.5q2 4 18 41q4 10 8.5 17.5t6.5 11.5h815l35 -35q-2 -4 -13 -31q-8 -20 -18 -41 q-2 -4 -19 -41q-10 -20 -12 -26h-815z" />
<glyph unicode="&#x16c;" horiz-adv-x="1378" d="M41 1178v82h549v-82q-76 -16 -101 -31q-35 -18 -34 -33v-600q0 -100 14 -170q14 -66 51 -121q34 -49 92 -73q59 -25 144 -25q72 0 118 31q45 31 74 84q29 55 41 120q10 57 10 144v610q0 12 -30 31q-27 16 -105 33v82h461v-82q-80 -18 -102 -31q-33 -18 -33 -33v-590 q0 -131 -39 -233q-41 -104 -107 -174q-70 -74 -157 -109q-96 -39 -201 -39q-100 0 -197 29q-86 27 -161 88q-74 61 -113 147q-41 92 -41 211v670q0 12 -31 31q-26 17 -102 33zM331 1689q2 4 8.5 10t8.5 11l22 22l25 19q18 14 20 14q23 -39 60 -76q27 -27 71 -53 q35 -20 76 -33q40 -12 74 -12q41 0 74 10q39 12 77 35q45 27 72 53q37 37 60 76q2 0 20 -14l10 -8q10 -7 15 -11l7 -7t9 -8t6 -7.5t8 -10.5t8 -10q-31 -78 -71 -139q-39 -57 -88 -96q-51 -41 -98.5 -57.5t-104.5 -16.5q-63 0 -111 16q-51 18 -100 57.5t-88 96.5 q-37 53 -70 139z" />
<glyph unicode="&#x16d;" horiz-adv-x="1173" d="M31 823v80q20 2 53 6t47 4q35 2 86 11q59 8 82 14q27 6 84 23l37 -50v-567q0 -57 6 -94q4 -31 20 -57q10 -18 33 -27q18 -6 43 -6q10 0 39 4q25 4 49 14q33 14 62 33q41 27 73 51v420q0 35 -4 72q-2 25 -16 41q-10 14 -39 20q-18 4 -72 8v80q111 9 197 25q106 18 164 33 l41 -50v-616v-51q0 -14 4 -31q3 -12 6 -18q2 -2 6 -5.5t6 -5.5l13 -6q10 0 18 2q2 0 27 10l43 17l30 -84q-27 -18 -86 -51q-76 -43 -94 -52q-55 -25 -82 -36q-35 -14 -47 -15q-16 0 -35 6q-23 8 -35 20.5t-26 47.5q-12 31 -19 84q-66 -55 -110 -84q-55 -35 -88 -47 q-35 -14 -74 -21q-35 -6 -65 -6q-39 0 -93 15q-43 12 -82 47q-41 39 -61 94q-23 63 -22 154v403v74q0 23 -13 39q-8 12 -35 18q-5 2 -71 10zM223 1370q2 4 8.5 10t8.5 11l22 22l25 19q18 14 20 14q23 -39 60 -76q27 -27 71 -53q35 -20 76 -33q40 -12 74 -12q41 0 74 10 q39 12 77 35q45 27 72 53q37 37 60 76q2 0 20 -14l10 -8q10 -7 15 -11l7 -7t9 -8t6 -7.5t8 -10.5t8 -10q-31 -78 -71 -139q-39 -57 -88 -96q-51 -41 -98.5 -57.5t-104.5 -16.5q-63 0 -111 16q-51 18 -100 57.5t-88 96.5q-37 53 -70 139z" />
<glyph unicode="&#x16e;" horiz-adv-x="1378" d="M41 1178v82h549v-82q-76 -16 -101 -31q-35 -18 -34 -33v-600q0 -100 14 -170q14 -66 51 -121q34 -49 92 -73q59 -25 144 -25q72 0 118 31q45 31 74 84q29 55 41 120q10 57 10 144v610q0 12 -30 31q-27 16 -105 33v82h461v-82q-80 -18 -102 -31q-33 -18 -33 -33v-590 q0 -131 -39 -233q-41 -104 -107 -174q-70 -74 -157 -109q-96 -39 -201 -39q-100 0 -197 29q-86 27 -161 88q-74 61 -113 147q-41 92 -41 211v670q0 12 -31 31q-26 17 -102 33zM481 1523q0 55 20 103q23 53 54 86q33 37 77 57q43 20 97 20q86 0 135 -51q49 -52 49 -135 q0 -55 -20 -102q-23 -49 -54 -84q-33 -35 -80 -58q-43 -20 -94 -20q-40 0 -74 12q-35 12 -59.5 37t-36.5 57q-14 39 -14 78zM630 1564q0 -25 7 -39q8 -20 14 -28.5t18 -16.5q9 -6 19 -6q37 0 57 27q18 25 18 61q0 23 -6 41q-6 16 -14 29q-6 8 -18 16q-6 4 -19 4 q-20 0 -35 -8q-12 -8 -22 -20q-12 -16 -15 -29q-4 -21 -4 -31z" />
<glyph unicode="&#x16f;" horiz-adv-x="1173" d="M31 823v80q20 2 53 6t47 4q35 2 86 11q59 8 82 14q27 6 84 23l37 -50v-567q0 -57 6 -94q4 -31 20 -57q10 -18 33 -27q18 -6 43 -6q10 0 39 4q25 4 49 14q33 14 62 33q41 27 73 51v420q0 35 -4 72q-2 25 -16 41q-10 14 -39 20q-18 4 -72 8v80q111 9 197 25q106 18 164 33 l41 -50v-616v-51q0 -14 4 -31q3 -12 6 -18q2 -2 6 -5.5t6 -5.5l13 -6q10 0 18 2q2 0 27 10l43 17l30 -84q-27 -18 -86 -51q-76 -43 -94 -52q-55 -25 -82 -36q-35 -14 -47 -15q-16 0 -35 6q-23 8 -35 20.5t-26 47.5q-12 31 -19 84q-66 -55 -110 -84q-55 -35 -88 -47 q-35 -14 -74 -21q-35 -6 -65 -6q-39 0 -93 15q-43 12 -82 47q-41 39 -61 94q-23 63 -22 154v403v74q0 23 -13 39q-8 12 -35 18q-5 2 -71 10zM373 1204q0 55 20 103q23 53 54 86q33 37 77 57q43 20 97 20q86 0 135 -51q49 -52 49 -135q0 -55 -20 -102q-23 -49 -54 -84 q-33 -35 -80 -58q-43 -20 -94 -20q-40 0 -74 12q-35 12 -59.5 37t-36.5 57q-14 39 -14 78zM522 1245q0 -25 7 -39q8 -20 14 -28.5t18 -16.5q9 -6 19 -6q37 0 57 27q18 25 18 61q0 23 -6 41q-6 16 -14 29q-6 8 -18 16q-6 4 -19 4q-20 0 -35 -8q-12 -8 -22 -20 q-12 -16 -15 -29q-4 -21 -4 -31z" />
<glyph unicode="&#x170;" horiz-adv-x="1378" d="M41 1178v82h549v-82q-76 -16 -101 -31q-35 -18 -34 -33v-600q0 -100 14 -170q14 -66 51 -121q34 -49 92 -73q59 -25 144 -25q72 0 118 31q45 31 74 84q29 55 41 120q10 57 10 144v610q0 12 -30 31q-27 16 -105 33v82h461v-82q-80 -18 -102 -31q-33 -18 -33 -33v-590 q0 -131 -39 -233q-41 -104 -107 -174q-70 -74 -157 -109q-96 -39 -201 -39q-100 0 -197 29q-86 27 -161 88q-74 61 -113 147q-41 92 -41 211v670q0 12 -31 31q-26 17 -102 33zM438 1402l146 426q4 0 9 -1t14 -2t16 -1q18 -2 59 -6l30.5 -5t24.5 -3q27 -4 35 -6l33 -62 l-271 -387q-12 4 -20 8l-27 13q-6 2 -15 7t-11 7q-6 4 -12.5 7t-10.5 5zM768 1402l145 426q4 0 10.5 -1t15.5 -2t15 -1q37 -4 58 -6l30.5 -5t24.5 -3q29 -4 37 -6l31 -62l-271 -387q-12 4 -20 8l-27 13q-6 2 -15 7t-12 7q-6 4 -12 7z" />
<glyph unicode="&#x171;" horiz-adv-x="1173" d="M31 823v80q20 2 53 6t47 4q35 2 86 11q59 8 82 14q27 6 84 23l37 -50v-567q0 -57 6 -94q4 -31 20 -57q10 -18 33 -27q18 -6 43 -6q10 0 39 4q25 4 49 14q33 14 62 33q41 27 73 51v420q0 35 -4 72q-2 25 -16 41q-10 14 -39 20q-18 4 -72 8v80q111 9 197 25q106 18 164 33 l41 -50v-616v-51q0 -14 4 -31q3 -12 6 -18q2 -2 6 -5.5t6 -5.5l13 -6q10 0 18 2q2 0 27 10l43 17l30 -84q-27 -18 -86 -51q-76 -43 -94 -52q-55 -25 -82 -36q-35 -14 -47 -15q-16 0 -35 6q-23 8 -35 20.5t-26 47.5q-12 31 -19 84q-66 -55 -110 -84q-55 -35 -88 -47 q-35 -14 -74 -21q-35 -6 -65 -6q-39 0 -93 15q-43 12 -82 47q-41 39 -61 94q-23 63 -22 154v403v74q0 23 -13 39q-8 12 -35 18q-5 2 -71 10zM329 1083l146 426q4 0 9 -1t14 -2t16 -1q18 -2 59 -6l30.5 -5t24.5 -3q27 -4 35 -6l33 -62l-271 -387q-12 4 -20 8l-27 13 q-6 2 -15 7t-11 7q-6 4 -12.5 7t-10.5 5zM659 1083l145 426q4 0 10.5 -1t15.5 -2t15 -1q37 -4 58 -6l30.5 -5t24.5 -3q29 -4 37 -6l31 -62l-271 -387q-12 4 -20 8l-27 13q-6 2 -15 7t-12 7q-6 4 -12 7z" />
<glyph unicode="&#x174;" horiz-adv-x="1740" d="M20 1178v82h508v-82q-47 -6 -75 -13q-20 -4 -37 -16q-14 -10 -15 -21q0 -12 2 -20l162 -678l281 830h115l329 -830l152 684q4 14 -8 23q-10 8 -33 14q-2 0 -20.5 6t-28.5 8q-18 4 -64 13v82h455v-82q-51 -10 -74 -19q-10 -4 -25.5 -8t-21.5 -6q-12 -4 -22.5 -14.5 t-10.5 -16.5l-227 -1055q-6 -22 -25 -36q-23 -18 -41 -27q-29 -12 -45 -16q-6 -2 -19 -5.5l-20 -5.5l-346 885l-286 -795q-6 -18 -27 -36q-20 -16 -41 -25q-6 -2 -15.5 -6t-17.5 -7t-16 -5q-35 -8 -45 -11l-260 1139q-6 27 -35 41q-33 17 -103 29zM535 1421l282 330h127 l283 -330q-16 -25 -29 -37q-23 -23 -34 -29l-283 150l-283 -150q-8 4 -32 29z" />
<glyph unicode="&#x175;" horiz-adv-x="1474" d="M10 848v82h475v-82q-45 -6 -63 -12q-27 -8 -33 -15q-10 -10 -10 -18q0 -12 2 -19l137 -417l238 563h78l249 -563l134 417q0 2 3 9.5t3 11.5q0 10 -6 16q-8 10 -25 15q-20 6 -51 12v82h323v-82l-43 -14q-12 -4 -28 -13q-12 -6 -19 -16q-4 -8 -8 -21l-221 -725 q-6 -23 -27 -39q-16 -14 -40.5 -24t-45.5 -16q-6 -2 -18.5 -5.5t-16.5 -5.5l-262 555l-200 -465q-10 -27 -27 -39q-25 -20 -39 -26t-43 -14q-6 -2 -18.5 -5.5t-16.5 -5.5l-272 815q-6 20 -33 35q-33 19 -76 29zM410 1112l282 389h148l272 -389q-2 -4 -7 -12l-10 -15.5 t-12 -15.5q-18 -25 -34 -33l-283 209l-283 -209q-6 2 -16 13l-6 6t-8 7t-6.5 7t-10.5 11t-10 12q-10 12 -16 20z" />
<glyph unicode="&#x176;" horiz-adv-x="1265" d="M0 1239q29 4 68 10q53 8 79 11q53 4 76 6q45 4 56 4q31 0 61 -13q25 -10 47 -36q47 -61 78 -113q23 -35 80 -135q41 -72 80 -148l73 -147l224 432q16 25 -11 41q-29 18 -100 27v82h426v-82q-37 -6 -59 -13q-10 -2 -24.5 -8t-16.5 -6q-8 -2 -29 -18q-12 -8 -18 -23 l-316 -596v-358q0 -4 6 -15q6 -9 25 -18q29 -14 49 -21q33 -10 76 -18v-84h-590v84q43 8 76 18q27 8 47 19q18 9 24 18q6 8 7 17v370q-41 90 -80 164q-43 84 -88 162l-90 145q-31 49 -78 113q-6 8 -19 20q-8 8 -24 15q-10 4 -43 8q-16 2 -68 2zM289 1421l282 330h127 l283 -330q-16 -25 -29 -37q-23 -23 -34 -29l-283 150l-283 -150q-8 4 -32 29z" />
<glyph unicode="&#x177;" d="M-68 -418q0 12 19 39q12 18 45 59t51 60q33 33 43 39q57 -37 103 -45q20 -3 36 -4q28 0 52 10q25 8 36 16q25 16 39 31q18 18 37 49q20 37 37 72l29 69l-338 801q-12 29 -35 43q-20 12 -76 27v82h475v-82q-35 -6 -59 -12q-20 -6 -27 -13q-10 -8 -6 -18q2 -6 10 -27 l193 -456l184 456l5 15.5t3 11.5q4 12 -2 18q-8 8 -20 13q-20 6 -51 12v82h323v-82l-49 -14q-12 -4 -28 -13q-10 -4 -19 -18q-6 -9 -12 -25l-334 -850q-37 -96 -94 -188q-47 -78 -105 -131q-51 -49 -118 -76q-57 -23 -132 -22q-43 0 -77 8q-51 12 -68 18q-31 12 -49 25 q-21 14 -21 20zM193 1112l282 389h148l272 -389q-2 -4 -7 -12l-10 -15.5t-12 -15.5q-18 -25 -34 -33l-283 209l-283 -209q-6 2 -16 13l-6 6t-8 7t-6.5 7t-10.5 11t-10 12q-10 12 -16 20z" />
<glyph unicode="&#x178;" horiz-adv-x="1265" d="M0 1239q29 4 68 10q53 8 79 11q53 4 76 6q45 4 56 4q31 0 61 -13q25 -10 47 -36q47 -61 78 -113q23 -35 80 -135q41 -72 80 -148l73 -147l224 432q16 25 -11 41q-29 18 -100 27v82h426v-82q-37 -6 -59 -13q-10 -2 -24.5 -8t-16.5 -6q-8 -2 -29 -18q-12 -8 -18 -23 l-316 -596v-358q0 -4 6 -15q6 -9 25 -18q29 -14 49 -21q33 -10 76 -18v-84h-590v84q43 8 76 18q27 8 47 19q18 9 24 18q6 8 7 17v370q-41 90 -80 164q-43 84 -88 162l-90 145q-31 49 -78 113q-6 8 -19 20q-8 8 -24 15q-10 4 -43 8q-16 2 -68 2zM268 1488q0 45 15 76 q16 37 39 60q29 29 53 41q29 14 63 14q59 0 97 -33q35 -31 34 -96q0 -37 -14 -76q-12 -35 -37 -59q-29 -29 -53 -41q-29 -14 -66 -15q-63 0 -96 33q-35 35 -35 96zM698 1488q0 45 15 76q16 37 39 60q29 29 53 41q29 14 63 14q59 0 97 -33q35 -31 34 -96q0 -37 -14 -76 q-12 -35 -37 -59q-27 -27 -55.5 -41.5t-62.5 -14.5q-63 0 -97 33q-35 35 -35 96z" />
<glyph unicode="&#x179;" horiz-adv-x="1130" d="M49 55l662 1065h-369q-15 0 -37 -18q-16 -14 -41 -53q-16 -25 -37 -78q-14 -33 -28 -99l-99 23l39 381q37 -8 51 -10q29 -4 43 -4q8 0 22.5 -1t23.5 -1h737l35 -54l-656 -1067h434q18 0 37 18.5t33 49.5q23 51 33 80l35 110l94 -24q-4 -41 -4 -84v-51.5t-2 -53.5 q-2 -55 -4 -104q0 -18 -1 -45t-1 -35h-961zM380 1431l357 346l27.5 -14t31.5 -17l60 -36q6 -4 16 -11.5t18.5 -12.5t14.5 -9q29 -20 30 -23l9 -55l-490 -244q-9 3 -18 13q-2 2 -6.5 6t-8.5 7t-6 7t-8 11l-10 12q-4 6 -9.5 12t-7.5 8z" />
<glyph unicode="&#x17a;" horiz-adv-x="976" d="M55 45l520 756h-231q-49 0 -88 -57.5t-68 -174.5l-79 23l28 354l39 -10q25 -4 39 -4q6 0 19.5 -1t21.5 -1h639l23 -43l-523 -758h318q16 0 32.5 18.5t26.5 49.5q4 12 23 79l26 103l78 -21q0 -8 -1 -37.5t-1 -48.5q0 -16 -1 -52t-1 -54q0 -72 -2 -103q-2 -45 -6 -63h-805z M355 1085l202 435q4 0 6 -1t8.5 -2t14.5 -1q12 -2 45 -7q20 -2 55 -10q29 -4 54 -8q8 -2 24.5 -5t22.5 -3q20 -2 26 -6l33 -60l-395 -381q-2 0 -23 8q-6 2 -14 6.5t-14.5 6.5t-14.5 8t-12 8q-12 6 -18 12z" />
<glyph unicode="&#x17b;" horiz-adv-x="1130" d="M49 55l662 1065h-369q-15 0 -37 -18q-16 -14 -41 -53q-16 -25 -37 -78q-14 -33 -28 -99l-99 23l39 381q37 -8 51 -10q29 -4 43 -4q8 0 22.5 -1t23.5 -1h737l35 -54l-656 -1067h434q18 0 37 18.5t33 49.5q23 51 33 80l35 110l94 -24q-4 -41 -4 -84v-51.5t-2 -53.5 q-2 -55 -4 -104q0 -18 -1 -45t-1 -35h-961zM436 1488q0 45 15 76q16 37 39 60q29 29 53 41q29 14 63 14q59 0 97 -33q35 -31 34 -96q0 -37 -14 -76q-12 -35 -37 -59q-29 -29 -53 -41q-29 -14 -66 -15q-63 0 -96 33q-35 35 -35 96z" />
<glyph unicode="&#x17c;" horiz-adv-x="976" d="M55 45l520 756h-231q-49 0 -88 -57.5t-68 -174.5l-79 23l28 354l39 -10q25 -4 39 -4q6 0 19.5 -1t21.5 -1h639l23 -43l-523 -758h318q16 0 32.5 18.5t26.5 49.5q4 12 23 79l26 103l78 -21q0 -8 -1 -37.5t-1 -48.5q0 -16 -1 -52t-1 -54q0 -72 -2 -103q-2 -45 -6 -63h-805z M366 1210q0 43 15 74q16 37 39 59q29 29 53 41q33 16 63 17q59 0 97 -33q35 -31 34 -98q0 -35 -14 -74t-37 -61q-25 -25 -53 -39q-33 -16 -66 -17q-63 0 -96 33q-35 35 -35 98z" />
<glyph unicode="&#x17d;" horiz-adv-x="1130" d="M49 55l662 1065h-369q-15 0 -37 -18q-16 -14 -41 -53q-16 -25 -37 -78q-14 -33 -28 -99l-99 23l39 381q37 -8 51 -10q29 -4 43 -4q8 0 22.5 -1t23.5 -1h737l35 -54l-656 -1067h434q18 0 37 18.5t33 49.5q23 51 33 80l35 110l94 -24q-4 -41 -4 -84v-51.5t-2 -53.5 q-2 -55 -4 -104q0 -18 -1 -45t-1 -35h-961zM242 1718q20 29 31 39q20 20 32 26l285 -180l281 180q16 -8 34 -26q14 -14 29 -39l-272 -336h-148z" />
<glyph unicode="&#x17e;" horiz-adv-x="976" d="M55 45l520 756h-231q-49 0 -88 -57.5t-68 -174.5l-79 23l28 354l39 -10q25 -4 39 -4q6 0 19.5 -1t21.5 -1h639l23 -43l-523 -758h318q16 0 32.5 18.5t26.5 49.5q4 12 23 79l26 103l78 -21q0 -8 -1 -37.5t-1 -48.5q0 -16 -1 -52t-1 -54q0 -72 -2 -103q-2 -45 -6 -63h-805z M166 1450q2 4 7 12l10 15.5t12 15.5q18 25 34 33l283 -207l283 207q6 -2 16 -13l6 -6t8 -7t6 -7q4 -4 10.5 -10t10.5 -10q6 -6 10 -13.5t6 -9.5l-282 -387h-148z" />
<glyph unicode="&#x181;" horiz-adv-x="1564" d="M20 963q0 76 43 137q41 59 134 102q96 45 235 66q152 23 346 22q176 0 285 -20q114 -22 184 -68q47 -31 76 -78q33 -53 33 -104q0 -111 -58 -182q-55 -72 -184 -115q82 -16 146 -49q65 -34 110 -80q47 -47 71.5 -108.5t24.5 -129.5q0 -86 -36.5 -153.5t-104.5 -116.5 t-168 -74q-111 -27 -227 -26h-58q-10 0 -35.5 1t-39.5 1q-20 0 -42 1t-44 1q-31 0 -88 4q-123 4 -220 6h-63v84q78 18 102 29q33 14 33 30v1010q-84 -23 -125 -55q-47 -37 -47 -92q0 -14 8 -43q8 -25 17 -39q12 -18 26.5 -32.5t28.5 -21.5q-8 -8 -18 -14q-6 -4 -21.5 -10 t-21.5 -10q-25 -12 -56 -25l-59 -25l-53 -18q-27 -10 -39 -12q-18 8 -35 28q-18 22 -31 50q-10 23 -20 61q-9 31 -9 68zM756 143q0 -4 6 -14q23 -10 57 -20q27 -8 68 -9q145 0 214.5 63.5t69.5 178.5q0 55 -12 106.5t-47 92.5q-33 39 -88 63.5t-143 24.5q-27 0 -68 -4 q-20 -2 -57 -11v-471zM756 745h12q100 0 160 19q57 18 90 51q31 33 41 72q10 45 10 84q0 51 -14 86q-16 37 -51 69q-10 10 -31 21q-16 8 -45 14q-35 8 -70 10q-57 4 -102 5v-431z" />
<glyph unicode="&#x186;" horiz-adv-x="1148" d="M31 1071q61 57 137 105q76 45 135 67q82 31 129 37q68 10 113 10q104 0 205 -41q102 -41 174 -119q82 -88 120 -192q43 -115 43 -260q0 -162 -45 -289q-49 -135 -127 -223q-84 -94 -196 -146q-111 -51 -248 -51q-104 0 -197 31q-83 28 -135 74q-51 45 -76 104 q-23 53 -22 117q0 29 2 45t10 49q6 25 19 49q14 29 28 43q25 14 60 29l73 29l39 15t33 13q45 16 51 19l39 -88q-25 -16 -45 -37q-18 -18 -28 -41q-8 -20 -13 -47q-4 -33 -4 -54q0 -37 17 -73q16 -35 45 -62q31 -27 71 -43q43 -16 88 -16q53 0 104.5 22.5t88.5 81.5 q41 66 61 158q23 102 23 254q0 135 -33 225q-34 92 -86 148q-55 57 -121 82q-68 25 -139 24q-28 0 -62 -6q-25 -4 -73 -18q-43 -12 -92 -37q-55 -29 -111 -64q-6 2 -14 15l-17 22q-12 16 -16 25q-6 12 -8 14z" />
<glyph unicode="&#x189;" horiz-adv-x="1333" d="M27 1231q25 6 120 22q8 2 150 19q102 12 156 14q106 4 145 4q164 0 281 -41q125 -43 204 -121q86 -82 127 -192q43 -113 43 -260q0 -117 -26 -223q-23 -90 -70 -174q-39 -72 -104 -129q-57 -51 -127 -87q-61 -31 -142 -47q-78 -16 -145 -16h-598v84q74 16 100 29 q33 14 33 30v471h-125l-20 25q0 2 2 9l4 14q4 14 10 30.5t12 30.5t9 22h108v402l-133 -19zM455 190q0 -20 2 -30q2 -14 16 -24.5t41 -16.5q18 -4 84 -4q51 0 115 28q66 31 116 93q51 63 89 161q35 92 34 240q0 266 -108 403q-106 135 -322 136h-33q-6 0 -17 -1t-17 -1v-429 h235l25 -22l-39 -109h-221v-424z" />
<glyph unicode="&#x18a;" horiz-adv-x="1632" d="M20 963q0 78 41 137t136 102q94 45 243 66q158 23 369 22q88 0 158 -6q86 -8 129 -14q57 -8 106 -29q55 -23 84 -39q72 -45 125 -104q51 -57 82 -125q29 -63 45 -142q14 -70 14 -155q0 -125 -24 -223q-20 -84 -72 -174q-41 -76 -102 -129q-55 -49 -125 -87 q-57 -29 -137 -47q-76 -16 -134 -16h-618v84q78 18 102 29q33 14 33 30v1010q-100 -23 -143 -55q-47 -35 -47 -92q0 -37 14 -72q14 -37 63 -64q-2 -2 -38 -24q-12 -8 -72 -35q-63 -29 -78 -35q-49 -18 -59 -20q-27 14 -45 39q-12 16 -29 53q-8 20 -16 57q-5 21 -5 58z M756 195q0 -35 30 -58q33 -23 111 -22q33 0 72 12q43 12 80 39q39 27 75 70q41 47 66 100q29 61 47 133q16 66 16 168q0 70 -6 125q-4 41 -20 104q-12 47 -37 95q-23 43 -57 90q-23 33 -56 53q-41 27 -80 39q-33 10 -106 22q-41 6 -135 11v-981z" />
<glyph unicode="&#x18e;" horiz-adv-x="1112" d="M55 35q0 8 4 45q2 12 5.5 27.5t5.5 33.5l12 68q8 53 12 67q6 31 12 56q2 8 6.5 22.5t4.5 16.5h84l6 -90q4 -53 8 -78q6 -31 18 -53q12 -20 29 -21h176q49 0 103 4q35 2 61 14q27 10 31 23q6 14 6 33v411h-201h-53q-8 0 -19.5 -1t-24.5 -3t-22 -2q-34 -3 -61 -6 q-33 -4 -45 -6l-25 27l12.5 19t12.5 20q12 20 33 47q2 4 14 21.5t21 25.5q16 20 28 28q16 -16 33 -24q2 -2 41 -12q23 -6 53 -7q10 0 33 -1t39 -1h131v391h-213q-45 0 -76 -6q-29 -6 -53 -26q-23 -20 -41 -56q-16 -33 -39 -94l-84 29q2 20 5 41.5t5 44.5q4 57 9 84 q0 6 4 30.5l6 37t5 26.5t3 19h885v-82q-70 -16 -102.5 -30.5t-32.5 -31.5v-971q0 -12 30 -30q20 -12 105 -31v-84h-957z" />
<glyph unicode="&#x190;" horiz-adv-x="1087" d="M59 293q0 58 19 110q20 57 49 99q31 43 72 78q37 31 88 55q-96 35 -145.5 102.5t-49.5 167.5q0 86 53 164q51 76 144 133q61 39 153 64q90 25 187 24q53 0 108 -6q33 -4 105 -20q55 -12 96 -31q45 -18 76 -47q-6 -23 -21 -53l-30 -68l-33 -68l-27 -53l-82 19 q-12 31 -41 69q-31 41 -55 62q-33 27 -68 41q-39 16 -82 16q-39 0 -86 -14q-35 -10 -69 -39q-29 -23 -49 -64q-18 -37 -19 -86q0 -39 23 -80q23 -43 65.5 -71.5t116.5 -51.5q70 -20 174 -24v-111q-111 -6 -176 -28q-74 -25 -121 -60q-49 -37 -72 -80q-23 -45 -22 -88 q0 -37 16 -75q14 -35 50 -64q37 -31 83 -45q45 -14 113 -14q43 0 86 6q49 6 90 20q31 10 92 41q43 20 101 66l57 -78q-123 -127 -244 -182q-129 -59 -276 -60q-117 0 -209 33q-84 31 -137 80q-53 51 -78 104q-25 56 -25 107z" />
<glyph unicode="&#x192;" horiz-adv-x="679" d="M-336 -391q0 16 21 39q29 33 51 53q41 37 61 53q18 16 53 35q14 -16 48 -41q25 -18 49 -31q16 -8 49 -16q25 -6 43 -6q28 0 49 12q20 12 37 51q16 41 22 105q6 68 7 182v752h-113l-31 37l78 96h66v31q0 80 12 145q14 74 33 119q23 53 51 94q37 49 65 80q37 37 78 63 q61 39 84 49q51 23 80 29q45 10 76 10q47 0 94 -12q55 -14 84 -27q27 -12 57 -32q23 -16 23 -25q0 -10 -10 -31q-6 -12 -26.5 -36.5t-37.5 -40.5q-27 -27 -39 -37l-35 -29q-6 -4 -16 -10l-10 -6q-45 59 -94 94q-41 29 -76 28q-37 0 -58 -20q-25 -25 -39 -68t-20 -122 q-6 -78 -6 -191v-55h250l39 -39l-10.5 -15.5t-12.5 -19.5q-12 -23 -26 -39q-6 -6 -16.5 -19.5t-12.5 -17.5q-12 -14 -23 -18q-10 6 -67 22q-43 12 -121 13v-699q0 -109 -21 -182q-18 -70 -57 -131q-33 -55 -76 -94q-55 -51 -82 -72l-59 -41q-31 -18 -68 -35q-41 -16 -71 -24 q-33 -8 -72 -8q-51 0 -90 10q-37 10 -82 28.5t-59 30.5q-23 19 -23 29z" />
<glyph unicode="&#x197;" horiz-adv-x="688" d="M29 618q0 2 2 9.5t4 13.5q4 14 10 30.5t12 31t9 22.5h129v389q0 12 -31 31q-27 16 -105 33v82h551v-82q-80 -18 -102 -31q-33 -18 -33 -33v-389h146l24 -23l-41 -106h-129v-453q0 -10 31 -28q20 -12 104 -31v-84h-551v84q78 18 103 29q33 14 33 30v453h-146z" />
<glyph unicode="&#x198;" horiz-adv-x="1331" d="M41 0v84q74 16 100 29q33 14 33 30v971q0 12 -31 31q-27 16 -102 33v82h549v-82q-76 -16 -101 -31q-35 -18 -34 -33v-448l331 438q63 82 142 125q74 41 172 41q45 0 88 -16.5t72 -45.5q27 -27 47 -78q16 -41 16 -104q0 -18 -2 -31l-6 -37l-6 -36q-2 -8 -5.5 -17.5 t-3.5 -11.5q-2 -8 -28 -23q-45 -25 -64 -32l-75 -31q-31 -12 -62 -21l-37 60q14 27 18.5 33t8.5 20t8 21q8 18 14 41q4 14 4 36q0 51 -14 66q-16 16 -39 16q-18 0 -41 -14q-16 -10 -32 -31l-306 -358l480 -500q12 -14 32 -26q14 -8 35 -13q12 -2 39 -2q12 0 45 4l8 -82 q-14 -4 -31.5 -10l-35.5 -12l-40 -11.5t-36 -11.5q-40 -12 -74 -18q-45 -8 -59 -8q-27 0 -51 10q-23 10 -43 33l-469 592v-478q0 -10 30 -28q23 -14 105 -31v-84h-549z" />
<glyph unicode="&#x199;" horiz-adv-x="1163" d="M45 0v84q94 27 98 29q31 12 31 30v754q0 119 19 205q16 72 51 147q29 59 78 109q57 57 104 92q37 25 68 41q37 18 79 31q61 18 82 20q57 8 82 8q57 0 115 -18q68 -20 104 -41q51 -27 76 -47q31 -25 31 -37q0 -8 -10 -29q-4 -8 -29 -36.5l-37 -41.5q-4 -4 -12 -13 t-15.5 -15t-13.5 -12q-33 -27 -37 -31t-10 -8t-10 -7.5t-6 -3.5q-12 20 -49 62q-28 31 -62 55q-35 25 -70 41q-37 16 -65 16q-43 0 -74 -14q-35 -16 -59 -61q-27 -49 -41 -129q-18 -100 -19 -215v-433l248 228q37 33 43 43q12 16 8 26.5t-20 14.5q-20 4 -43 4v82h459v-82 q-41 -6 -92 -23q-39 -12 -89 -51l-290 -215l356 -397q4 -4 9 -10.5t9.5 -10.5t8.5 -6q10 -8 30.5 -12t36.5 -4q31 0 49 2l7 -82l-66 -16q-18 -4 -37.5 -7.5t-38.5 -7.5q-33 -6 -63 -12q-27 -6 -39 -6q-41 0 -78 12q-35 12 -57 41l-351 465v-365q0 -6 5 -14q4 -6 14 -12 q4 -2 33 -15q8 -4 28.5 -9t30.5 -9v-84h-510z" />
<glyph unicode="&#x19a;" horiz-adv-x="729" d="M41 737l8 23q8 20 14 31l27 55h139v409q0 37 -4 70q-4 27 -18 39q-16 14 -39 16q-8 2 -30.5 5.5t-37.5 5.5v79q20 2 55 7.5t46 7.5q37 4 90 16q51 10 82 21l82 28l45 -45v-659h168l22 -27l-49 -104h-141v-572q0 -8 6 -14t22 -16q12 -8 43 -15q57 -12 68 -14v-84h-549v84 q14 2 70 14q16 4 43 15q18 6 22 14q4 6 4 16v572h-166z" />
<glyph unicode="&#x19d;" horiz-adv-x="1368" d="M-350 -332q0 10 10 23q16 20 29 33l39 40q29 29 43 41q37 31 39 33q23 14 26 17q25 -33 45 -48q27 -20 51 -30q27 -12 54 -19q25 -6 49 -6q37 0 65 23q28 22 43 61q20 51 25 94q6 55 6 123v1049q-20 20 -65 49q-31 20 -68 27v82h301q18 0 25 -3q12 -4 18 -10 q14 -14 23 -24l8 -11.5t9 -11.5t13 -18l596 -830v762q0 8 -6 16q-4 6 -20 17q-4 2 -41 16q-18 6 -68 15v82h430v-82q-70 -8 -102.5 -29t-32.5 -35v-1145q-51 2 -98 17q-57 16 -80 26q-37 16 -60 37q-31 27 -41 41l-579 805v-789q0 -33 -4 -98q-3 -49 -13 -98 q-10 -51 -28 -92q-22 -46 -55 -86q-14 -16 -56 -54q-33 -29 -71.5 -53t-83.5 -39q-49 -16 -97 -16q-45 0 -100 10q-57 10 -88 23q-45 16 -66 32q-24 19 -24 33z" />
<glyph unicode="&#x19f;" horiz-adv-x="1288" d="M49 612q0 129 45 258q43 123 125 217q80 92 194.5 147.5t250.5 55.5q133 0 237.5 -55t173.5 -143q68 -86 107 -207q37 -117 37 -238q0 -86 -23 -176q-18 -72 -63 -160q-39 -76 -97 -139q-49 -55 -125 -106q-63 -43 -145 -70q-84 -27 -162 -27q-123 0 -229 54 q-104 51 -176 143q-72 90 -111 204.5t-39 241.5zM336 596q6 -106 33 -193q29 -92 69 -153q45 -66 99 -103q55 -37 116 -36q63 0 109 28q51 33 86 90q39 66 59 152q22 92 25 215h-596zM338 725h590q-8 84 -37 166q-29 80 -70 137q-45 61 -96 92q-57 35 -121 35 q-61 0 -108 -29q-45 -27 -80 -84t-54 -135q-18 -80 -24 -182z" />
<glyph unicode="&#x1a0;" horiz-adv-x="1288" d="M49 612q0 129 45 258q43 123 125 217q80 92 194.5 147.5t250.5 55.5q80 0 153 -22q68 -20 129 -60q27 29 35 56q6 18 6 47q0 35 -18 55q-31 35 -49 49l288 129q20 -16 29 -26q14 -18 23 -37q6 -14 14 -43q6 -20 6 -45q0 -63 -57 -133q-63 -76 -172 -140q45 -51 71 -100 q33 -59 54 -117q14 -43 30 -125q12 -66 13 -131q0 -86 -23 -176q-18 -72 -63 -160q-39 -76 -97 -139q-49 -55 -125 -106q-63 -43 -145 -70q-84 -27 -162 -27q-123 0 -229 54q-104 51 -176 143q-72 90 -111 204.5t-39 241.5zM336 641q0 -111 24 -209q25 -96 68 -168 q45 -74 102 -112q59 -41 123 -41q59 0 113 30q49 29 88 97q35 61 57 161q23 102 23 230q0 104 -24.5 198.5t-67.5 167.5q-45 76 -103 117q-61 43 -135 43q-66 0 -117 -35q-49 -33 -84 -100q-31 -59 -51 -162q-16 -84 -16 -217z" />
<glyph unicode="&#x1a1;" horiz-adv-x="1239" d="M59 444q0 59 17 129q12 53 49 123q29 53 76 105q49 53 100 84q55 34 123 55q63 20 141 21q94 0 180 -33q82 -31 142 -88q39 35 49 65q12 34 12 56q0 33 -20 55q-35 39 -47 49l286 129q20 -16 29 -27q14 -18 23 -37q12 -29 16 -43t4 -45q0 -72 -68 -147q-70 -78 -208 -152 q31 -53 49 -120q18 -66 18 -138q0 -68 -18.5 -131t-50.5 -121q-33 -55 -80 -106q-47 -49 -103 -84q-57 -35 -121 -53q-72 -20 -131 -21q-106 0 -192 37q-90 39 -148 98q-59 61 -94 152q-33 84 -33 188zM344 473q0 -76 16.5 -147.5t42.5 -118.5q31 -53 66 -78q41 -29 86 -29 q57 0 92 20.5t58 65.5q22 43 30 105q10 68 10 143q0 70 -14 152q-10 61 -39 125q-25 57 -65.5 87.5t-89.5 30.5q-59 0 -95 -26q-39 -29 -59 -76q-18 -43 -29 -113q-10 -71 -10 -141z" />
<glyph unicode="&#x1a9;" horiz-adv-x="1138" d="M41 53l405 551l-385 602v54h754q72 0 105 2q53 4 108 14l4 -361l-96 -22q-18 72 -37 119q-20 49 -35 69q-18 25 -33 31q-20 8 -30 8h-393l280 -446l-334 -463h471q33 0 52 8q20 8 36.5 35t30.5 65q12 33 33 107l92 -20q-2 -14 -3 -48t-1 -51q0 -20 -4 -59t-4 -58 q-4 -74 -8 -112q0 -12 -1 -40t-4 -38h-962z" />
<glyph unicode="&#x1aa;" horiz-adv-x="825" d="M10 1272q0 51 24.5 100t71.5 90q43 37 119 64q70 25 162 24q84 0 148 -28q57 -27 96 -78t53 -111q16 -66 16 -127q0 -135 -10 -309q-6 -104 -22 -309q-18 -221 -23 -297q-10 -160 -10 -271q0 -119 6 -194q6 -66 21 -119q12 -41 34 -57q20 -14 51 -14.5t51.5 18t32.5 45.5 q14 33 15 57q0 27 -12 49q-2 2 6 7q3 2 8 4q2 2 10 5l15.5 6t15.5 5q23 8 59 18l62 19q31 9 55 12q31 4 35 2l28 -57q4 -53 -28 -111q-31 -55 -88 -100q-55 -45 -142 -76q-78 -29 -188 -28q-78 0 -139 30q-59 29 -103 88q-43 57 -63 140q-23 86 -23 190q0 133 11 297 q6 113 22 287l23 268q10 143 10 236v40q-43 -33 -78 -43q-40 -12 -80 -12q-61 0 -104 15q-45 14 -80 47q-35 31 -51 73q-17 42 -17 105zM236 1323q0 -55 20 -82q23 -29 63 -29q27 0 54 11q16 6 41 26q-4 49 -8 74q-6 35 -19 59q-14 29 -27 39q-18 14 -36 15q-10 0 -31 -9 q-18 -8 -29 -20q-12 -14 -20 -35q-8 -18 -8 -49z" />
<glyph unicode="&#x1af;" horiz-adv-x="1529" d="M41 1178v82h549v-82q-76 -16 -101 -31q-35 -18 -34 -33v-600q0 -100 14 -170q14 -66 51 -121q34 -49 92 -73q59 -25 144 -25q72 0 118 31q45 31 74 84q29 55 41 120q10 57 10 144v610q0 12 -30 31q-27 16 -105 33v82h365q4 10 8 26v25q0 35 -18 55q-31 35 -50 49l289 129 q20 -16 29 -26q14 -18 22 -37q6 -14 15 -43q6 -20 6 -45q0 -39 -20.5 -80t-63.5 -84q-39 -39 -107 -84q-61 -41 -149 -82v-539q0 -131 -39 -233q-41 -104 -107 -174q-70 -74 -157 -109q-96 -39 -201 -39q-100 0 -197 29q-86 27 -161 88q-74 61 -113 147q-41 92 -41 211v670 q0 12 -31 31q-26 17 -102 33z" />
<glyph unicode="&#x1b0;" horiz-adv-x="1429" d="M31 823v80q20 2 53 6t47 4q35 2 86 11q59 8 82 14q27 6 84 23l37 -50v-567q0 -57 6 -94q4 -31 20 -57q10 -18 33 -27q18 -6 43 -6q10 0 39 4q25 4 49 14q33 14 62 33q41 27 73 51v420q0 35 -4 72q-2 25 -16 41q-10 14 -39 20q-18 4 -72 8v80q111 9 197 25q106 18 164 33 l41 -50v-112q37 20 63 43q25 22 37 43q14 25 17 41q0 2 3 15t3 20q0 33 -21 55q-31 35 -49 49l289 129q20 -16 28 -27q14 -18 23 -37q6 -14 14 -43q6 -23 7 -45q0 -43 -25 -88q-27 -49 -78 -94q-47 -43 -131 -92q-78 -47 -180 -86v-387v-51q0 -14 4 -31q3 -12 6 -18 q2 -2 6 -5.5t6 -5.5l13 -6q10 0 18 2q2 0 27 10l43 17l30 -84q-27 -18 -86 -51q-76 -43 -94 -52q-55 -25 -82 -36q-35 -14 -47 -15q-16 0 -35 6q-23 8 -35 20.5t-26 47.5q-12 31 -19 84q-66 -55 -110 -84q-55 -35 -88 -47q-35 -14 -74 -21q-35 -6 -65 -6q-39 0 -93 15 q-43 12 -82 47q-41 39 -61 94q-23 63 -22 154v403v74q0 23 -13 39q-8 12 -35 18q-5 2 -71 10z" />
<glyph unicode="&#x1b3;" horiz-adv-x="1476" d="M0 1239q29 4 68 10q53 8 79 11q53 4 76 6q45 4 56 4q39 0 65 -15q31 -16 43 -34q37 -49 78 -111q49 -74 84 -135q4 -6 80 -148l76 -147l208 420q27 49 54 88q23 31 67 69q35 29 84 46q55 18 109 18q55 0 102 -18q45 -18 76 -50q33 -33 47 -69.5t14 -81.5q0 -25 -2 -39 l-6 -41q-2 -8 -5 -21.5t-3 -15.5q0 -4 -1 -9t-2 -8t-1 -5q-2 -6 -21 -21q-15 -12 -36 -24l-50 -27l-49 -25l-25.5 -10t-19.5 -8l-28 -12l-29 69l16 31q4 6 10.5 17.5t8.5 17.5q4 8 14 39q4 12 4 37q0 47 -20 69q-20 25 -57.5 25t-65.5 -31q-25 -29 -49 -76l-271 -512v-366 q0 -4 6 -15q6 -9 25 -18q31 -16 47 -21q29 -8 78 -18v-84h-590v84q43 8 76 18q27 8 47 19q18 9 25 18q6 8 6 17v362l-80 166q-29 57 -90 164l-90 147q-16 27 -46 69t-34 46q-6 8 -19 20q-6 6 -26 15q-10 4 -41 8q-16 2 -68 2z" />
</font>
</defs>
</svg>
