<?xml version="1.0" standalone="no"?>
<!DOCTYPE svg PUBLIC "-//W3C//DTD SVG 1.1//EN" "http://www.w3.org/Graphics/SVG/1.1/DTD/svg11.dtd" >
<svg xmlns="http://www.w3.org/2000/svg">
<metadata>
This is a custom SVG webfont generated by Font Squirrel.
Copyright   : Copyright c SIL International 20032008
Designer    : J Victor Gaultney and Annie Olsen
Foundry     : SIL International
Foundry URL : httpscriptssilorg
</metadata>
<defs>
<font id="webfontcApqmqOY" horiz-adv-x="0" >
<font-face units-per-em="2048" ascent="1638" descent="-410" />
<missing-glyph horiz-adv-x="450" />
<glyph unicode=" "  horiz-adv-x="450" />
<glyph unicode="&#x09;" horiz-adv-x="450" />
<glyph unicode="&#xa0;" horiz-adv-x="450" />
<glyph unicode="!" horiz-adv-x="555" d="M152 72q0 33 12 63q14 37 29 53q18 20 45 35q25 12 53 13q51 0 74 -29q25 -31 24 -84q0 -29 -10 -64q-8 -31 -29 -53q-16 -20 -43 -33q-29 -14 -55 -14q-53 0 -78 31q-22 29 -22 82zM176 1399q31 20 80 45q53 27 76 37l43 -27l-49 -1065q-12 -10 -33 -22q-4 -2 -41 -17 l-29 21z" />
<glyph unicode="&#x22;" horiz-adv-x="868" d="M160 1425q4 2 33 15q8 2 22 8t21 8q8 4 19 8l24 9q14 4 30 8l43 -23l-43 -624q-2 0 -9 -3.5l-11 -5.5l-25 -6q-16 -4 -26 -4q-4 0 -12.5 -1t-12.5 -1zM518 1425l31 15q8 2 22.5 8t22.5 8q8 4 19.5 8t23.5 9q14 4 31 8l43 -23l-43 -624q-2 0 -8.5 -3.5l-10.5 -5.5t-13 -4 t-13 -2q-16 -4 -27 -4q-4 0 -12.5 -1t-12.5 -1z" />
<glyph unicode="#" horiz-adv-x="960" d="M86 500q8 29 14 45l7.5 21.5t9.5 23.5h172l73 256h-145l-24 24q10 37 14 48q4 12 16 43h172l82 290q18 12 45 25q6 2 20.5 8t22.5 8l31 -22l-90 -309h188l82 290q18 12 45 25l45 16l29 -22l-88 -309h149l25 -25q-2 -4 -5 -20.5t-7 -26.5q-9 -25 -19 -43h-178l-72 -256 h152l20 -27q-8 -29 -12 -45q-8 -29 -14 -43h-178l-88 -305q-20 -16 -41 -25l-52 -18l-24 20l92 328h-188l-88 -305q-16 -14 -41 -25l-50 -18l-24 20l92 328h-147zM399 590h189l74 256h-189z" />
<glyph unicode="$" horiz-adv-x="960" d="M88 195q0 51 2 77q3 40 12 68l43 -4q49 -104 121 -156q76 -53 166 -65v479q-53 18 -120.5 47t-108.5 61q-51 41 -76 84q-29 51 -29 125q0 37 17 90q14 45 55 91q45 49 102 75q65 31 160 43v146l21 12q2 0 5 2t5 4q8 4 12 4q2 0 8 2t13 4l26 -22v-148q33 0 90 -8 q43 -6 80 -18t70 -29q20 -10 49 -35q4 -6 -2 -26q-6 -18 -21 -39l-11 -18q-11 -17 -19 -25q-12 -14 -31 -33l-39 8q-41 47 -82 74q-47 31 -84 41v-379q82 -33 123 -51q57 -25 109 -68q45 -37 77 -96q31 -55 31 -135q0 -57 -22 -121q-25 -70 -64 -117q-45 -53 -106.5 -92 t-147.5 -51v-139q-8 -8 -16 -13q-2 0 -6 -4t-6 -4q-2 -2 -7.5 -3t-7.5 -1q-12 -4 -20 -6l-27 22v142q-37 0 -90 8q-40 6 -80 18q-20 6 -78 33q-31 14 -82 47q-8 8 -10 33q-4 37 -4 66zM225 958q0 -39 17 -67q16 -31 43 -51q29 -23 65 -41q10 -6 23.5 -11.5l31 -12.5 l27.5 -11v350q-66 -4 -98 -16q-43 -16 -64 -35q-25 -23 -34 -51q-11 -31 -11 -54zM522 113q45 6 76 22q41 20 66 45q31 31 47 63.5t16 80.5q0 45 -16 84q-14 35 -43 63q-20 20 -66 47q-31 18 -80 39v-444z" />
<glyph unicode="%" horiz-adv-x="1411" d="M76 897q0 70 24.5 131.5t63.5 106.5q35 41 94 71q53 29 111 29q61 0 108 -27q49 -28 86 -73q37 -47 55 -107q18 -61 18.5 -131t-24 -131t-63.5 -106.5t-94 -73.5q-53 -29 -113 -29q-55 0 -106 29q-49 28 -86 73q-35 43 -54 107q-20 68 -20 131zM199 0l856 1188 q20 14 65 29q6 2 68 20l29 -33l-859 -1188q-16 -10 -26 -14q-4 -2 -16.5 -7t-20.5 -7l-41 -13l-31 -10zM221 920q0 -82 10 -125q12 -55 31 -88q16 -31 47 -52q25 -16 60 -16q27 0 47 14.5t39 44.5q16 27 26 76q10 47 11 103q0 71 -13 122q-12 55 -33 86q-23 37 -49 52 q-29 16 -55 16q-23 0 -43 -14.5t-38.5 -43t-29.5 -73.5q-10 -47 -10 -102zM778 309q0 70 25 131q23 57 65 107q37 43 93 71q51 27 110 27q61 0 109 -27q53 -31 84 -71q39 -53 55 -107q18 -61 18 -130.5t-24 -131.5q-27 -66 -64 -108q-35 -41 -94 -72q-53 -29 -111 -29 q-55 0 -106 29q-53 31 -84 72q-33 45 -55 108q-21 59 -21 131zM924 332q0 -74 12 -125q14 -61 29 -88q16 -31 47 -51q25 -16 59 -17q27 0 47.5 14.5t38.5 45.5q16 27 27 75q10 47 10 103q0 71 -12 123q-12 55 -33 86q-23 37 -49 51q-29 16 -56 16q-23 0 -43 -14t-38.5 -43 t-28.5 -74q-10 -47 -10 -102z" />
<glyph unicode="&#x26;" horiz-adv-x="1363" d="M80 352q0 59 20 115q20 57 58 115q29 45 94 110q43 43 129 107q-31 78 -47 139q-16 59 -17 135q0 84 27 150q33 78 72 120q47 51 104 78q61 29 121 29q66 0 107 -20q45 -23 71 -56q23 -27 37 -78q12 -43 12 -92q0 -102 -65 -196q-65 -92 -185 -166q-8 -6 -18 -11.5 t-18 -11.5q-16 -12 -33 -22q35 -68 78 -131l92 -127q55 -72 100 -123q70 -78 103 -111q37 59 49 101q16 55 16 96q0 45 -14.5 79.5t-36.5 63.5q-20 27 -51 43q-29 16 -58 17l-22 28q18 18 33 29q18 12 41 22h444l23 -36q-23 -27 -50 -52l-49 -37q-23 10 -41 17q-14 4 -47 12 q-16 4 -45 8t-39 4q6 -8 17 -34q8 -20 10 -33q6 -37 6 -39v-51q0 -70 -31 -150q-31 -82 -88 -153q76 -72 127 -113q41 -35 82 -43q47 -10 102 4l9 -43q-100 -43 -146 -57q-57 -18 -82 -19q-20 0 -77 41q-55 39 -127 109q-72 -59 -175 -107q-96 -43 -204 -43q-92 0 -170 25 q-76 25 -131.5 74t-85.5 118q-31 71 -31 166zM242 373q0 -68 24 -123q25 -57 64 -92q40 -37 92 -56q53 -18 106 -18q88 0 156 27q72 29 127 71q-49 51 -102 113q-70 82 -103 127q-86 117 -98 137q-35 55 -82 143q-49 -41 -86 -84t-57.5 -81.5t-30.5 -81.5q-10 -45 -10 -82z M444 1130q0 -66 17 -122q23 -76 47 -129q63 37 110 77q43 37 68 74t35 74q8 31 8 67q0 39 -8 66q-10 33 -27 55q-14 20 -45 37q-27 14 -61.5 14t-63.5 -18q-27 -16 -45 -49q-18 -31 -26 -68q-9 -35 -9 -78z" />
<glyph unicode="'" horiz-adv-x="512" d="M160 1425q4 2 33 15q8 2 22 8t21 8q8 4 19 8l24 9q14 4 30 8l43 -23l-43 -624q-2 0 -9 -3.5l-11 -5.5l-25 -6q-16 -4 -26 -4q-4 0 -12.5 -1t-12.5 -1z" />
<glyph unicode="(" horiz-adv-x="647" d="M121 623q0 168 33 317q37 166 92 283q61 129 145 225q86 98 187 151l32 -45q-70 -59 -123 -141q-61 -94 -102 -205q-43 -119 -68 -256q-27 -154 -26 -301q0 -154 20.5 -284.5t63.5 -260.5q39 -117 98 -217q53 -88 137 -159l-32 -45q-111 51 -199 145q-82 88 -143 217 q-58 123 -86 270q-29 154 -29 306z" />
<glyph unicode=")" horiz-adv-x="647" d="M41 -270q66 57 123 143q59 90 100 203q47 127 70 258q27 154 26 301q0 152 -20.5 283t-63.5 260q-41 123 -98 219q-53 92 -137 157l31 45q113 -51 198 -143q82 -88 143.5 -217t88.5 -270q29 -154 28 -305q0 -168 -32 -318q-35 -158 -95 -283q-66 -139 -143 -227 q-84 -96 -188 -151z" />
<glyph unicode="*" horiz-adv-x="913" d="M70 993l325 140l-301 129q0 4 1 13t1 15v31q0 10 4 31q3 15 6 24l35 23l285 -211l-39 325q10 6 25 13q6 2 14 6t14 8q6 2 14.5 6t14.5 6q14 6 25 9l36 -21l-41 -352l261 196l49 -32q37 -25 45 -35l2 -41l-326 -141l301 -129q-4 -33 -4 -60q0 -37 -8 -55l-37 -23l-283 211 l39 -323q-4 -2 -11 -5t-13 -8q-2 -2 -11.5 -7t-15.5 -7l-28 -12q-8 -4 -25 -8l-39 18l41 352l-260 -196q-4 2 -10 7t-15 9q-14 8 -26 16q-6 4 -12.5 9.5t-12.5 9.5q-14 12 -18 16z" />
<glyph unicode="+" horiz-adv-x="839" d="M61 530l13 43l18 43h270v275q4 2 12.5 4t15.5 5t16 5q10 4 47 15l24 -23v-281h277l24 -22q-8 -29 -14 -45q-12 -33 -16 -41h-271v-272l-45 -19q-10 -4 -26.5 -8t-18.5 -4l-25 22v281h-276z" />
<glyph unicode="," horiz-adv-x="468" d="M88 139q6 8 39 27q18 10 63 31q34 15 68 24q31 8 51 8q47 -20 63.5 -63t16.5 -96q0 -43 -14 -88q-12 -37 -45 -101q-25 -47 -70 -98q-43 -49 -94 -88l-45 35q31 35 47 61q23 37 33 64q12 31 18 67.5t6 77.5q0 45 -28.5 69.5t-92.5 22.5z" />
<glyph unicode="-" horiz-adv-x="688" d="M61 479q2 4 5.5 20.5t7.5 26.5l18 43h512l25 -22q-12 -45 -15 -49q-16 -41 -16 -43h-512z" />
<glyph unicode="." horiz-adv-x="468" d="M131 72q0 39 10 63q12 33 30.5 53.5t45.5 34.5q25 12 53 13q51 0 74 -29q25 -31 25 -84q0 -29 -11 -64q-8 -31 -28 -53q-14 -18 -45 -33q-29 -14 -54 -14q-53 0 -77 31q-23 29 -23 82z" />
<glyph unicode="/" horiz-adv-x="960" d="M49 -309l701 1859q20 14 61 29l61 20l37 -20l-698 -1864q-14 -10 -27 -14q-4 -2 -15 -7t-17 -7l-37 -13q-10 -4 -16.5 -6l-12.5 -4z" />
<glyph unicode="0" horiz-adv-x="960" d="M76 602q0 131 30 244q31 115 86.5 201t135.5 137t172 51q98 0 167.5 -49t120.5 -137q47 -82 72 -201q25 -117 25 -246q0 -131 -31 -244q-31 -115 -86 -200q-59 -92 -133 -138q-84 -51 -174 -51q-92 0 -166 51q-70 49 -121 138q-49 86 -74 200q-24 113 -24 244zM240 645 q0 -141 20 -242q23 -106 55 -176q31 -66 82 -106q43 -35 103 -35q55 0 94 27q40 28 68 86q31 63 45 149q14 84 14 217q0 141 -21 242q-20 96 -59 172q-37 70 -82 106q-43 35 -98 35q-51 0 -92 -28q-45 -31 -70 -84q-28 -58 -43 -148q-16 -94 -16 -215z" />
<glyph unicode="1" horiz-adv-x="960" d="M139 1075q41 12 99 33q78 29 116 45q78 33 113 49q52 25 86 43l37 -35v-1067q0 -12 10 -22t39 -23q27 -12 78 -24q41 -10 123 -21v-53h-670v53q86 10 129 21q68 16 84 22q31 12 43 25q14 14 14 22v797q0 33 -4 61q-4 23 -14 37q-8 8 -23 11q-12 2 -49 2q-31 0 -78 -7 q-61 -8 -112 -20z" />
<glyph unicode="2" horiz-adv-x="960" d="M98 74l207 243l152 189q68 88 104 143q49 76 66 109q23 47 32 88q8 35 9 78q0 53 -11 86q-14 45 -34 71q-23 29 -64 47q-35 16 -92 17q-43 0 -76 -21q-41 -27 -59 -49q-16 -20 -37 -69q-14 -35 -14 -72q-27 -12 -31 -16q-8 -6 -29 -15q-2 -2 -12 -6t-16 -6q-4 -2 -41 -6 l-27 30q0 51 35 109q33 53 94 102.5t131 77.5q74 31 150 31q66 0 112 -16q55 -18 92 -52q39 -33 61.5 -88t22.5 -127q0 -43 -12 -90q-10 -43 -41 -98q-27 -51 -72 -115q-49 -70 -104 -139l-143 -172l-185 -217h418q14 0 31 8q14 8 24 21q12 16 16.5 26t12.5 35q12 41 18 88 l50 -12l-15 -287h-694z" />
<glyph unicode="3" horiz-adv-x="960" d="M68 119l34 67q63 -47 82 -57q39 -23 72 -35q35 -12 66 -18q35 -6 71 -6q55 0 111 20q49 18 86 55t55 88q20 57 21 115q0 74 -25 127q-27 55 -59 86q-35 31 -82 47q-43 14 -90 15h-21h-12q-2 0 -6 -1t-6.5 -1t-22.5 -5l-14 60q94 25 147 57.5t84 69.5t39 71q10 41 10 66 q0 29 -10 70q-8 33 -33 67q-20 29 -57 49q-33 18 -82 19q-43 0 -72 -15q-37 -18 -53 -36q-18 -20 -29 -56q-8 -29 -2 -65q-29 -16 -65 -27q-31 -9 -74 -12l-27 31q0 43 31 90q35 51 82 88q45 35 121 65q66 27 145 27q78 0 129 -25q57 -27 88 -63q37 -45 52 -88 q16 -53 16 -101q0 -41 -14 -75q-16 -39 -43 -72q-28 -34 -68 -61q-49 -35 -88 -52q55 -6 106.5 -34.5t86 -69.5t57.5 -98q20 -53 20 -115q0 -88 -26 -160q-29 -78 -80 -131q-49 -51 -131 -88q-74 -33 -182 -33q-27 0 -80 8q-41 6 -84 25q-47 20 -86 45q-37 23 -88 72z" />
<glyph unicode="4" horiz-adv-x="960" d="M55 383l496 791q39 16 76 36l61 35l37 -35v-749h123l26 -31q-25 -35 -38 -47q-4 -4 -18.5 -15.5l-22.5 -17.5h-70v-246q0 -8 6 -14q8 -8 23 -14q31 -12 43 -17l67 -16v-43h-489v43q102 18 106 20q45 10 64 19q25 10 30 16q10 10 11 17v235h-498zM213 461h373v579z" />
<glyph unicode="5" horiz-adv-x="960" d="M78 119l35 67q55 -39 96 -59q45 -23 82 -35q49 -16 67 -18q41 -4 60 -4q66 0 115 24.5t79 67.5q33 47 47 94q16 55 17 111q0 66 -17 125q-14 53 -49 94q-34 40 -86 61q-55 23 -121 23q-31 0 -49 -4q-2 0 -55 -17q-25 -8 -59 -24q-37 -18 -56 -35l-47 33l15 84 q8 47 16 100l16 108q12 74 17 109q6 52 12 98q2 18 4 47t2 35h436q23 0 52 4q22 3 36 6q20 4 33 9l29 -29q-4 -4 -11.5 -15.5t-13.5 -17.5q-20 -25 -30 -35l-9.5 -10t-10.5 -10t-9 -8t-13.5 -11.5t-13.5 -11.5h-387l-8 -74q-2 -14 -5 -46.5t-5 -47.5q-2 -16 -7.5 -47 l-7.5 -43q-2 -16 -6 -36.5t-4 -26.5q41 12 94 18q74 8 105 8q90 0 160 -30q72 -31 116 -82q49 -57 72 -117q25 -68 25 -141q0 -88 -27 -166q-29 -82 -76 -142q-45 -57 -125 -96q-74 -37 -168 -37q-90 0 -184 35q-90 33 -178 115z" />
<glyph unicode="6" horiz-adv-x="960" d="M111 473q0 145 38.5 270t124.5 234q84 104 213 176q133 72 301 96l19 -59q-119 -29 -209 -82q-92 -55 -158 -127q-70 -76 -106 -156q-39 -86 -55 -176q37 37 71 58q33 18 72 36q29 12 65 21q31 6 54 6q78 0 143 -25q61 -23 107 -71q49 -51 67 -113q23 -72 23 -149 q0 -41 -11 -99q-8 -43 -32 -100q-23 -53 -52 -92q-33 -45 -73 -78q-39 -31 -95 -53q-49 -20 -112 -21q-83 0 -154 37q-72 37 -127 103q-51 59 -84 159q-30 92 -30 205zM270 537q0 -121 19 -207q18 -84 55 -144q35 -55 88 -84q51 -27 113 -26q53 0 90 24q35 23 57 66 q23 41 31 88q8 43 8 94q0 90 -22 154q-20 59 -58 96q-39 39 -73 49q-41 12 -78 12q-49 0 -113 -28t-117 -94z" />
<glyph unicode="7" horiz-adv-x="960" d="M104 948q0 4 2.5 15.5t3.5 21.5t3 21q2 12 5 35.5t5 35.5l12 72q6 34 12 55h705l33 -37l-92 -219l-93 -217l-86 -207l-75 -190l-34 -89l-28 -75q-4 -10 -45 -127q-34 -25 -74 -43q-41 -18 -88 -31l-41 33q98 176 156 293l127 270l113 256l108 254h-454q-4 0 -14.5 -1 t-14.5 -1q-12 0 -29 -12q-14 -10 -33 -43q-16 -29 -38 -88z" />
<glyph unicode="8" horiz-adv-x="960" d="M94 285q0 55 18.5 104t53.5 96q35 49 82 86q45 37 108 72q-35 18 -80 45q-40 25 -67 55q-29 33 -47 74q-16 39 -17 98q0 72 27 127q29 61 76 103q45 39 114 65q63 25 140 25q78 0 133 -21q61 -23 100 -55.5t62 -83.5q20 -47 20 -106q0 -41 -16 -80q-18 -45 -41 -72 q-29 -35 -66 -65q-41 -35 -82 -64q66 -33 97 -53q53 -35 82 -70q34 -40 55 -92q20 -49 20 -121q0 -82 -32 -147q-37 -74 -91 -121q-63 -57 -131 -84q-76 -31 -161 -31q-82 0 -152 27q-63 25 -113 70q-43 39 -69 100q-23 51 -23 119zM254 315q0 -57 16 -98q16 -43 49 -78 q29 -31 78 -51q45 -18 103 -18q55 0 94 20q41 23 65.5 55.5t36.5 77.5q10 35 11 86q0 70 -23 113q-27 49 -61 82q-33 29 -88 57q-88 45 -101 49q-39 -27 -82 -69q-34 -34 -55 -68q-25 -39 -33 -74q-10 -45 -10 -84zM274 950q0 -41 23 -76q23 -37 57 -59q45 -29 82 -47 l96 -43q72 51 105 106q31 53 31 107q0 47 -17 90q-14 39 -43 64q-28 25 -67 36q-41 12 -90 13q-47 0 -78 -16.5t-54 -45.5q-20 -25 -32 -61q-13 -34 -13 -68z" />
<glyph unicode="9" horiz-adv-x="960" d="M100 795q0 49 13 102q10 47 39 102q23 43 63 93q39 45 82 73q55 37 96 52q53 18 113 18q68 0 135 -29q63 -27 117 -90q49 -59 82 -158q31 -95 30 -227q0 -150 -41 -282q-39 -127 -124 -232q-80 -98 -213 -168q-131 -68 -302 -92l-18 59q145 37 229 86q94 53 160 127 q70 76 101 158q34 89 43 191q-25 -29 -60 -56q-20 -16 -65 -41q-29 -16 -72 -26q-41 -10 -70 -11q-84 0 -143 27q-61 28 -105 74q-47 51 -67 110q-23 68 -23 140zM250 856q0 -90 22 -151q18 -51 58 -91q35 -35 73.5 -47t77.5 -12q70 0 127.5 39t100.5 100q-4 137 -25 209 q-25 86 -59.5 135t-77.5 72q-41 20 -82 20q-51 0 -90 -20q-41 -23 -67.5 -57.5t-43.5 -87.5q-14 -46 -14 -109z" />
<glyph unicode=":" horiz-adv-x="468" d="M131 72q0 39 10 63q12 33 30.5 53.5t45.5 34.5q25 12 53 13q51 0 74 -29q25 -31 25 -84q0 -29 -11 -64q-8 -31 -28 -53q-14 -18 -45 -33q-29 -14 -54 -14q-53 0 -77 31q-23 29 -23 82zM131 797q0 39 10 63q12 33 30.5 53.5t45.5 34.5q25 12 53 13q51 0 74 -29 q25 -31 25 -84q0 -29 -11 -64q-8 -31 -28 -53q-14 -18 -45 -33q-29 -14 -54 -14q-53 0 -77 31q-23 29 -23 82z" />
<glyph unicode=";" horiz-adv-x="468" d="M88 139q6 8 39 27q18 10 63 31q34 15 68 24q31 8 51 8q47 -20 63.5 -63t16.5 -96q0 -43 -14 -88q-12 -37 -45 -101q-25 -47 -70 -98q-43 -49 -94 -88l-45 35q31 35 47 61q23 37 33 64q12 31 18 67.5t6 77.5q0 45 -28.5 69.5t-92.5 22.5zM131 797q0 39 10 63 q12 33 30.5 53.5t45.5 34.5q25 12 53 13q51 0 74 -29q25 -31 25 -84q0 -29 -11 -64q-8 -31 -28 -53q-14 -18 -45 -33q-29 -14 -54 -14q-53 0 -77 31q-23 29 -23 82z" />
<glyph unicode="&#x3c;" horiz-adv-x="897" d="M61 530v2v5l5 8q0 4 2 8l2 12l4 8v7q0 4 4 8l2 8l6 16l4 13l2 4l721 270l25 -25q-2 -14 -7 -24q-4 -12 -8 -26.5t-8 -26.5q-2 -6 -6 -23l-555 -207l567 -209l17 -36l-19 -19q-6 -6 -18 -14l-21 -17q-2 -2 -26 -16l-668 250z" />
<glyph unicode="=" horiz-adv-x="897" d="M61 383q10 37 13 41l18 41h721l25 -25q-8 -29 -15 -43l-14 -43h-723zM61 680l13 43l18 43h721l25 -27q-6 -20 -15 -43q-8 -25 -14 -41h-723z" />
<glyph unicode="&#x3e;" horiz-adv-x="897" d="M61 281q2 10 7 22l8 29q2 6 5 14t3 12q2 4 5 11.5t3 9.5l551 207l-565 209l-17 39q12 10 24.5 18t20.5 16q14 10 39 31l670 -250l23 -24q-2 -6 -5.5 -22.5t-7.5 -27.5q-8 -27 -18 -51l-721 -268z" />
<glyph unicode="?" horiz-adv-x="886" d="M80 1137v16q0 66 35 129q34 61 92 104q63 47 135 70q77 25 160 25q63 0 131 -25q53 -20 94 -63q37 -41 59 -101q20 -55 21 -127q0 -74 -25 -135q-27 -66 -59 -112q-43 -61 -78 -99q-31 -33 -80 -98q-33 -43 -63 -109q-27 -55 -33 -127l-6 -96q-20 -18 -33 -24 q-8 -4 -43 -17l-25 21l-8 116q-4 61 17 113q18 49 53 111q35 63 70 108q27 35 71 105q35 55 56 100q20 47 20 98q0 125 -55.5 194.5t-161.5 69.5q-31 0 -68 -16q-29 -12 -57.5 -45t-40.5 -61q-14 -35 -14 -76q0 -8 4 -29q4 -16 8 -29q-18 -10 -68 -24q-27 -8 -79 -14l-27 30 q-2 7 -2 17zM301 72q0 39 10 63q12 33 30.5 53.5t45.5 34.5q25 12 53 13q51 0 74 -29q25 -31 25 -84q0 -29 -11 -64q-8 -31 -28 -53q-16 -18 -45 -32.5t-54 -14.5q-53 0 -77 31q-23 29 -23 82z" />
<glyph unicode="@" horiz-adv-x="1652" d="M70 465q0 114 30 221q33 111 86 205q55 94 136 178q80 82 172 139.5t204 91.5q104 33 226 33q141 0 270 -51q121 -47 209 -149q88 -100 133 -246q47 -152 47 -338q0 -78 -20 -164q-18 -76 -52 -139q-33 -61 -77 -117q-33 -41 -91 -86q-41 -33 -96 -53.5t-90 -20.5 q-23 0 -47 11q-14 6 -39 34q-18 20 -31 60q-16 47 -20 88q-31 -45 -72 -94q-33 -39 -61 -60q-27 -18 -61.5 -28.5t-71.5 -10.5q-51 0 -103 33q-55 37 -96 94q-39 55 -68 150q-27 86 -26 198q0 55 12 117q10 51 39 119q16 39 66 108q29 39 84 89q45 39 106 61.5t121 22.5 q18 0 43 -5q12 -2 37 -14q18 -10 39 -27q23 -18 47 -47q16 10 53 39q25 18 55 54l31 -31q-6 -20 -14 -62q-8 -35 -11 -65q-6 -74 -6 -80v-438q0 -90 31 -133t78 -43q20 0 57 32q31 29 64 86q25 45 49 127q20 70 20 158q0 168 -43 299t-119 219q-80 94 -182 137 q-104 45 -233 45q-101 0 -191 -24q-82 -23 -164 -74q-72 -45 -131 -110q-61 -68 -98 -140q-35 -68 -59 -164q-23 -90 -23 -176q0 -113 27 -225q25 -104 71 -193q49 -90 109 -153q66 -68 139 -113q82 -49 162 -71q86 -25 176 -25q84 0 164 18q86 20 150 43q66 25 122 58 q55 33 84 55l27 -55q-39 -39 -94 -80q-66 -47 -133 -78q-88 -39 -168 -57q-96 -23 -201 -23q-168 0 -315 60q-143 57 -248 168q-109 115 -164 264q-57 153 -57 348zM610 475q0 -88 20.5 -155.5t51.5 -116.5q29 -45 70 -76q35 -27 73 -27q18 0 37 6q20 6 39 23l47 47 q33 33 66 74v481q-29 59 -62 88q-35 31 -94 31q-57 0 -100 -23q-41 -23 -78 -71q-33 -43 -51 -117q-19 -70 -19 -164z" />
<glyph unicode="A" horiz-adv-x="1218" d="M0 0v43q70 12 109 25q40 12 49 43l372 1126q16 18 58 45q12 8 32.5 19.5t26.5 15.5l420 -1206q4 -12 14 -25q4 -6 25 -18q12 -8 37 -15q25 -8 55 -10v-43h-422v43q80 6 109 20q31 14 18 48l-115 333h-407l-111 -333q-8 -31 27 -45q31 -12 119 -23v-43h-416zM412 535h346 l-176 514z" />
<glyph unicode="B" horiz-adv-x="1124" d="M41 1231q35 10 90 20l109 18.5t116 14.5q57 6 113 6q100 0 180 -18q84 -18 139 -53q51 -33 86 -86q31 -49 31 -113q0 -111 -51 -186q-53 -78 -139 -111q66 -12 119 -45q59 -37 96 -82q45 -55 63 -109q23 -63 23 -131q0 -88 -33 -153q-35 -70 -94 -117q-61 -49 -146 -74 q-90 -27 -184 -26h-53q-10 0 -31.5 1t-34.5 1q-16 0 -34.5 1t-36.5 1q-27 0 -72 4q-92 4 -174 6h-74v43q66 14 107 31q39 14 39 30v1086q-12 -2 -37 -5t-37 -5q-49 -8 -72 -13zM354 104q0 -10 11 -16q14 -4 38 -8l46 -6q14 -2 45 -2q6 0 20 -1t23 -1q74 0 131 18 q55 18 98 51q41 33 63 80q23 49 23 103q0 47 -21 112q-16 55 -59 107q-37 45 -102 77q-61 31 -150 31q-35 0 -88 -4q-31 -2 -78 -10v-531zM354 725h35q111 0 184 23q63 18 109 57q35 31 53 80q14 41 15 86q0 49 -17 94q-15 43 -55 74q-41 31 -103 49q-63 18 -161 18h-29 q-4 0 -14.5 -1t-16.5 -1v-479z" />
<glyph unicode="C" horiz-adv-x="1097" d="M70 586q0 162 49 291q49 131 131 221q84 92 192 141q115 51 234 51q104 0 190 -28q78 -27 133 -72q4 -6 -4 -21q-6 -12 -24 -32q-31 -37 -33 -39q-10 -10 -16.5 -17.5t-12.5 -13.5l-35 6q-57 49 -120 78q-66 29 -162 29q-34 0 -74 -13q-47 -14 -82 -39q-45 -31 -80 -71 q-37 -43 -67 -105q-27 -55 -47 -143q-16 -74 -17 -186q0 -135 39 -234q41 -102 98 -166q59 -66 136 -100q72 -33 145 -33q55 0 141 37t197 129q4 -2 10 -8q2 -2 5 -7t5 -8q8 -8 11 -12q4 -8 6 -10q-68 -72 -123 -115q-59 -47 -113 -73q-59 -31 -106 -41q-52 -12 -105 -13 q-92 0 -182 43q-96 47 -162 121q-74 82 -114 193q-43 113 -43 260z" />
<glyph unicode="D" horiz-adv-x="1212" d="M41 1231q12 4 102 22q16 4 121 19q86 12 129 14q86 4 125 4q145 0 250 -41q117 -45 193 -121q78 -78 120 -192q41 -109 41 -260q0 -125 -24 -223q-23 -90 -70 -174q-43 -77 -98 -129q-57 -53 -119 -87q-57 -31 -129 -47q-70 -16 -123 -16h-510v43q66 14 107 31 q39 14 39 30v1084q-12 -2 -38 -5t-38 -5q-20 -2 -38 -5.5t-32 -5.5zM354 154q0 -18 11 -35q14 -16 55 -27q35 -8 117 -8q72 0 143 33q70 31 133 102q59 66 100 172q39 102 39 246q0 137 -32 237q-37 111 -97 181q-61 72 -157 112q-90 39 -213 39q-33 0 -99 -4v-1048z" />
<glyph unicode="E" horiz-adv-x="1015" d="M49 0v43q66 14 107 31q39 14 39 30v1051q0 12 -37 31q-25 12 -109 31v43h807l33 -25q-2 -16 -6 -57q-2 -20 -10.5 -61.5t-12.5 -59.5q-6 -31 -12 -47h-45q-4 55 -8 77q-6 27 -17 50q-10 20 -24 26q-16 6 -33 6h-367v-434h406l26 -28l-20 -29l-11 -16.5t-12 -16.5 q-8 -10 -26 -29q-14 -14 -23 -20q-16 16 -32 25q-31 16 -41 18q-16 4 -52 8q-41 4 -73 4h-142v-497q0 -10 8 -27q6 -10 29 -21q22 -9 62 -12q53 -4 106 -4h129q55 0 78 4q37 6 57 23q25 18 47 53q16 27 41 92l43 -18q-10 -96 -20 -150q-14 -76 -21 -94h-864z" />
<glyph unicode="F" horiz-adv-x="978" d="M49 0v43q66 14 107 31q39 14 39 30v1051q0 12 -37 31q-25 12 -109 31v43h817l31 -25q0 -16 -4 -57q-2 -20 -10.5 -61.5t-12.5 -59.5q-6 -31 -12 -47h-47q-4 55 -8 77q-6 35 -15 50q-10 20 -26.5 26t-32.5 6h-375v-434h375l29 -28q-8 -12 -21 -29q-4 -6 -12 -16.5 t-12 -16.5q-8 -10 -27 -29q-4 -4 -12 -11t-10 -9q-18 18 -31 25q-31 16 -41 18q-16 4 -53 8q-41 4 -72 4h-113v-547q0 -12 39 -26q47 -18 137 -35v-43h-481z" />
<glyph unicode="G" horiz-adv-x="1193" d="M70 582q0 162 53 297q53 133 143 223t213 139t258 49q18 0 72 -8q43 -6 82 -18q27 -8 80 -33q43 -20 71 -43q6 -6 -2 -19q-2 -2 -26 -32q-10 -12 -35 -37q-10 -8 -18.5 -15.5t-14.5 -13.5l-33 6q-31 27 -67 51q-25 16 -74 31q-45 14 -82 17q-57 4 -92 4q-33 0 -63 -11 q-23 -8 -78 -39q-45 -27 -82 -65q-47 -51 -76 -102q-31 -53 -53 -142q-20 -76 -21 -184q0 -137 37 -241.5t96 -170.5q63 -70 135 -102.5t152 -32.5q78 0 135 14q68 16 111 41v340q0 10 -10 21q-12 12 -33 20q-41 14 -64 21q-68 16 -100 20v43h461v-43q-53 -14 -80 -37 q-25 -23 -25 -45v-331q-59 -51 -133 -97q-59 -37 -106 -55q-57 -20 -94 -27q-43 -6 -89 -6q-94 0 -198 39q-102 39 -176 113t-125 192q-49 113 -49 269z" />
<glyph unicode="H" horiz-adv-x="1337" d="M49 0v43q66 14 107 31q39 14 39 30v1051q0 12 -37 31q-25 12 -109 31v43h451v-43q-78 -18 -107 -31q-39 -18 -39 -31v-450h611v450q0 12 -37 31q-25 12 -109 31v43h451v-43q-78 -18 -107 -31q-39 -18 -39 -31v-1051q0 -12 37 -30q25 -12 109 -31v-43h-451v43 q66 14 107 31q39 14 39 30v510h-611v-510q0 -12 37 -30q29 -14 109 -31v-43h-451z" />
<glyph unicode="I" horiz-adv-x="608" d="M70 0v43q66 14 106 31q39 14 39 30v1051q0 12 -37 31q-25 12 -108 31v43h450v-43q-78 -18 -106 -31q-39 -18 -39 -31v-1051q0 -12 37 -30q25 -12 108 -31v-43h-450z" />
<glyph unicode="J" horiz-adv-x="624" d="M-190 -299q0 4 14 23q8 10 31 28q29 25 36 29l35 18q6 -4 49 -28q23 -12 39 -19q10 -2 35 -8h35q29 0 55 16q29 18 54 60q27 45 40 121q16 82 17 192v1022q0 6 -8 12q-16 12 -29 17q-8 4 -59 16q-16 4 -99 17v43h500v-43q-78 -18 -106 -31q-39 -18 -39 -31v-950 q0 -113 -17 -199q-14 -76 -42.5 -133t-63.5 -92q-49 -49 -76 -70q-29 -23 -59 -39q-27 -14 -66 -28q-35 -12 -63 -19q-31 -6 -48 -6q-27 0 -61 10q-25 8 -51 23q-20 12 -39 26q-14 13 -14 23z" />
<glyph unicode="K" horiz-adv-x="1183" d="M49 0v43q66 14 107 31q39 14 39 30v1051q0 12 -37 31q-25 12 -109 31v43h451v-43q-78 -18 -107 -31q-39 -18 -39 -31v-510l410 483q25 31 29 43q6 14 -5 25q-12 12 -34 14q-27 4 -64 7v43h420v-43l-31.5 -5.5t-25.5 -3.5q-16 -2 -45 -10q-18 -6 -37 -16q-16 -10 -31 -27 l-438 -483l483 -545q14 -16 39 -30.5t43 -16.5q33 -4 49 -4q18 0 51 4l7 -43l-119 -35q-61 -16 -107 -16q-27 0 -51 10q-23 10 -43 33l-500 610v-535q0 -12 37 -30q29 -14 109 -31v-43h-451z" />
<glyph unicode="L" horiz-adv-x="974" d="M49 0v43q66 14 107 31q39 14 39 30v1051q0 12 -37 31q-25 12 -109 31v43h451v-43q-78 -18 -107 -31q-39 -18 -39 -31v-991q0 -20 8 -31q12 -16 31 -24.5t58 -14.5q25 -4 90 -4h143q57 0 78 4q35 6 55 23q25 18 43 53q23 39 41 92l43 -18q-10 -100 -20 -152 q-14 -72 -21 -92h-854z" />
<glyph unicode="M" horiz-adv-x="1650" d="M59 0v43q76 18 109 31q37 15 37 30l10 1074q-37 23 -76 30q-35 8 -69 9v43h286q12 0 17 -3q8 -4 14 -12q10 -14 14 -26q4 -8 8.5 -18.5l10.5 -24.5l397 -902l383 902q12 31 21 47q6 12 14 24q2 4 14 10q4 2 15 3h286v-43q-33 0 -65 -9q-39 -10 -70 -26l10 -1078 q0 -12 37 -30q25 -12 109 -31v-43h-457v43q74 16 113 31q43 15 43 30l-8 936l-439 -1040h-49l-444 1032l-11 -928q0 -12 37 -30q25 -12 109 -31v-43h-406z" />
<glyph unicode="N" horiz-adv-x="1327" d="M49 0v43q72 8 111 29q35 18 35 32v1045q-37 33 -70 47t-76 21v43h213q18 0 25 -3q12 -4 18 -10q14 -14 23 -24l8 -11.5t9 -11.5t13 -18l658 -906v879q0 12 -33 31q-35 18 -113 31v43h410v-43q-70 -8 -109 -29q-37 -18 -36 -33v-1186q-53 6 -78 21q-33 18 -41 30l-701 973 v-889q0 -12 33 -30.5t113 -30.5v-43h-412z" />
<glyph unicode="O" horiz-adv-x="1228" d="M70 612q0 129 45 258t118 217q77 92 179 148q100 55 221 55q125 0 219 -55q92 -53 158 -143q61 -84 96 -207q33 -113 33 -238q0 -137 -45 -258q-47 -127 -123 -217t-180 -147q-101 -55 -216 -56q-119 0 -215 54q-90 49 -157 143q-66 90 -99 205q-34 120 -34 241zM225 641 q0 -113 31 -213q29 -96 82 -174t120.5 -121t145.5 -43t152 35q72 35 121 102q51 70 77 168q29 104 29 234q0 70 -12 137q-10 57 -35 127q-18 53 -57 113q-33 51 -76 88q-45 39 -92 59q-51 23 -107 23q-86 0 -160 -39q-70 -37 -118 -107q-49 -72 -74 -168q-27 -106 -27 -221z " />
<glyph unicode="P" horiz-adv-x="1069" d="M41 1231l55 12t49 10q41 8 117 21q61 8 125 12q82 4 123 4q104 0 195 -22q86 -20 149 -70q59 -45 94 -111q33 -63 33 -151q0 -68 -18 -125q-20 -61 -52 -102q-37 -47 -75.5 -78t-87.5 -53q-55 -27 -91 -33q-51 -10 -84 -10q-94 0 -161 30l-23 74q37 -16 80 -23 q40 -6 74 -6q47 0 96 19q53 20 92 53q43 37 69.5 88t26.5 125q0 83 -30 141q-33 63 -80 97q-53 37 -119 55q-68 18 -145 18h-50q-8 0 -24.5 -1t-24.5 -1v-1100q0 -8 8 -14l29 -14q8 -4 53 -17q12 -4 86 -16v-43h-481v43q66 14 107 31q39 14 39 30v1086q-12 -2 -37 -5t-37 -5 q-49 -8 -72 -13z" />
<glyph unicode="Q" horiz-adv-x="1228" d="M70 612q0 129 45 258t118 217q77 92 179 148q100 55 221 55q125 0 219 -55q92 -53 158 -143q61 -84 96 -207q33 -113 33 -238q0 -102 -29 -205q-27 -96 -78 -182q-47 -78 -119 -147q-66 -63 -147 -101q37 -18 90 -55q41 -27 90 -55q39 -23 84 -43q39 -18 78 -19q8 0 25 4 q12 3 30 13q14 8 39 24q23 14 53 37l27 -35q-27 -47 -49 -78q-27 -37 -49 -59q-31 -31 -45 -39q-22 -12 -37 -12q-61 0 -123 31q-53 27 -121 73q-31 20 -119 92q-70 55 -118 82q-29 -4 -46 -4q-113 0 -202.5 51.5t-159.5 139.5q-72 90 -107 202q-36 117 -36 250zM225 641 q0 -113 31 -213q29 -96 82 -174t120.5 -121t145.5 -43t152 35q72 35 121 102q51 70 77 168q29 104 29 234q0 70 -12 137q-10 57 -35 127q-18 53 -57 113q-33 51 -76 88q-45 39 -92 59q-51 23 -107 23q-86 0 -160 -39q-70 -37 -118 -107q-49 -72 -74 -168q-27 -106 -27 -221z " />
<glyph unicode="R" horiz-adv-x="1148" d="M41 1231q61 16 94 22l101 19q8 2 110 12q58 6 123 6q113 0 203 -22q72 -18 141 -66q57 -39 86 -96t29 -119q0 -76 -21 -131q-18 -51 -59 -102q-39 -49 -88 -78q-57 -35 -115 -51l303 -486q18 -25 33 -35q25 -16 39 -20q20 -6 47 -6q39 0 61 2l11 -43q-57 -18 -125 -37 q-55 -14 -99 -14q-29 0 -57 16q-23 12 -41 39l-303 561q-8 -2 -27 -2h-26q-35 0 -51 2q-43 6 -56 8v-506q0 -12 37 -30q29 -14 109 -31v-43h-451v43q66 14 107 31q39 14 39 30v1086q-14 -2 -24.5 -3t-22 -4t-25.5 -5q-12 -2 -37 -5.5t-37 -5.5zM354 690q27 -6 47 -6h43 q158 0 242 70q86 71 86 202q0 49 -20 101q-18 49 -60 80q-41 33 -106 51t-154 18q-25 0 -78 -4v-512z" />
<glyph unicode="S" horiz-adv-x="974" d="M117 172q0 27 4 84q4 47 10 68l41 -5q20 -55 57 -102t76 -72q45 -29 92 -41q57 -14 99 -14q45 0 90 19q39 16 82 51q39 33 59 73q23 45 23 91q0 63 -27 104q-33 51 -70 80q-33 25 -100 59l-38.5 19.5t-34 16.5l-42.5 20q-78 37 -114 57q-57 33 -99 70q-45 41 -71.5 92 t-26.5 125q0 35 8 67.5t31 71.5q23 37 51 70q31 33 76 59.5t102 40.5q55 14 131 14q29 0 90 -8q46 -6 86 -18q45 -14 70 -29q41 -25 51 -37q6 -6 0 -24q0 -2 -20 -37q-2 -4 -29 -41q-4 -6 -29 -31l-36 6q-29 35 -58 55q-25 18 -63 37q-27 14 -62 21q-31 6 -59 6 q-61 0 -96 -16q-39 -18 -64 -44q-27 -27 -39 -57.5t-12 -58.5q0 -45 29 -84q25 -35 69 -66q33 -25 101 -57q31 -14 61.5 -29.5l54.5 -27.5q78 -41 115 -64q57 -35 100 -78t72 -100q27 -53 27 -131q0 -46 -12.5 -92t-36.5 -92q-27 -51 -60 -87q-35 -37 -86 -69 q-47 -29 -112 -49q-61 -18 -138 -19q-18 0 -71 8q-40 6 -80 19q-47 14 -82 31q-41 18 -76 41q-6 4 -10 34q-4 41 -4 70z" />
<glyph unicode="T" horiz-adv-x="1126" d="M10 1014q2 10 5 55t8 72q10 76 20 119h1010l30 -25q-4 -70 -10 -111q-12 -82 -20 -125h-45q-4 23 -8.5 43.5t-8.5 36.5q-2 14 -18 51q-8 20 -23 31q-10 8 -35 8h-284v-1054q0 -12 37 -33q35 -20 127 -39v-43h-488v43q49 10 78 18q20 6 49 21q20 10 28.5 18.5t8.5 14.5 v1054h-299q-18 0 -27 -4q-14 -8 -26 -24q-14 -20 -29 -54t-37 -92z" />
<glyph unicode="U" horiz-adv-x="1337" d="M49 1217v43h451v-43q-78 -18 -107 -31q-39 -18 -39 -31v-661q0 -92 23 -172q20 -72 67 -129q41 -51 111 -80q61 -27 150 -27q74 0 126 33q51 31 93 92q39 59 57 127q18 72 18 145v672q0 12 -36 31q-25 12 -109 31v43h422v-43q-78 -18 -107 -31q-39 -18 -39 -31v-631 q0 -123 -32 -233q-31 -102 -92 -174q-63 -74 -146 -109q-90 -39 -194 -39q-98 0 -189 29q-86 27 -149 88q-66 63 -99 147q-35 92 -34 211v711q0 12 -37 31q-25 13 -109 31z" />
<glyph unicode="V" horiz-adv-x="1329" d="M20 1217v43h435v-43q-80 -6 -109 -21q-31 -15 -18 -43l352 -950l336 948q14 31 -25 43q-43 14 -117 23v43h416v-43q-66 -12 -106 -25q-39 -12 -49 -41l-383 -1092q-10 -27 -27 -39q-14 -12 -43 -24q-25 -10 -45 -16q-6 -2 -18.5 -5.5t-16.5 -5.5l-440 1182q-10 27 -45 43 q-29 13 -97 23z" />
<glyph unicode="W" horiz-adv-x="1740" d="M20 1217v43h429v-43q-47 -6 -76 -13q-25 -6 -43 -16q-12 -8 -16.5 -18.5t-0.5 -22.5l199 -897l324 1010h55l354 -1010l187 905q2 12 -9 21q-14 12 -32 16q-22 6 -50 12q-18 4 -63 13v43h424v-43q-70 -14 -74 -17q-10 -4 -24.5 -9l-20.5 -7q-14 -4 -24 -15q-8 -8 -9 -14 l-229 -1096q-6 -23 -21 -36q-18 -18 -38 -27q-29 -12 -43 -16q-33 -10 -37 -11l-326 975l-287 -885q-6 -22 -24 -36q-20 -16 -39 -25q-41 -16 -45 -18l-43 -11l-260 1178q-6 27 -35 41q-33 17 -103 29z" />
<glyph unicode="X" horiz-adv-x="1259" d="M31 0v43q72 6 110 23q47 18 72 61l317 516l-333 490q-20 29 -29 36q-14 14 -31 23q-12 6 -41 14q-2 0 -55 11v43h451v-43q-86 -9 -111 -25q-12 -7 -12 -21q0 -16 16 -38l248 -363l225 363q16 23 12 38q-2 14 -18 23q-14 8 -49 14q-25 4 -76 9v43h453v-43q-43 -4 -64 -9 q-27 -6 -51 -16q-29 -12 -39 -23q-18 -18 -29 -36l-290 -471l364 -535q10 -14 31 -35q16 -16 33 -24q10 -4 43 -15q27 -8 51 -10v-43h-451v43q37 2 72 10q25 6 39 17q10 8 10 22q0 12 -16 35l-279 408l-252 -408q-13 -21 -13 -35q0 -17 17 -26q29 -16 125 -23v-43h-450z" />
<glyph unicode="Y" horiz-adv-x="1216" d="M0 1249q35 6 119 15q57 6 100 6q47 0 78 -39q43 -57 80 -113q39 -57 86 -139q57 -98 84 -150l76 -149l268 471q16 25 -10 41q-25 16 -101 25v43h396v-43q-53 -10 -105 -27q-35 -12 -51 -39l-336 -610v-426q0 -6 8 -14.5t29 -18.5q25 -12 51 -21q29 -8 78 -18v-43h-490v43 q82 16 127 39q37 18 37 33v422q-33 72 -84 170q-31 59 -96 170l-94 155l-28.5 42l-30 44.5t-23.5 32.5q-8 12 -21 20q-20 16 -28 19q-33 10 -45 12q-37 4 -70 4z" />
<glyph unicode="Z" horiz-adv-x="1069" d="M59 45l711 1114h-459q-20 0 -35 -10q-23 -14 -36 -35q-20 -29 -35 -61q-12 -31 -27 -90l-57 12l29 301q41 -8 49 -10q29 -4 45 -4q6 0 22.5 -1t22.5 -1h667l25 -43l-705 -1117h523q23 0 39 9q14 8 32 32q14 18 31 64q18 49 35 102l55 -14q-4 -41 -4 -72v-38.5t-2 -39.5 l-4 -77q0 -12 -1 -35t-1 -31h-891z" />
<glyph unicode="[" horiz-adv-x="630" d="M139 -336v1935h416l33 -24q0 -2 -4 -21.5t-9 -29.5l-5 -15.5t-5 -14.5t-4 -9h-280v-1704h274l35 -31l-12 -43q-16 -41 -17 -43h-422z" />
<glyph unicode="\" horiz-adv-x="960" d="M55 1579l37 20q57 -14 113 -49l700 -1859l-35 -27q-8 2 -28 10q-8 2 -15.5 6.5t-15.5 6.5l-14.5 7t-16.5 7q-8 4 -24 14z" />
<glyph unicode="]" horiz-adv-x="630" d="M41 1511q4 23 12 48l15 40h421v-1935h-413l-33 31q2 14 10 47q4 20 15 39h282v1704h-274z" />
<glyph unicode="^" horiz-adv-x="1007" d="M100 592l322 870q16 16 29 25l36 24q31 20 35 23l33 16l352 -915q-33 -29 -49 -39q-27 -16 -57 -31l-37 27l-283 723l-250 -680q-2 -2 -10 -9.5t-14 -11.5t-16.5 -10t-14.5 -10q-25 -14 -29 -16q-14 -8 -24 -13z" />
<glyph unicode="_" horiz-adv-x="960" d="M61 -219q0 2 4.5 18.5t8.5 26.5l18 43h782l23 -25q-2 -4 -5 -20.5t-7 -26.5q-16 -41 -17 -43h-782z" />
<glyph unicode="`" horiz-adv-x="651" d="M31 1423l20 41q6 2 31 6l41 9l43 6q29 4 33 4l239 -412q-4 -4 -24 -16q-16 -8 -31 -14z" />
<glyph unicode="a" horiz-adv-x="937" d="M80 186q0 76 26 127q29 51 64 88q20 20 55 45q23 16 80 41q43 18 127 39q51 12 191 35v141q0 37 -9 64q-10 31 -26 51q-18 20 -51 33q-29 10 -82 10q-29 0 -64 -10q-31 -8 -53 -29q-27 -23 -37 -43q-10 -23 -8 -53q0 -8 -21 -20q-27 -14 -51 -23q-12 -4 -33.5 -8 t-25.5 -4q-25 -6 -39 -2l-14 39q20 47 69 96q47 47 107 80q61 34 129 55q72 23 131 23q111 0 168 -58q59 -59 59 -162v-563q0 -41 12.5 -59.5t28.5 -18.5q23 0 37 4q33 10 61 23l15 -45q-92 -61 -140 -86q-53 -27 -84 -27q-33 0 -55 47q-20 45 -24 127q-45 -45 -91 -77 q-49 -35 -88 -56q-43 -23 -82 -30q-45 -10 -69 -11q-37 0 -74 12.5t-69 38.5q-25 20 -50 66q-20 39 -20 100zM244 229q0 -41 12 -65q12 -27 29 -39q18 -14 34 -21q12 -4 33 -4q59 0 127 31q63 29 144 96v258q-104 -18 -138 -26q-43 -10 -90 -27q-31 -10 -55 -29 q-33 -23 -39 -30q-27 -31 -41 -62q-16 -37 -16 -82z" />
<glyph unicode="b" horiz-adv-x="1038" d="M10 1430v40q25 6 67 17.5t58 15.5q55 14 119 47l8 -10q2 -2 6 -5t6 -5q8 -8 17 -14v-789q49 61 98 104q51 45 96 72q49 31 84 43q37 14 68 15q63 0 125 -33q57 -31 100 -92q37 -51 64 -148q25 -86 24 -196q0 -61 -14 -119q-12 -49 -45 -119q-27 -55 -72 -111 q-41 -49 -94 -90q-51 -39 -118.5 -61.5t-137.5 -22.5q-16 0 -53 11q-53 14 -76 22q-31 10 -94 41q-70 33 -107 53v1200q0 53 -4 70q-8 31 -18 39q-16 14 -41 16q-4 0 -16.5 2t-25 3.5t-24.5 3.5zM291 203q35 -27 80 -49q37 -18 80 -33q20 -6 67 -17q20 -4 49 -4q61 0 107 27 q49 29 78 70q33 45 47 98q16 59 16 113q0 104 -20 178q-23 80 -56 131q-34 52 -80 80q-47 29 -92 28q-12 0 -47 -10q-29 -8 -67 -35q-31 -20 -78 -67q-41 -41 -84 -103v-407z" />
<glyph unicode="c" horiz-adv-x="894" d="M80 444q0 109 39 201q37 90 108 164q66 70 162 111q94 41 201 41q34 0 67 -7q29 -4 66 -16q33 -10 59 -25q23 -12 43 -32q2 -10 -4 -33q-2 -4 -5 -20.5t-7 -26.5q-12 -33 -21 -47q-4 -6 -10 -18.5t-10 -18.5l-37 10q-10 18 -26 39q-23 25 -46 41q-27 16 -69 31 q-41 12 -90 12q-55 0 -101 -23q-47 -25 -86 -71q-41 -53 -61 -117q-23 -74 -23 -164q0 -80 27 -156q23 -66 68 -116q41 -47 98 -76q53 -27 115 -27q37 0 53 2q20 2 51 17q23 10 66 39q45 31 94 73l39 -41q-66 -78 -115 -120q-55 -47 -90 -66q-47 -23 -82 -29q-41 -6 -88 -6 q-76 0 -143.5 33t-122.5 94q-51 55 -86 150q-33 85 -33 198z" />
<glyph unicode="d" horiz-adv-x="1064" d="M80 444q0 51 16 117q14 59 43 119q25 51 72 108q35 43 94 89q51 39 114.5 61.5t131.5 22.5q47 0 94 -12.5t100 -51.5v377q0 43 -4 88q-2 33 -16 49q-15 18 -43 25q-33 8 -82 10v39q83 12 148 31q94 27 116 34l31 -30v-1266q0 -12 1 -31.5t1 -27.5q0 -18 4 -43q0 -6 6 -27 q2 -10 11 -19q8 -10 34 -6q16 2 86 27l13 -43l-82 -53q-53 -31 -62 -35q-31 -14 -45 -19q-25 -8 -33 -8q-35 0 -55 45q-20 43 -26 156q-33 -41 -76 -84q-41 -41 -78 -63.5t-82 -38.5q-41 -14 -96 -15q-57 0 -115 33q-61 35 -108 94q-53 68 -82 150q-31 89 -31 198zM229 475 q0 -86 25 -156q20 -59 63 -116q35 -47 84 -76q45 -27 86 -27q37 0 68 15q39 18 63 35q20 14 64 53q12 12 29.5 26.5t33.5 30.5v469q-35 61 -94 90q-61 31 -130.5 31t-117.5 -23q-51 -25 -92 -71q-37 -43 -59.5 -117t-22.5 -164z" />
<glyph unicode="e" horiz-adv-x="944" d="M80 434q0 72 14 131q12 55 45 123q27 55 70 109q37 45 92 84q22 15 49 30q10 6 58 25q33 12 59 18q31 6 57 7q61 0 114.5 -18.5t90.5 -49.5q43 -35 64 -70q31 -51 43 -86q16 -51 22 -92q8 -61 8 -88q-12 -14 -49 -37q-31 -18 -61 -31h-527q0 -74 23 -147q25 -78 59 -125 q47 -61 92 -86q55 -31 123 -31q18 0 60 4q29 2 63 19q41 18 76 41q53 35 98 72q12 -6 23 -21q6 -8 14 -20q-68 -74 -117 -117t-96 -70q-43 -25 -88 -31q-57 -8 -94 -8q-78 0 -146 33q-72 35 -122 94q-59 70 -86 146q-31 86 -31 192zM236 580h428q23 0 30.5 8t7.5 28 q0 14 -8 68q-4 29 -30 78q-20 37 -62 65q-39 27 -106 27q-57 0 -95 -18q-47 -23 -77 -58q-34 -37 -56 -86q-24 -55 -32 -112z" />
<glyph unicode="f" horiz-adv-x="636" d="M45 862l78 68h78v31q0 125 14 198q14 76 45 137q29 57 64 93q49 49 75 69q18 14 60 39q16 10 63 29q29 12 60 18q29 6 47 6q31 0 63 -12q39 -14 62 -27q16 -10 45 -32q18 -15 18 -25t-14 -24q-20 -20 -35 -33q-10 -8 -41 -31q-25 -18 -37 -23q-25 22 -49 37 q-23 14 -47 25q-8 4 -41 14q-18 6 -33 6q-25 0 -55.5 -18t-54.5 -64q-25 -47 -43 -124q-16 -72 -17 -203v-86h258l29 -29q-6 -10 -23 -31q-4 -6 -13 -14t-13 -14l-27 -27q-10 -10 -22 -14q-14 8 -66 22q-43 12 -123 13v-734q0 -6 10 -12q8 -6 35 -12q8 -2 31 -7t35 -8 q14 -4 50 -11t48 -9v-43h-500v43q74 14 105 29q37 18 37 30v734h-135z" />
<glyph unicode="g" horiz-adv-x="997" d="M31 -229q0 31 8 55q8 23 39 61q23 29 82 70q74 51 137 86q-63 20 -90 51q-25 29 -25 60q0 12 4 20q10 20 21 33q16 18 45 45q37 33 74 57q-53 16 -93 41q-41 27 -71 64q-29 35 -45.5 84t-16.5 104q0 76 33 139q35 68 86 113q57 51 123 78q70 29 143 29q59 0 113 -19 q55 -20 94 -47q82 10 94 12q39 8 76 19q57 16 60 16q33 12 47 19l20 -31l-22 -51q-10 -23 -35 -50q-49 -8 -74 -10q-33 -2 -84 -6q25 -37 41 -82q14 -41 14 -90q0 -76 -34 -141q-31 -59 -90 -109q-57 -47 -127 -71.5t-144 -24.5h-4q-47 -39 -65 -66q-18 -29 -19 -32 q0 -10 10 -25q10 -12 39 -22q41 -14 78 -21q43 -8 129 -18q111 -12 180.5 -37t112.5 -56q45 -33 59 -67q16 -39 17 -72q0 -53 -23 -104q-23 -53 -55 -90q-35 -41 -86 -76q-53 -37 -105 -60q-55 -25 -116.5 -37t-118.5 -12q-47 0 -96 6q-57 8 -101 21q-59 18 -92 35 q-39 18 -76 53q-39 35 -53 68q-18 39 -18 88zM180 -190q0 -41 29 -80q27 -35 74 -64q51 -31 108 -45q66 -16 131.5 -16t120.5 18q53 18 94 49q39 29 62 76q20 41 20 94q0 27 -12 51.5t-47 43.5q-37 20 -92 34q-59 16 -150 25q-49 4 -69 8l-62 12q-72 -41 -113 -69 q-35 -25 -61 -56q-20 -23 -27 -45q-6 -21 -6 -36zM240 659q0 -51 16 -100t51 -84t84 -55.5t123 -20.5q31 0 61 13q27 10 56 39q31 31 43 61q16 39 16 88q0 55 -18 100q-20 49 -51 84q-29 33 -86 56q-49 20 -119 20q-25 0 -56 -12q-25 -10 -57 -39q-25 -20 -45 -64 q-18 -37 -18 -86z" />
<glyph unicode="h" horiz-adv-x="1128" d="M55 0v43q72 20 103 31q37 12 37 30v1194q0 49 -2 66q-3 25 -18.5 37t-43.5 18q-8 2 -76 11v40q74 16 76 17q8 2 29.5 7t34.5 9q35 10 57 21q37 16 55 26l37 -34v-832q37 55 96 115q43 43 107 88q45 31 102 53q55 20 90 20.5t82 -14.5q43 -12 72 -39q31 -29 49 -69 q18 -43 19 -97v-637q0 -16 30 -28q27 -10 109 -33v-43h-430v43q80 20 106 33q35 16 35 28v529q0 49 -8 98q-6 35 -25 62q-14 18 -39 28q-23 8 -57.5 8t-75.5 -18q-45 -20 -84 -51q-41 -33 -90 -88q-43 -49 -88 -123v-445q0 -14 39 -30q35 -14 102 -31v-43h-430z" />
<glyph unicode="i" horiz-adv-x="552" d="M70 0v43q68 15 104.5 30.5t36.5 30.5v566q0 61 -2 82q-2 29 -16 49q-10 16 -41 26q-12 4 -82 13v41q49 10 65 14l70 18q23 6 63.5 22.5t57.5 25.5h34v-857q0 -12 33 -30q25 -14 107 -31v-43h-430zM190 1221q0 31 9 53q9 25 24 43q16 20 37 29q25 10 45 10q84 0 84 -94 q0 -31 -8 -54q-9 -25 -24.5 -43t-37.5 -30q-18 -10 -45 -11q-47 0 -65.5 25t-18.5 72z" />
<glyph unicode="j" horiz-adv-x="528" d="M-219 -430q0 10 14 24q6 6 35 31l41 33q25 18 37 23q31 -27 65 -37q31 -8 72 -9q29 0 57 19q31 20 52 63q23 47 36 125q14 74 15 201v627q0 61 -2 82q-2 29 -17 49q-10 14 -41 24q-23 8 -79 15v41q29 4 73 16l62 18q35 10 57 21l59 25h37v-863q0 -121 -14 -194 q-16 -88 -38.5 -137.5t-61.5 -96.5q-31 -37 -74 -69q-37 -29 -57 -41q-31 -18 -62 -31l-55 -21q-37 -8 -45 -8q-20 0 -62 8q-27 6 -53 19q-23 12 -37 22q-14 13 -14 21zM184 1221q0 27 11 53q9 25 24 43q16 20 37 29q25 10 43 10q86 0 86 -94q0 -31 -8 -54q-9 -25 -24.5 -43 t-37.5 -30q-18 -10 -45 -11q-45 0 -65 25q-21 23 -21 72z" />
<glyph unicode="k" horiz-adv-x="1024" d="M55 0v43q72 20 103 31q37 12 37 30v1192q0 53 -5 70q-6 27 -22 39q-16 14 -43 16q-55 6 -70 9v40q90 20 135 33q57 16 117 47l37 -34v-986l309 269q33 27 39 47q6 18 -2 26q-9 9 -31 13q-14 2 -49 2v43h379v-43q-57 -8 -82 -17q-35 -12 -78 -45l-342 -272l377 -442 q25 -25 29 -27q20 -12 33 -16q18 -6 41 -7h51l6 -43l-57 -12q-16 -4 -54 -8q-25 -3 -43 -6q-12 -2 -30 -2q-43 0 -67.5 12t-47.5 41l-381 479v-418q0 -6 4 -14q4 -6 14 -12q4 -2 33 -15l60 -20v-43h-400z" />
<glyph unicode="l" horiz-adv-x="552" d="M59 0v43q20 2 72 14q12 2 47 15q18 6 25 16q8 12 8 16v1192q0 45 -6 70q-6 23 -23 37q-20 16 -43 18q-55 6 -69 9v40q111 25 133 31q55 16 121 49l36 -34v-1412q0 -16 33 -30q34 -15 117 -31v-43h-451z" />
<glyph unicode="m" horiz-adv-x="1644" d="M55 0v43q72 20 103 31q37 12 37 30v607q0 49 -2 63q-4 23 -19 35t-43 18q-29 6 -76 13v41q49 8 70 14q6 2 19.5 6l23.5 7t18 5q18 6 56 23l53 25l35 -35l12 -230q55 78 90 115q53 57 90 84q47 35 88 49q45 16 78 17q49 0 88 -13q41 -12 69.5 -38.5t47.5 -71.5 q16 -41 16 -113v-20q45 68 88 110.5t90 79.5q43 34 87 49q45 16 79 17q41 0 88 -15q41 -12 70 -39q29 -25 47 -69q16 -39 17 -97v-637q0 -16 30 -28q23 -8 111 -33v-43h-430v43q80 20 106 33q33 14 33 28v529q0 63 -6 102q-6 37 -21 64q-14 25 -34 32q-18 8 -51 8.5 t-70 -18.5q-31 -16 -76 -53q-37 -31 -80 -84t-78 -111v-469q0 -16 31 -28q23 -8 111 -33v-43h-430v43q80 20 106 33q33 14 33 28v529q0 63 -6 102q-6 43 -19 64q-14 25 -35 32q-18 8 -53 9q-72 0 -143 -70q-74 -71 -160 -197v-469q0 -14 39 -30q35 -14 102 -31v-43h-430z " />
<glyph unicode="n" horiz-adv-x="1128" d="M55 0v43q72 20 103 31q37 12 37 30v607q0 47 -2 61q-4 25 -16.5 37t-43.5 18.5t-78 12.5v41q82 14 125 30q61 23 115 50l35 -35l12 -250q39 61 96.5 118.5t106.5 90.5q55 37 104 55q55 20 90 20.5t82 -14.5q43 -12 72 -39q31 -29 49 -69q18 -43 19 -97v-637q0 -16 30 -28 q27 -10 109 -33v-43h-430v43q80 20 106 33q35 16 35 28v529q0 49 -8 98q-6 39 -23 62q-14 18 -39 28q-23 8 -59 8q-35 0 -70 -14q-43 -18 -80 -47q-47 -37 -92 -88t-96 -131v-445q0 -14 39 -30q35 -14 102 -31v-43h-430z" />
<glyph unicode="o" horiz-adv-x="1028" d="M80 444q0 59 16 129q14 61 47 123t70 105q45 51 92 84t109 55q55 20 121 21q92 0 170 -37q80 -39 131 -98.5t84 -151.5q31 -86 30 -189q0 -74 -16 -131q-20 -68 -47 -121q-29 -55 -74 -106t-92 -84q-53 -37 -107 -53q-66 -20 -118 -21q-95 0 -172 37q-80 39 -131.5 98.5 t-83.5 151.5q-29 79 -29 188zM236 473q0 -84 26 -151q27 -66 72 -125.5t92 -85.5q52 -31 98 -31q70 0 121 26q49 27 84 76q34 49 49 117q16 72 17 156q0 76 -27 151q-23 66 -66 125q-39 53 -94 86t-102 33q-74 0 -127 -29q-51 -27 -84 -80q-29 -45 -45 -118 q-14 -64 -14 -150z" />
<glyph unicode="p" horiz-adv-x="1083" d="M55 -436q68 16 103 30q37 16 37 31v1086q0 29 -5 61q-2 23 -18 39q-14 14 -41 20q-23 4 -76 9v41q45 8 66 14q41 12 59 18q45 14 58 21q47 20 57 27l35 -35l10 -199q45 55 100 104q51 45 97 72q49 31 84 43q37 14 69 15q63 0 125 -33q57 -31 100 -92q39 -57 66 -148 q25 -86 25 -196q0 -53 -17 -119q-12 -53 -41 -119q-25 -58 -61 -111q-37 -51 -78 -90t-90 -61.5t-96 -22.5q-61 0 -134 33q-74 33 -145 96v-473q0 -16 39 -33q29 -12 131 -28v-43h-459v43zM344 213q51 -39 84 -55q49 -27 72 -35q35 -12 63 -19q20 -4 58 -4q57 0 100 20.5 t78 61.5t53 102.5t18 141.5q0 92 -20 162q-23 78 -55 131q-35 57 -78 86q-45 31 -94 31q-20 0 -48 -13q-31 -14 -65 -37q-31 -20 -80 -69q-45 -45 -86 -107v-397z" />
<glyph unicode="q" horiz-adv-x="1054" d="M80 444q0 86 29 162q27 72 67 131q40 58 86 99q31 27 82 59q49 27 113 47q55 18 94 19q16 0 53 -5q18 -2 55 -14q33 -12 60 -27q29 -16 63 -49q10 6 31 23l31 24q20 16 28 25l23 23l31 -31q-12 -35 -17 -62q-8 -35 -10 -67q-4 -53 -4 -84v-1092q0 -18 31 -33 q23 -12 108 -28v-43h-459v43q102 16 132 28q39 16 38 33v541q-25 -31 -75 -82q-39 -39 -76 -61q-45 -29 -84 -39q-51 -14 -94 -15q-57 0 -115 33q-61 35 -108 94q-53 68 -82 150q-31 89 -31 198zM229 475q0 -86 25 -156q20 -59 63 -116q35 -47 84 -76q45 -27 86 -27 q37 0 68 15q39 18 63 35q20 14 64 53q12 12 29.5 26.5t33.5 30.5v469q-35 61 -94 90q-61 31 -131 31q-61 0 -108 -23q-51 -25 -92 -71.5t-66 -116.5t-25 -164z" />
<glyph unicode="r" horiz-adv-x="808" d="M55 0v43q78 18 103 29q37 14 37 32v582q0 41 -2 55q0 6 -1.5 18.5t-3.5 18.5l-5 15l-3 8q-2 4 -5 7t-3 5q-10 10 -16 12q-12 4 -21 6q-16 4 -33 5q-10 0 -47 4v41q51 12 127 34q70 20 113 46l35 -35l12 -228q18 37 59 103q27 43 68 84q31 31 76 55q39 20 82 21 q37 0 69 -9q43 -10 74 -28q8 -6 8 -35q0 -18 -8 -68q-6 -39 -18 -78q-12 -40 -25 -67h-43q-8 47 -16 67q-14 33 -27 45q-23 23 -31 25q-18 6 -37 6q-20 0 -51 -18q-33 -18 -61 -58q-33 -41 -62 -100q-31 -61 -55 -147v-392q0 -14 39 -30q37 -16 131 -31v-43h-459z" />
<glyph unicode="s" horiz-adv-x="790" d="M96 143q0 12 1 24.5t3 29t2 24.5q2 35 11 62l43 -11q4 -47 22 -79q23 -39 53 -64q33 -27 78 -43t97 -16q35 0 65 12q37 14 53 31q18 18 33 51q12 29 12 63q0 43 -20 72q-18 29 -57 55q-41 29 -80 49l-90 46q-35 18 -80 45q-37 23 -70 55.5t-49 64.5q-18 37 -19 86 q0 61 25 110.5t66 82.5q35 27 96 49q52 18 110 19q31 0 68 -7q25 -4 74 -16t69 -23q31 -16 52 -32q4 -6 2 -27q-2 -10 -15 -45q-12 -33 -20 -47q-4 -6 -9.5 -16.5l-7.5 -14.5l-39 8q-51 76 -100 101q-53 29 -100 28q-35 0 -60 -12q-33 -16 -43 -27q-20 -20 -28 -38 q-10 -25 -11 -43q0 -31 20.5 -57.5t49.5 -47.5q35 -25 70 -43l82 -43l88 -47q47 -27 78 -57q41 -41 57 -74q23 -45 22 -98q0 -74 -20 -121q-25 -57 -51 -86q-31 -33 -72 -56q-33 -18 -78 -32q-33 -10 -71 -15q-45 -4 -52 -4q-49 0 -116 19q-63 16 -134 55q-8 4 -10 33 q-1 9 -1 20q0 7 0.5 22.5t0.5 24.5z" />
<glyph unicode="t" horiz-adv-x="704" d="M20 862l78 68h72v246l119 104l30 -25v-325h328l29 -29q-6 -10 -23 -31q-8 -10 -26 -28q-6 -6 -15.5 -14.5t-13.5 -12.5q-10 -10 -23 -14q-16 8 -73 22q-49 12 -129 13h-54v-529q0 -61 6.5 -100t18.5 -63.5t33 -32.5q25 -10 51 -11q39 0 88 15q66 18 131 53l29 -51 q-49 -37 -96 -64q-41 -23 -93 -45q-49 -20 -79 -28q-41 -10 -64 -11q-33 0 -68 15q-33 12 -55 41q-20 27 -37 77q-14 45 -14 119v615h-129z" />
<glyph unicode="u" horiz-adv-x="1083" d="M41 854v41q45 4 68 8q41 8 61 15l59 18q12 4 34 13t30 12l26 -39v-588q0 -66 11 -117q8 -43 30 -76q16 -25 48 -39q27 -12 65 -12q29 0 66 10q39 10 69 29q35 20 74 53q45 39 84 80v449q0 16 -6 71q-3 28 -19 43q-14 14 -43 21q-20 4 -73 8v41q84 10 139 27q29 8 121 39 l30 -39v-668q0 -47 5 -100q3 -40 18 -50q10 -8 41 -4q20 2 80 27l10 -45q-37 -25 -72 -45q-8 -6 -61 -35q-4 -2 -51 -22q-25 -10 -35 -11q-35 0 -57 47q-20 43 -27 150q-53 -53 -115 -100q-47 -35 -94 -60q-45 -23 -80 -29q-49 -8 -69 -8q-39 0 -91 15q-41 12 -75 47 q-33 33 -52 94q-20 68 -20 154v432q0 57 -2 75q-2 25 -16 39q-12 12 -39 19q-6 2 -72 10z" />
<glyph unicode="v" horiz-adv-x="1009" d="M20 887v43h386v-43q-59 -8 -64 -10q-25 -6 -37 -13q-14 -6 -16 -18q-2 -10 4 -27l246 -641l231 641q4 10 4 25q0 12 -14 18q-10 6 -35 12q-20 6 -59 13v43h323v-43q-31 -6 -49 -13q-6 -2 -31 -14q-12 -6 -18 -16q-6 -9 -12 -25l-283 -760q-10 -27 -27 -39 q-23 -18 -37 -24q-37 -16 -38 -16q-25 -8 -33 -11l-330 850q-8 27 -35 43q-15 11 -76 25z" />
<glyph unicode="w" horiz-adv-x="1445" d="M20 887v43h386v-43q-47 -6 -76 -12.5t-39 -14.5q-12 -8 -12 -16q0 -12 2 -19l188 -635l246 740h69l260 -740l173 635q6 23 -21 37q-18 10 -96 25v43h325v-43q-31 -6 -49 -13q-14 -4 -28 -14q-12 -8 -15 -14q0 -2 -3 -9.5t-5 -11.5l-221 -766q-8 -27 -23 -39 q-20 -16 -39 -24q-33 -14 -41 -16q-6 -2 -18 -5.5t-16 -5.5l-238 678l-205 -588q-10 -25 -24 -39q-18 -18 -37 -26q-14 -6 -39 -14.5t-33 -10.5l-262 856q-11 42 -109 62z" />
<glyph unicode="x" horiz-adv-x="1028" d="M20 0v43q35 6 68 16.5t47 20.5q25 16 33 26l25 31l243 338l-235 322q-6 10 -27 34q-10 12 -31 27q-18 12 -45 19q-35 8 -67 10v43h420v-43q-37 -4 -54 -8q-25 -8 -35 -15q-8 -6 -8 -26q0 -14 19 -39l162 -221l153 221q16 23 21 41q2 14 -9 24q-6 6 -32 15q-16 4 -54 8v43 h381v-43q-86 -6 -125 -29q-49 -29 -71 -61l-209 -295l266 -365q16 -20 27 -31q14 -14 32 -26q23 -14 43 -23q33 -12 58 -14v-43h-402v43q33 4 48 6q23 4 35 12.5t12 26.5q0 16 -21 43l-199 268l-188 -268q-18 -27 -14 -43q4 -18 20 -27q18 -9 43 -12l49 -6v-43h-379z" />
<glyph unicode="y" horiz-adv-x="1009" d="M-47 -446q0 4 12 22q14 23 31 41q25 29 37 41q22 22 37 31q49 -27 96 -31q8 -1 15 -1q38 0 69 13q16 6 43 29q14 12 47 53q23 27 49 72q16 27 41 84l29 69l-328 842q-8 27 -35 43q-14 10 -76 25v43h386v-43q-59 -8 -64 -10q-25 -6 -37 -13q-14 -6 -16 -18q-2 -10 4 -27 l246 -637l231 637q6 14 2 24.5t-18 18.5q-12 6 -37 12.5t-62 12.5v43h334v-43q-31 -6 -49 -13q-6 -2 -31 -14q-12 -6 -18 -16q-6 -9 -12 -25l-334 -901q-45 -115 -94 -190q-53 -82 -107 -129q-55 -49 -110.5 -74t-106.5 -25q-49 0 -70 4q-41 8 -55 13q-20 6 -37 18 q-12 10 -12 19z" />
<glyph unicode="z" horiz-adv-x="903" d="M76 45l555 795h-346q-18 0 -32.5 -6.5t-31.5 -22.5q-18 -18 -28 -45q-18 -47 -25 -76l-49 12l18 244l39 -10q25 -4 39 -4q6 0 19.5 -1t21.5 -1h549l22 -43l-557 -797h422q25 0 45 39q27 49 45 129l47 -10q0 -10 -1 -32.5t-1 -35t-1 -36t-1 -33.5q0 -27 -4 -64 q0 -8 -1 -24.5t-3 -22.5h-715z" />
<glyph unicode="{" horiz-adv-x="686" d="M102 633q117 31 179 92q59 59 59 137q0 51 -2 70q-2 10 -5 27.5t-3 25.5q-2 12 -11 43q-8 29 -10 43q0 2 -3 21.5l-5 31.5q-2 20 -2 70q0 66 23 127q25 66 63 111q47 53 102 92q57 41 136 75l26 -47q-40 -25 -74 -55q-31 -29 -57 -67q-20 -31 -39 -82q-14 -41 -14 -97 q0 -57 6 -94q2 -14 7 -36.5t7 -33t7.5 -33t7.5 -36.5q6 -37 6 -94q0 -43 -12 -84q-10 -35 -35 -76q-18 -31 -58 -64q-37 -31 -75 -47q45 -8 84 -32q37 -25 57 -56q18 -29 28.5 -80t10.5 -100q0 -59 -6 -102q-2 -16 -7.5 -43t-7.5 -35q-2 -12 -7 -38t-7 -38q-6 -37 -6 -86 q0 -41 8 -98q6 -37 27 -76q16 -31 53 -63.5t86 -59.5l-23 -61q-80 33 -145 71q-53 33 -98 84q-37 41 -56 103q-18 58 -18 129q0 58 6 98q2 14 7 38.5t7.5 35t7.5 36t7 39.5q6 41 6 103q0 78 -41 123q-39 41 -115 41h-20h-12q-2 0 -5.5 -1t-5.5 -1t-22 -4z" />
<glyph unicode="|" horiz-adv-x="468" d="M180 -383v2005q18 12 51 29q4 2 54 18l34 -20v-2001q-18 -15 -49 -31l-55 -23z" />
<glyph unicode="}" horiz-adv-x="686" d="M39 -266q33 20 72 55q37 33 59 68q20 31 39 82q14 41 14 96q0 57 -6 94q-2 14 -7 36.5t-7 33.5q-8 45 -13 69q-6 37 -6 97q0 41 13 81q14 45 34 74q31 41 58 64q37 31 76 47q-47 8 -86 33q-31 20 -56 57q-22 34 -30 80q-8 41 -8.5 100.5t5.5 102.5q4 29 13 77q2 12 7 37 t7 37q6 37 6 86q0 43 -8 100q-6 39 -27 78q-18 33 -53 62q-41 33 -86 57l23 61q92 -37 145 -69q59 -37 98 -84q37 -45 56 -103q18 -55 18 -129q0 -58 -6 -98q-2 -14 -7 -38.5t-7 -35.5q-8 -49 -13 -75q-6 -41 -6 -103q0 -78 41 -123q39 -41 115 -41h18h13q2 0 6 1t6 1l22 5 l17 -56q-120 -31 -178 -92q-59 -63 -60 -137q0 -51 2 -70q2 -10 5 -28.5t3 -22.5q4 -29 9 -43q8 -31 10 -43q2 -16 6 -53t4 -70q0 -66 -22 -127q-20 -55 -66 -110q-43 -51 -100 -93q-66 -45 -135 -77z" />
<glyph unicode="~" horiz-adv-x="997" d="M49 502q27 61 53 102q41 63 72 96q41 43 84 70q47 29 94 29q45 0 94 -25q53 -27 97 -55q46 -31 92 -55.5t86 -24.5q49 0 90 39q45 41 86 121l53 -25q-20 -47 -53 -102q-31 -51 -72 -97q-41 -43 -84 -69q-47 -29 -94 -29q-45 0 -90 25q-39 20 -94 55q-43 27 -96 55 q-47 25 -91 25q-49 0 -90 -39q-39 -37 -84 -123z" />
<glyph unicode="&#xa1;" horiz-adv-x="555" d="M154 799q0 29 10 63q8 27 29 51q18 20 45 35q25 12 55 13q55 0 76 -29q23 -33 22 -84q0 -37 -10 -64q-12 -29 -31 -51q-23 -27 -43 -37q-25 -12 -53 -12q-53 0 -76 29q-24 31 -24 86zM172 -543l47 1073q27 20 35 23q2 2 10 5l15.5 6t15.5 5l27 -18l49 -1034 q-61 -39 -80 -47q-53 -27 -76 -35z" />
<glyph unicode="&#xa2;" horiz-adv-x="960" d="M104 586q0 92 27 166q27 76 78 139q53 66 116.5 106.5t149.5 63.5v153l21 13q4 2 10 8q2 2 5 2q3 2 5 2t5 1t7 2t11 3l26 -22v-146q4 0 12.5 1t12.5 1h24q34 0 68 -6q29 -4 66 -16q33 -10 59 -25q23 -12 43 -33q4 -14 -2 -32q-10 -37 -14 -47q-10 -27 -21 -46l-9 -18 t-11 -18l-35 10q-12 18 -25 35q-16 20 -39 37q-25 18 -55.5 30.5t-73.5 18.5v-707q35 0 51 2q27 4 52 15q20 10 65 38q18 12 92 74l39 -41q-47 -55 -92 -100q-39 -39 -76 -63.5t-67 -36.5q-33 -14 -64 -17v-141q-8 -8 -16 -12q-2 0 -7 -4.5t-7 -4.5q-8 -4 -15 -6 q-12 -4 -20 -6l-25 25v145q-68 2 -137 35q-68 31 -119 88q-53 59 -84 141t-31 193zM256 616q0 -76 16 -127q20 -61 47 -100q33 -47 70 -72q40 -28 86 -43v693q-41 -8 -84 -35q-39 -23 -69 -68q-27 -39 -48 -104q-18 -62 -18 -144z" />
<glyph unicode="&#xa3;" horiz-adv-x="960" d="M63 18l56 48q16 14 41 47q14 18 28 59q8 25 17 84q4 33 4 117q0 37 -8 164h-115l-23 24q4 14 11 33q4 12 12 33h109q-6 137 16 256q23 115 72 190q51 76 135 121q80 41 196 41q33 0 49.5 -2t53.5 -10q18 -4 63 -21q34 -12 80 -37q0 -14 -4 -63q-2 -20 -10 -76 q-4 -27 -12 -72q-8 -41 -13 -55h-47q-16 129 -74 180q-63 57 -159 58q-25 0 -54 -7q-31 -6 -51 -22q-25 -18 -43 -51q-20 -37 -28 -90q-12 -74 -13 -140q0 -84 13 -200h249l25 -23l-25 -67h-241q4 -78 -4 -131q-8 -61 -24.5 -119t-37.5 -103q-16 -35 -49 -84q10 0 39 3t41 3 h63q10 0 29 -1t27 -1t24.5 -1t26.5 -1q8 0 26.5 -1t28.5 -1h66q46 0 80 6q37 6 57 23q29 20 47 51q16 27 41 92l43 -18q-4 -53 -8 -82q-6 -40 -12 -74q-2 -8 -4.5 -20t-3.5 -20.5t-3 -16.5l-10 -41q-49 -27 -104 -29q-53 -2 -131 4q-63 6 -142 19q-47 8 -145 16 q-59 6 -135 -2q-59 -6 -113 -39z" />
<glyph unicode="&#xa4;" horiz-adv-x="960" d="M158 342l106 109q-23 31 -35 71q-12 39 -12 78q0 40 12 80q10 37 37 72l-106 108l2 33l28 16q6 4 33 15l107 -107q34 25 73 37t78 12q41 0 78 -12q43 -14 74 -37l104 107h35l31 -66l-107 -106q27 -35 37 -72q12 -40 12 -80q0 -39 -12 -78q-12 -40 -37 -73l107 -105l2 -35 l-68 -28l-104 104q-39 -25 -72 -35t-80 -10q-45 0 -78 10q-45 14 -73 35l-109 -106l-33 2q-4 6 -8 16t-8 14q-6 11 -14 31zM313 600q0 -31 12.5 -61.5t36.5 -55.5q23 -23 58 -37q31 -12 61 -12q33 0 63.5 12.5t55.5 37t37 55t12 63.5t-12 63.5t-37 55.5t-55.5 37t-63.5 12 q-31 0 -61 -12q-35 -14 -57.5 -37t-36.5 -57q-13 -31 -13 -64z" />
<glyph unicode="&#xa5;" horiz-adv-x="960" d="M-68 1194q35 6 119 14q59 6 101 6q47 0 77 -38q49 -66 72 -101q45 -70 66 -106q33 -55 65 -119l68 -133l213 379q16 27 -8.5 41t-102.5 24v43h395v-43q-53 -10 -104 -26q-35 -12 -51 -39l-283 -518v-52h272l25 -22l-25 -68h-272v-321q0 -4 10.5 -14.5t26.5 -18.5 q27 -12 51 -21q29 -8 78 -18v-43h-489v43q82 16 126 39q37 18 37 33v321h-272l-21 25q4 14 11 33q2 4 5 15t5 17h272v54q-51 111 -71 147q-31 63 -78 141q-16 27 -78 125q-37 57 -72 103q-12 14 -18 20q-14 10 -31 17q-33 10 -45 12q-55 6 -69 6z" />
<glyph unicode="&#xa6;" horiz-adv-x="468" d="M174 -383v872q14 10 57 29q37 16 58 23l37 -25v-870q-8 -8 -25 -15q-6 -2 -16.5 -8t-14.5 -8l-30 -12q-8 -4 -16.5 -5t-12.5 -4zM174 737v885q14 10 57 29q8 4 58 18l37 -20v-881q-10 -10 -25 -16q-6 -2 -16.5 -7.5l-14.5 -7.5l-30 -12q-8 -4 -16.5 -5t-12.5 -3z" />
<glyph unicode="&#xa7;" horiz-adv-x="960" d="M119 774q0 37 12 72q12 37 31 65q14 27 45 56q23 23 53 43q-35 43 -53 86q-20 51 -21 104q0 57 27 107q25 47 66 75q37 27 94 43q49 14 110 15q33 0 70 -6q25 -4 74 -21q43 -14 67 -27q37 -18 54 -32q4 -4 0 -29q-2 -20 -13 -45q-12 -33 -20 -47q-12 -22 -19 -31l-39 8 q-53 78 -98 107q-51 33 -100 33q-66 0 -105 -29q-37 -27 -37 -82q0 -37 15 -63q18 -33 41 -56q25 -25 69.5 -53.5t96.5 -56.5l123 -74q53 -33 94 -74q45 -45 63 -88q23 -51 23 -119q0 -41 -10.5 -82t-24.5 -69q-12 -25 -39 -55q-14 -16 -43 -41q29 -33 43 -64t14 -82 q0 -76 -18 -119q-20 -45 -53 -82q-29 -31 -72 -51q-37 -16 -76 -26q-37 -8 -71 -13q-23 -2 -54 -2q-23 0 -53 6q-25 4 -61 19q-45 16 -68 26q-45 20 -68 33q-6 2 -8 33q-2 20 -2 68q0 12 1 24t3 28.5t2 24.5q2 25 13 62l43 -10q4 -51 20 -82q18 -35 55 -68q29 -27 78 -47 q43 -18 96 -18q70 0 117 34.5t47 104.5q0 41 -22 69q-23 31 -56 52q-25 16 -81 45q-16 8 -50 26.5t-38 20.5q-90 51 -119 72q-59 41 -90 77q-35 41 -58 93q-20 46 -20 112zM250 821q0 -47 16.5 -79.5t52.5 -69.5q31 -31 89 -66q55 -35 131 -78l51 -26q18 -8 51 -29 q35 25 51 51q18 31 19 70q0 47 -19 84q-16 33 -55 72q-29 29 -96 71l-135 78l-46 25l-41 28q-20 -6 -30 -20q-8 -10 -20.5 -35t-14.5 -39q-4 -29 -4 -37z" />
<glyph unicode="&#xa8;" horiz-adv-x="800" d="M100 1221q0 31 9 53q9 25 24 43q16 20 37 29q25 10 45 10q84 0 84 -94q0 -31 -8 -54q-9 -25 -24.5 -43t-37.5 -30q-18 -10 -45 -11q-47 0 -65.5 25t-18.5 72zM500 1221q0 27 10 53q9 25 25 43q16 20 36 29q25 10 43 10q86 0 86 -94q0 -27 -10 -54q-9 -25 -24 -43 q-16 -20 -35 -30.5t-47 -10.5q-45 0 -64 25q-20 27 -20 72z" />
<glyph unicode="&#xa9;" horiz-adv-x="1458" d="M100 631q0 133 47 256q45 119 132 211q78 84 198 139q117 53 252 53q90 0 174 -24q86 -25 152 -66q78 -47 127 -102q57 -63 96 -135q41 -74 61 -156q20 -80 21 -176q0 -94 -20.5 -176t-61.5 -158q-35 -66 -96 -133q-53 -59 -127 -105q-66 -41 -152 -65q-84 -25 -174 -25 q-135 0 -252 53.5t-198 141.5q-86 92 -132 209q-47 123 -47 258zM186 631q0 -117 41 -223q43 -111 113 -185q74 -77 172 -123q96 -45 217 -45t219 45q96 43 172 123q70 74 113 185q41 106 41 223t-41 223q-41 109 -113 182q-76 80 -172 123q-98 45 -219 45t-217 -45 q-98 -46 -172 -123q-72 -74 -113 -182q-41 -106 -41 -223zM358 602q0 102 33 182t92 140q57 57 135 88q82 33 162 32q76 0 131 -18q53 -18 95 -45q4 -4 -2 -16q-4 -8 -17 -29l-24 -31q-14 -18 -21 -22l-24 4q-39 31 -80 51q-47 25 -107 25q-29 0 -74 -16.5t-79 -53.5 q-41 -43 -64 -105q-25 -63 -25 -161q0 -82 29 -140q31 -59 74 -100q39 -37 96 -61q47 -20 92 -21q14 0 43 4q10 2 45 15q29 10 56 26q25 14 67 47q8 -2 15 -14q6 -10 12 -14q-51 -47 -86 -72q-43 -29 -78 -47q-37 -18 -74 -25q-49 -8 -73 -8q-59 0 -127 27q-57 23 -111 75 q-49 49 -80 121t-31 162z" />
<glyph unicode="&#xaa;" horiz-adv-x="522" d="M49 825q0 61 47 109q47 49 150 76l92 24v17q0 23 -4 55q-2 23 -12 39q-10 18 -25 24q-16 8 -45 9q-15 0 -31 -7q-14 -6 -28 -20q-10 -10 -16.5 -28.5t1.5 -39.5q0 -4 -12 -10q-14 -8 -33 -10q-6 -2 -17.5 -4t-17.5 -4q-18 -3 -24 0l-8 20q2 29 32 60q35 35 64 51 q49 29 74 37q37 12 63 12q35 0 61 -10q25 -8 41 -33q16 -23 23 -62q6 -37 6 -92v-196q0 -25 4 -41q2 -10 10 -19q4 -2 21 -2q15 0 43 13l6 -25q-47 -31 -76 -43q-37 -14 -47 -14q-14 0 -28.5 20.5t-20.5 63.5q-51 -47 -96 -66q-46 -18 -80 -18q-18 0 -41 6q-10 4 -37 20 q-14 10 -29 35q-10 18 -10 53zM51 586v73h434v-73h-434zM147 848q0 -27 5 -35q8 -16 14 -20q14 -10 16 -11q6 -2 17 -2q35 0 65 15q43 20 74 45v151l-43 -10q-49 -14 -72 -27q-31 -16 -47 -30q-14 -12 -22 -35q-7 -18 -7 -41z" />
<glyph unicode="&#xab;" horiz-adv-x="993" d="M80 430v35v24q0 4 1 10l1 5l358 409l43 -30l-10 -19l-27 -47l-36 -67l-43 -76l-43 -76q-10 -18 -18.5 -35.5t-16.5 -32t-15.5 -25.5t-11.5 -20l-8 -18l229 -420l-43 -31zM451 430v35v24q0 4 1 10l1 5l358 409l43 -30l-10 -19l-27 -47l-37 -67l-43 -76l-43 -76l-37 -68 l-24 -45l-10 -18l231 -420l-43 -31z" />
<glyph unicode="&#xac;" horiz-adv-x="960" d="M61 530l13 43q6 16 18 45h770l29 -22v-363l-41 -28q-16 -12 -45 -23l-25 25v299h-694z" />
<glyph unicode="&#xad;" horiz-adv-x="688" d="M61 479q2 4 5.5 20.5t7.5 26.5l18 43h512l25 -22q-12 -45 -15 -49q-16 -41 -16 -43h-512z" />
<glyph unicode="&#xae;" horiz-adv-x="729" d="M35 1083q0 71 24.5 135.5t67.5 110.5t104 74q59 27 133 27t134 -27q61 -28 104 -74q47 -49 70 -110q25 -65 24 -136q0 -71 -24 -135q-23 -57 -70 -108q-43 -46 -104 -74q-63 -29 -133 -29t-134 29q-61 28 -104 74q-45 47 -68 108q-24 64 -24 135zM92 1083q0 -61 21 -110 q23 -53 57 -92q37 -40 86 -62q51 -23 108.5 -22.5t108.5 22.5q49 22 86 62q35 39 57 92q20 49 21 110q0 63 -21 113q-20 51 -57 90q-37 40 -86 62q-51 23 -108.5 22.5t-108.5 -22.5q-49 -22 -86 -62q-37 -39 -57 -90q-21 -50 -21 -113zM213 1274q18 4 59 12q20 4 74 4 q76 0 115 -26.5t39 -67.5q0 -45 -29 -78q-25 -27 -72 -41l103 -143q6 -10 18 -14.5t35 0.5v-23q-6 -2 -20.5 -5t-20.5 -5q-23 -6 -33 -6q-6 0 -16 6q-12 8 -14 12l-105 170h-2q-10 0 -31 4v-149q0 -9 43 -19v-18h-143v18q45 10 45 19v325l-45 -6v31zM313 1110q6 -2 13 -2h14 q51 0 74 20q25 23 24 60q0 27 -22 49q-18 18 -80 18h-12h-11v-145z" />
<glyph unicode="&#xaf;" horiz-adv-x="1009" d="M168 1200l2 9q2 9 4 16q2 4 5 14t5 14l13 29q8 16 12 23h612l23 -25q-2 -10 -8 -25q-2 -6 -5.5 -14t-5.5 -14l-12 -29q-4 -10 -8 -22h-617z" />
<glyph unicode="&#xb0;" horiz-adv-x="731" d="M139 948q0 63 25 115q23 47 61 90q37 39 84 61q43 20 94 21q37 0 74 -16q35 -14 59.5 -41t41.5 -60q16 -37 16 -74q0 -61 -25 -112q-25 -52 -61 -92q-31 -35 -86 -60q-43 -20 -92 -20q-45 0 -76 14q-37 16 -61 41q-23 23 -39 59q-15 31 -15 74zM250 997q0 -27 6 -53 q4 -18 20 -47q8 -16 35 -33q18 -12 43 -12q29 0 47 8q25 10 43 29q16 16 29 45q10 23 10 61q0 28 -6 56q-2 12 -22 47q-12 20 -33 32.5t-43 12.5q-25 0 -49 -10q-23 -10 -41.5 -29t-28.5 -47q-10 -31 -10 -60z" />
<glyph unicode="&#xb1;" horiz-adv-x="839" d="M61 154l13 43l18 43h662l24 -25q-6 -20 -14 -43q-14 -41 -16 -43h-662zM61 662l13 43l18 43h270v274q4 2 12.5 4t15.5 5t16 5q10 4 47 15l24 -25v-278h277l24 -25q-8 -29 -14 -45q-12 -33 -16 -41h-271v-270l-45 -19q-10 -4 -26.5 -8t-18.5 -4l-25 20v281h-276z" />
<glyph unicode="&#xb2;" horiz-adv-x="671" d="M59 664l146 147q61 63 104 113q63 74 74 86q33 45 45 65q16 31 23 53q8 33 8 46q0 55 -31 87.5t-100 32.5q-25 0 -49.5 -10t-38.5 -24q-15 -15 -25 -37q-8 -18 -8 -43q-25 -12 -51 -19q-35 -8 -60 -10l-18 18q0 31 24 66q27 37 66 61q45 29 96 47q52 18 111 19 q39 0 84 -10q40 -9 67 -31q27 -20 43.5 -53t16.5 -76q0 -37 -21 -82q-20 -43 -61 -96q-43 -55 -117 -129l-180 -183h272q20 0 37 17q12 12 23 33q10 23 12 47l45 -6l-10 -172h-506z" />
<glyph unicode="&#xb3;" horiz-adv-x="671" d="M39 700l22 41q25 -18 60 -32l53 -22.5t49 -10.5q16 -2 51 -2q84 0 132 39q51 41 51 116q0 43 -16.5 76t-39 49.5t-55.5 26.5q-27 8 -59 8h-15h-8l-3 -1q-3 -1 -5 -1t-7 -1t-9 -1l-11 45q61 14 101 35q39 18 55 39q18 23 25 41q6 23 6 39q0 23 -6 41q-8 20 -21 35 q-18 18 -36.5 26t-53.5 8q-53 0 -82 -24.5t-18 -65.5q-14 -8 -56 -16q-20 -4 -61 -8l-19 18q0 27 23 55q18 25 59 52q39 25 88 41q53 16 105 16q49 0 92 -16q47 -18 66 -37q27 -27 36 -54q14 -35 15 -61q0 -20 -10 -45q-8 -18 -29 -43q-14 -18 -47 -39q-31 -20 -62 -29 q35 -2 74 -20q35 -14 59.5 -41t40.5 -59q14 -31 15 -68q0 -55 -21 -96q-23 -47 -57 -78q-41 -37 -94 -55q-55 -18 -121 -19q-70 0 -129 23q-64 24 -127 75z" />
<glyph unicode="&#xb4;" horiz-adv-x="651" d="M217 1075l234 414q4 0 32 -4l41 -6q29 -4 41 -6q18 -3 31 -7l22 -39l-344 -380q-12 2 -32 12q-9 4 -25 16z" />
<glyph unicode="&#xb5;" horiz-adv-x="1103" d="M61 854v41q39 6 72 12q34 6 62 13l55 18q33 10 51 23l4 -7q2 -2 5 -4t7 -6q6 -6 13 -14q8 -8 10 -12v-551q0 -35 12 -76q14 -47 37 -78q25 -33 57.5 -57.5t75.5 -24.5q37 0 56 4q29 6 61 23q31 14 66 47q43 39 75 82v461q0 10 -4 38q-4 33 -8 45q-8 29 -12 41 q-4 10 -15 27q29 8 90 29q53 18 87 33l28 -39q-8 -57 -8 -64q-4 -29 -8 -98v-492q0 -98 8 -131q10 -39 31 -39q14 0 47 8q10 2 59 21l10 -45l-31.5 -20.5t-29.5 -18.5q-25 -18 -63 -37q-47 -23 -56 -26q-27 -10 -43 -11q-20 0 -35 17q-14 18 -24 47q-10 33 -17 65 q-6 37 -6 82q-80 -104 -157.5 -157.5t-133 -53.5t-114.5 41q-57 39 -103 113v-6q0 -127 11 -199q10 -70 32 -154q16 -61 45 -114q23 -41 52 -78q-2 -2 -10.5 -5t-15.5 -6t-15 -5q-12 -6 -26.5 -10.5l-27.5 -8.5l-51 -20q-16 -6 -37 -17l-39 29v1202q0 47 -2 62q-2 18 -16 32 q-12 12 -39 19q-6 2 -72 10z" />
<glyph unicode="&#xb6;" horiz-adv-x="1134" d="M49 903q0 88 33 156q35 72 94 123q63 53 146 80q90 29 186 28q6 0 24.5 -1t28.5 -1q20 0 70 -4q12 -2 38.5 -3t39.5 -1q12 -2 38.5 -2t40.5 -2l101.5 -8t93.5 -8h72v-43q-78 -18 -107 -31q-39 -18 -39 -31v-1300q0 -12 37 -31q29 -14 109 -31v-43h-611v43q78 18 107 31 q39 18 39 31l2 677q-25 -4 -39 -4q-6 0 -22.5 -1t-26.5 -1q-100 0 -176 23q-80 23 -144 72q-59 45 -98 118q-37 72 -37 164zM215 938q0 -53 18 -113q16 -51 60 -104q37 -47 104 -80q61 -31 150 -31h45v590q-61 6 -103 6q-63 0 -110 -20q-51 -23 -86 -57.5t-57 -86.5 q-21 -47 -21 -104zM711 -145q0 -10 14 -19q15 -9 25 -12q10 2 26 12q14 8 15 19v1304q-8 2 -20.5 6l-18.5 6l-41 11v-1327z" />
<glyph unicode="&#xb7;" horiz-adv-x="299" d="M49 680q0 27 10 53q9 25 25 43q16 20 37 29q25 10 45 10q84 0 84 -94q0 -31 -8 -53q-9 -25 -25 -43q-12 -14 -37 -29q-20 -12 -47 -12q-45 0 -63 24q-21 27 -21 72z" />
<glyph unicode="&#xb8;" horiz-adv-x="468" d="M78 -395q43 8 88 22q31 10 59.5 30.5t34.5 33.5q10 20 10 33q0 35 -26 47q-29 14 -88 20l2 4q2 4 4 11.5t4 13.5q2 8 8 24.5l14 40.5l41 129l78 -2l-39 -116q39 -10 51 -15q29 -10 46 -24q18 -15 30.5 -37t12.5 -49q0 -39 -17 -70q-20 -37 -55 -63q-37 -27 -96 -50 q-55 -20 -140 -32z" />
<glyph unicode="&#xb9;" horiz-adv-x="671" d="M96 1266l72 18l86 29q10 4 39 13t43 15q57 23 61 25l27 -20v-629q0 -10 4 -15q10 -10 25 -14q35 -12 49 -14q34 -6 86 -12v-41h-469v41q57 6 90 12q8 2 53 14q20 6 28.5 14.5t8.5 14.5v457q0 31 -2 38q-2 10 -12 21q-2 2 -15 6q-6 2 -30 2q-8 0 -50 -4q-33 -4 -77 -12z " />
<glyph unicode="&#xba;" horiz-adv-x="577" d="M49 963q0 55 21 102q22 49 55 86q39 43 80 61q49 23 100 23q47 0 88 -18.5t72 -53.5q33 -35 47 -80q16 -49 16 -100q0 -49 -22 -100q-20 -45 -60 -88q-37 -41 -81 -62q-49 -23 -93 -22q-51 0 -92 18q-37 16 -69 53q-29 33 -45 80q-17 50 -17 101zM61 586v73h455v-73h-455 zM143 977q0 -45 15 -80q18 -45 35 -66q18 -25 53 -47q25 -16 59 -16q29 0 51 14q20 12 41 43q16 27 27 64q10 41 10 78q0 43 -12 80q-12 35 -37 67q-20 27 -51 45q-27 16 -62 17q-31 0 -53 -15q-20 -12 -41 -43q-16 -27 -26 -63q-9 -33 -9 -78z" />
<glyph unicode="&#xbb;" horiz-adv-x="993" d="M139 47l232 420l-230 416l41 30l361 -409l2 -74l-363 -414zM510 47l231 420l-229 416l41 30l358 -409l2 -74l-360 -414z" />
<glyph unicode="&#xbc;" horiz-adv-x="1198" d="M80 1153l57 16q45 12 68 21q45 16 65 24q41 16 49 21l21 -16v-504q0 -6 4 -10q6 -6 21 -13q16 -6 38 -12q18 -4 68 -8v-35h-375v35q55 4 74 8q28 6 43 12q16 6 20 10q6 6 7 13v364v31q0 10 -11 16q-4 4 -10 7h-24q-25 0 -41 -3l-62 -10zM199 0l762 1202q20 8 43 19 q16 6 45 14l24 -29l-758 -1204q-22 -12 -43 -18q-2 0 -20.5 -6.5t-28.5 -8.5zM653 180l281 383q14 6 47 19q41 16 43 16l20 -16v-357h62l14 -14l-22 -27q-6 -8 -23 -20h-31v-107q0 -4 3 -6q4 -4 8 -6q12 -6 22 -8q2 0 15.5 -3t21.5 -5v-29h-274v29l30.5 5t26.5 5q4 0 35 8 q8 2 14 8q4 4 4 8v101h-278zM750 225h200v267z" />
<glyph unicode="&#xbd;" horiz-adv-x="1198" d="M80 1153l57 16q45 12 68 21q45 16 65 24q41 16 49 21l21 -16v-504q0 -6 4 -10q6 -6 21 -13q16 -6 38 -12q18 -4 68 -8v-35h-375v35q55 4 74 8q28 6 43 12q16 6 20 10q6 6 7 13v364v31q0 10 -11 16q-4 4 -10 7h-24q-25 0 -41 -3l-62 -10zM199 0l762 1202q20 8 43 19 q16 6 45 14l24 -29l-758 -1204q-22 -12 -43 -18q-2 0 -20.5 -6.5t-28.5 -8.5zM690 35q102 100 164 166q66 70 96 110q39 53 47 74q12 31 13 57q0 49 -23 72q-27 27 -82 27q-23 0 -39 -9q-20 -10 -30.5 -20t-18.5 -31q-6 -14 -6 -32q-29 -12 -43 -17q-2 0 -47 -6l-14 12 q0 29 18 54q23 31 53 49q35 23 76 37q45 16 90 16q41 0 68 -8q35 -10 53 -27q25 -23 35 -41q12 -25 12 -61q0 -35 -14 -66q-16 -35 -51 -76q-49 -57 -95 -102l-143 -147h217q18 0 30.5 12t18.5 26q4 14 8 39l37 -6l-8 -137h-405z" />
<glyph unicode="&#xbe;" horiz-adv-x="1198" d="M80 707l18 32q45 -29 90 -43q41 -12 82 -12q61 0 105 33q41 31 41 92q0 37 -13 61q-10 20 -32 39q-16 14 -43 21q-33 8 -47 8h-13q-2 0 -4 -1t-4 -1h-6l-4 -1q-4 -1 -8 -1l-9 37q53 12 80 26q25 12 45 33q18 18 21 33q4 20 4 31q0 15 -6 30q-8 20 -17 29q-16 16 -28 21 q-25 8 -43 8q-45 0 -65.5 -20.5t-14.5 -51.5q-25 -12 -43 -14l-49 -6l-17 16q0 22 19 43q23 27 47 41q39 23 70 33q39 12 84 12t75 -12q33 -14 51 -29q22 -18 31 -43q10 -27 10 -49q0 -33 -32 -72q-29 -35 -86 -53q29 -2 59 -16q29 -12 49 -33q18 -18 31 -47q12 -28 12 -56 q0 -39 -16 -77q-12 -31 -47 -62q-31 -28 -74 -43q-41 -14 -98 -14q-51 0 -103 18q-53 19 -102 60zM199 0l762 1202q20 8 43 19q16 6 45 14l24 -29l-758 -1204q-22 -12 -43 -18q-2 0 -20.5 -6.5t-28.5 -8.5zM653 180l281 383q14 6 47 19q41 16 43 16l20 -16v-357h62l14 -14 l-22 -27q-6 -8 -23 -20h-31v-107q0 -4 3 -6q4 -4 8 -6q12 -6 22 -8q2 0 15.5 -3t21.5 -5v-29h-274v29l30.5 5t26.5 5q4 0 35 8q8 2 14 8q4 4 4 8v101h-278zM750 225h200v267z" />
<glyph unicode="&#xbf;" horiz-adv-x="886" d="M80 -246q0 74 24 135q27 66 60 113q41 59 78 100q43 49 80 99q31 41 63 106q27 53 33 127l6 96q20 18 33 25q4 2 41 16l26 -20l6 -117q2 -55 -16 -112q-14 -47 -51 -111q-27 -47 -70 -109q-25 -35 -69 -104q-33 -49 -56 -102q-23 -51 -22 -97q0 -123 55 -194 q55 -70 162 -70q33 0 69 16q33 14 58 43q23 27 39 64q14 35 14 76q0 8 -4 28l-10 29q29 14 69 27q34 9 80 12l27 -31q2 -6 2 -16v-16q0 -70 -35 -129q-37 -63 -92 -105q-58 -43 -135 -67.5t-160 -24.5q-70 0 -131 22q-53 20 -96 66q-35 37 -58 98q-20 55 -20 127zM348 799 q0 33 10 63q10 29 29 51q20 23 43 35q25 12 55 13q51 0 76 -29q25 -27 25 -84q0 -37 -11 -64q-12 -29 -30 -51q-20 -25 -45 -37t-54 -12q-53 0 -75.5 29t-22.5 86z" />
<glyph unicode="&#xc0;" horiz-adv-x="1218" d="M0 0v43q70 12 109 25q40 12 49 43l372 1126q16 18 58 45q12 8 32.5 19.5t26.5 15.5l420 -1206q4 -12 14 -25q4 -6 25 -18q12 -8 37 -15q25 -8 55 -10v-43h-422v43q80 6 109 20q31 14 18 48l-115 333h-407l-111 -333q-8 -31 27 -45q31 -12 119 -23v-43h-416zM412 535h346 l-176 514zM262 1609l8 45q6 8 23 19q2 2 14 9t18 11q8 4 17.5 8t17.5 11q10 6 17.5 10l11.5 6l387 -317q-8 -10 -12 -17.5t-8 -11.5q-6 -8 -25 -16z" />
<glyph unicode="&#xc1;" horiz-adv-x="1218" d="M0 0v43q70 12 109 25q40 12 49 43l372 1126q16 18 58 45q12 8 32.5 19.5t26.5 15.5l420 -1206q4 -12 14 -25q4 -6 25 -18q12 -8 37 -15q25 -8 55 -10v-43h-422v43q80 6 109 20q31 14 18 48l-115 333h-407l-111 -333q-8 -31 27 -45q31 -12 119 -23v-43h-416zM412 535h346 l-176 514zM422 1411l387 317l11.5 -6t17.5 -10q8 -6 17 -10.5l17.5 -8.5t19.5 -11t13 -9q10 -6 23 -19l8 -45l-469 -243q-18 6 -24 16q-2 2 -9.5 12.5z" />
<glyph unicode="&#xc2;" horiz-adv-x="1218" d="M0 0v43q70 12 109 25q40 12 49 43l372 1126q16 18 58 45q12 8 32.5 19.5t26.5 15.5l420 -1206q4 -12 14 -25q4 -6 25 -18q12 -8 37 -15q25 -8 55 -10v-43h-422v43q80 6 109 20q31 14 18 48l-115 333h-407l-111 -333q-8 -31 27 -45q31 -12 119 -23v-43h-416zM412 535h346 l-176 514zM281 1411l264 309h106l262 -309l-18 -27q-6 -9 -25 -18l-272 208l-272 -208q-4 2 -7.5 5t-5.5 3q-6 4 -10 10l-10 10z" />
<glyph unicode="&#xc3;" horiz-adv-x="1218" d="M0 0v43q70 12 109 25q40 12 49 43l372 1126q16 18 58 45q12 8 32.5 19.5t26.5 15.5l420 -1206q4 -12 14 -25q4 -6 25 -18q12 -8 37 -15q25 -8 55 -10v-43h-422v43q80 6 109 20q31 14 18 48l-115 333h-407l-111 -333q-8 -31 27 -45q31 -12 119 -23v-43h-416zM412 535h346 l-176 514zM258 1413q18 40 43 80q29 47 55 73q31 31 66 51.5t76 20.5q39 0 71 -19l64 -38l57 -39q25 -16 51 -17q37 0 74 31q35 29 72 92l53 -22q-23 -49 -43 -82q-27 -43 -55.5 -72t-67.5 -51q-35 -20 -74 -21q-41 0 -67 17q-41 25 -62 39q-33 23 -59 39q-31 18 -57 18 q-41 0 -74 -33t-70 -88z" />
<glyph unicode="&#xc4;" horiz-adv-x="1218" d="M0 0v43q70 12 109 25q40 12 49 43l372 1126q16 18 58 45q12 8 32.5 19.5t26.5 15.5l420 -1206q4 -12 14 -25q4 -6 25 -18q12 -8 37 -15q25 -8 55 -10v-43h-422v43q80 6 109 20q31 14 18 48l-115 333h-407l-111 -333q-8 -31 27 -45q31 -12 119 -23v-43h-416zM412 535h346 l-176 514zM299 1499q0 31 8 53q8 20 27 43q18 20 35 29q29 12 45 12q86 0 86 -96q0 -27 -11 -54q-9 -25 -24 -43q-14 -16 -35 -28.5t-47 -12.5q-43 0 -63.5 27t-20.5 70zM698 1499q0 27 10 53q9 25 25 43q16 20 37 29q29 12 45 12q84 0 84 -96q0 -31 -8 -54q-9 -25 -25 -43 q-12 -14 -37 -28q-23 -12 -47 -13q-43 0 -63.5 27t-20.5 70z" />
<glyph unicode="&#xc5;" horiz-adv-x="1218" d="M0 0v43q70 12 109 25q40 12 49 43l372 1126q16 18 58 45q12 8 32.5 19.5t26.5 15.5l420 -1206q4 -12 14 -25q4 -6 25 -18q12 -8 37 -15q25 -8 55 -10v-43h-422v43q80 6 109 20q31 14 18 48l-115 333h-407l-111 -333q-8 -31 27 -45q31 -12 119 -23v-43h-416zM412 535h346 l-176 514zM414 1523q0 51 18 94t51 76q31 31 70 49q35 16 78 17q33 0 59.5 -12.5t48.5 -34.5q20 -20 32.5 -49t12.5 -60q0 -51 -18 -94q-16 -39 -51 -74q-31 -31 -70 -49q-35 -16 -78 -16q-34 0 -61 12q-29 12 -49.5 32.5t-32.5 49.5q-10 22 -10 59zM504 1564q0 -25 6 -45 q8 -25 16 -37q16 -20 27 -26q16 -10 36.5 -10.5t39.5 6.5q14 6 32 22q15 15 25 37q8 18 8 51q0 23 -6 45q-8 29 -16 39q-16 20 -27 27q-16 10 -37 10q-23 0 -39 -8t-33 -25q-15 -15 -24 -37q-8 -18 -8 -49z" />
<glyph unicode="&#xc6;" horiz-adv-x="1593" d="M0 0v43q66 12 106 25q37 12 52 43l413 1022q6 16 -4 28q-8 10 -34.5 20.5t-63.5 18.5q-12 2 -25.5 5t-32 6t-30.5 6v43h1057l30 -25q-2 -16 -6 -57t-8 -62q-8 -41 -12 -59q-2 -12 -15 -47h-45q-4 55 -8 77q-6 27 -16 50q-10 20 -24.5 26t-33.5 6h-366v-434h405l27 -28 q-4 -8 -10 -14.5t-10 -14.5l-11.5 -16.5l-11.5 -16.5q-16 -20 -24.5 -28.5t-24.5 -20.5q-16 16 -33 25q-35 16 -39 18q-16 4 -53 8q-41 4 -74 4h-141v-497q0 -10 8 -27q6 -10 29 -21q20 -8 63 -12q53 -4 107 -4h129q55 0 78 4q37 6 57 22.5t45 53.5q16 27 41 92l45 -18 q-8 -76 -23 -152q-14 -72 -20 -92h-862v43q72 16 106 31q37 15 37 30v547h-268l-221 -540q-12 -28 18 -43q31 -16 113 -25v-43h-416zM539 735h235v414q0 8 -10 14q-6 4 -23 4q-10 0 -24 -10q-16 -12 -21 -27z" />
<glyph unicode="&#xc7;" horiz-adv-x="1097" d="M70 586q0 162 49 291q49 131 131 221q84 92 192 141q115 51 234 51q104 0 190 -28q78 -27 133 -72q4 -6 -4 -21q-6 -12 -24 -32q-31 -37 -33 -39q-10 -10 -16.5 -17.5t-12.5 -13.5l-35 6q-57 49 -120 78q-66 29 -162 29q-34 0 -74 -13q-47 -14 -82 -39q-45 -31 -80 -71 q-37 -43 -67 -105q-27 -55 -47 -143q-16 -74 -17 -186q0 -135 39 -234q41 -102 98 -166q59 -66 136 -100q72 -33 145 -33q55 0 141 37t197 129q4 -2 10 -8q2 -2 5 -7t5 -8q8 -8 11 -12q4 -8 6 -10q-68 -72 -123 -115q-59 -47 -113 -73q-59 -31 -106 -41l-41 -7l-27 -79 q45 -10 54 -15q25 -9 43 -24q23 -18 32 -37q12 -22 13 -49q0 -37 -19 -70q-23 -39 -53 -63q-37 -27 -96 -50q-53 -20 -142 -32l-20 49q43 8 88 22q31 10 59 31q25 18 33 33q10 20 10 33q0 35 -24 47q-29 14 -88 20l2 4q2 4 4 11.5t4 13.5l20 65l27 84q-78 2 -168 43 q-92 45 -160 121q-74 82 -114 193q-43 113 -43 260z" />
<glyph unicode="&#xc8;" horiz-adv-x="1015" d="M49 0v43q66 14 107 31q39 14 39 30v1051q0 12 -37 31q-25 12 -109 31v43h807l33 -25q-2 -16 -6 -57q-2 -20 -10.5 -61.5t-12.5 -59.5q-6 -31 -12 -47h-45q-4 55 -8 77q-6 27 -17 50q-10 20 -24 26q-16 6 -33 6h-367v-434h406l26 -28l-20 -29l-11 -16.5t-12 -16.5 q-8 -10 -26 -29q-14 -14 -23 -20q-16 16 -32 25q-31 16 -41 18q-16 4 -52 8q-41 4 -73 4h-142v-497q0 -10 8 -27q6 -10 29 -21q22 -9 62 -12q53 -4 106 -4h129q55 0 78 4q37 6 57 23q25 18 47 53q16 27 41 92l43 -18q-10 -96 -20 -150q-14 -76 -21 -94h-864zM166 1609l8 45 q6 8 23 19q2 2 14 9t18 11q8 4 17.5 8t17.5 11q10 6 17.5 10l11.5 6l387 -317q-8 -10 -12 -17.5t-8 -11.5q-6 -8 -25 -16z" />
<glyph unicode="&#xc9;" horiz-adv-x="1015" d="M49 0v43q66 14 107 31q39 14 39 30v1051q0 12 -37 31q-25 12 -109 31v43h807l33 -25q-2 -16 -6 -57q-2 -20 -10.5 -61.5t-12.5 -59.5q-6 -31 -12 -47h-45q-4 55 -8 77q-6 27 -17 50q-10 20 -24 26q-16 6 -33 6h-367v-434h406l26 -28l-20 -29l-11 -16.5t-12 -16.5 q-8 -10 -26 -29q-14 -14 -23 -20q-16 16 -32 25q-31 16 -41 18q-16 4 -52 8q-41 4 -73 4h-142v-497q0 -10 8 -27q6 -10 29 -21q22 -9 62 -12q53 -4 106 -4h129q55 0 78 4q37 6 57 23q25 18 47 53q16 27 41 92l43 -18q-10 -96 -20 -150q-14 -76 -21 -94h-864zM323 1411 l387 317l11.5 -6t17.5 -10q8 -6 17 -10.5l17.5 -8.5t19.5 -11t13 -9q10 -6 23 -19l8 -45l-469 -243q-18 6 -24 16q-2 2 -9.5 12.5z" />
<glyph unicode="&#xca;" horiz-adv-x="1015" d="M49 0v43q66 14 107 31q39 14 39 30v1051q0 12 -37 31q-25 12 -109 31v43h807l33 -25q-2 -16 -6 -57q-2 -20 -10.5 -61.5t-12.5 -59.5q-6 -31 -12 -47h-45q-4 55 -8 77q-6 27 -17 50q-10 20 -24 26q-16 6 -33 6h-367v-434h406l26 -28l-20 -29l-11 -16.5t-12 -16.5 q-8 -10 -26 -29q-14 -14 -23 -20q-16 16 -32 25q-31 16 -41 18q-16 4 -52 8q-41 4 -73 4h-142v-497q0 -10 8 -27q6 -10 29 -21q22 -9 62 -12q53 -4 106 -4h129q55 0 78 4q37 6 57 23q25 18 47 53q16 27 41 92l43 -18q-10 -96 -20 -150q-14 -76 -21 -94h-864zM185 1411 l264 309h106l262 -309l-18 -27q-6 -9 -25 -18l-272 208l-272 -208q-4 2 -7.5 5t-5.5 3q-6 4 -10 10l-10 10z" />
<glyph unicode="&#xcb;" horiz-adv-x="1015" d="M49 0v43q66 14 107 31q39 14 39 30v1051q0 12 -37 31q-25 12 -109 31v43h807l33 -25q-2 -16 -6 -57q-2 -20 -10.5 -61.5t-12.5 -59.5q-6 -31 -12 -47h-45q-4 55 -8 77q-6 27 -17 50q-10 20 -24 26q-16 6 -33 6h-367v-434h406l26 -28l-20 -29l-11 -16.5t-12 -16.5 q-8 -10 -26 -29q-14 -14 -23 -20q-16 16 -32 25q-31 16 -41 18q-16 4 -52 8q-41 4 -73 4h-142v-497q0 -10 8 -27q6 -10 29 -21q22 -9 62 -12q53 -4 106 -4h129q55 0 78 4q37 6 57 23q25 18 47 53q16 27 41 92l43 -18q-10 -96 -20 -150q-14 -76 -21 -94h-864zM203 1499 q0 31 8 53q8 20 27 43q18 20 35 29q29 12 45 12q86 0 86 -96q0 -27 -11 -54q-9 -25 -24 -43q-14 -16 -35 -28.5t-47 -12.5q-43 0 -63.5 27t-20.5 70zM602 1499q0 27 10 53q9 25 25 43q16 20 37 29q29 12 45 12q84 0 84 -96q0 -31 -8 -54q-9 -25 -25 -43q-12 -14 -37 -28 q-23 -12 -47 -13q-43 0 -63.5 27t-20.5 70z" />
<glyph unicode="&#xcc;" horiz-adv-x="608" d="M70 0v43q66 14 106 31q39 14 39 30v1051q0 12 -37 31q-25 12 -108 31v43h450v-43q-78 -18 -106 -31q-39 -18 -39 -31v-1051q0 -12 37 -30q25 -12 108 -31v-43h-450zM-43 1609l8 45q6 8 23 19q2 2 14 9t18 11q8 4 17.5 8t17.5 11q10 6 17.5 10l11.5 6l387 -317 q-8 -10 -12 -17.5t-8 -11.5q-6 -8 -25 -16z" />
<glyph unicode="&#xcd;" horiz-adv-x="608" d="M70 0v43q66 14 106 31q39 14 39 30v1051q0 12 -37 31q-25 12 -108 31v43h450v-43q-78 -18 -106 -31q-39 -18 -39 -31v-1051q0 -12 37 -30q25 -12 108 -31v-43h-450zM117 1411l387 317l11.5 -6t17.5 -10q8 -6 17 -10.5l17.5 -8.5t19.5 -11t13 -9q10 -6 23 -19l8 -45 l-469 -243q-18 6 -24 16q-2 2 -9.5 12.5z" />
<glyph unicode="&#xce;" horiz-adv-x="608" d="M70 0v43q66 14 106 31q39 14 39 30v1051q0 12 -37 31q-25 12 -108 31v43h450v-43q-78 -18 -106 -31q-39 -18 -39 -31v-1051q0 -12 37 -30q25 -12 108 -31v-43h-450zM-22 1411l264 309h106l262 -309l-18 -27q-6 -9 -25 -18l-272 208l-272 -208q-4 2 -7.5 5t-5.5 3 q-6 4 -10 10l-10 10z" />
<glyph unicode="&#xcf;" horiz-adv-x="608" d="M70 0v43q66 14 106 31q39 14 39 30v1051q0 12 -37 31q-25 12 -108 31v43h450v-43q-78 -18 -106 -31q-39 -18 -39 -31v-1051q0 -12 37 -30q25 -12 108 -31v-43h-450zM-4 1499q0 31 8 53q8 20 27 43q18 20 35 29q29 12 45 12q86 0 86 -96q0 -27 -11 -54q-9 -25 -24 -43 q-14 -16 -35 -28.5t-47 -12.5q-43 0 -63.5 27t-20.5 70zM395 1499q0 27 10 53q9 25 25 43q16 20 37 29q29 12 45 12q84 0 84 -96q0 -31 -8 -54q-9 -25 -25 -43q-12 -14 -37 -28q-23 -12 -47 -13q-43 0 -63.5 27t-20.5 70z" />
<glyph unicode="&#xd0;" horiz-adv-x="1212" d="M27 639q6 23 10 33q4 12 12 33h146v483q-12 -2 -38 -5t-38 -5q-20 -2 -38 -5.5t-32 -5.5l-8 64q12 4 102 22q16 4 121 19q86 12 129 14q86 4 125 4q145 0 250 -41q117 -45 193 -121q78 -78 120 -192q41 -109 41 -260q0 -125 -24 -223q-23 -90 -70 -174q-43 -77 -98 -129 q-57 -53 -119 -87q-57 -31 -129 -47q-70 -16 -123 -16h-510v43q66 14 107 31q39 14 39 30v510h-146zM354 154q0 -18 11 -35q14 -16 55 -27q35 -8 117 -8q72 0 143 33q70 31 133 102q59 66 100 172q39 102 39 246q0 137 -32 237q-37 111 -97 181q-61 72 -157 112 q-90 39 -213 39q-33 0 -99 -4v-497h260l25 -23l-25 -68h-260v-460z" />
<glyph unicode="&#xd1;" horiz-adv-x="1327" d="M49 0v43q72 8 111 29q35 18 35 32v1045q-37 33 -70 47t-76 21v43h213q18 0 25 -3q12 -4 18 -10q14 -14 23 -24l8 -11.5t9 -11.5t13 -18l658 -906v879q0 12 -33 31q-35 18 -113 31v43h410v-43q-70 -8 -109 -29q-37 -18 -36 -33v-1186q-53 6 -78 21q-33 18 -41 30l-701 973 v-889q0 -12 33 -30.5t113 -30.5v-43h-412zM324 1413q18 40 43 80q29 47 55 73q31 31 66 51.5t76 20.5q39 0 71 -19l64 -38l57 -39q25 -16 51 -17q37 0 74 31q35 29 72 92l53 -22q-23 -49 -43 -82q-27 -43 -55.5 -72t-67.5 -51q-35 -20 -74 -21q-41 0 -67 17q-41 25 -62 39 q-33 23 -59 39q-31 18 -57 18q-41 0 -74 -33t-70 -88z" />
<glyph unicode="&#xd2;" horiz-adv-x="1228" d="M70 612q0 129 45 258t118 217q77 92 179 148q100 55 221 55q125 0 219 -55q92 -53 158 -143q61 -84 96 -207q33 -113 33 -238q0 -137 -45 -258q-47 -127 -123 -217t-180 -147q-101 -55 -216 -56q-119 0 -215 54q-90 49 -157 143q-66 90 -99 205q-34 120 -34 241zM225 641 q0 -113 31 -213q29 -96 82 -174t120.5 -121t145.5 -43t152 35q72 35 121 102q51 70 77 168q29 104 29 234q0 70 -12 137q-10 57 -35 127q-18 53 -57 113q-33 51 -76 88q-45 39 -92 59q-51 23 -107 23q-86 0 -160 -39q-70 -37 -118 -107q-49 -72 -74 -168q-27 -106 -27 -221z M279 1609l8 45q6 8 23 19q2 2 14 9t18 11q8 4 17.5 8t17.5 11q10 6 17.5 10l11.5 6l387 -317q-8 -10 -12 -17.5t-8 -11.5q-6 -8 -25 -16z" />
<glyph unicode="&#xd3;" horiz-adv-x="1228" d="M70 612q0 129 45 258t118 217q77 92 179 148q100 55 221 55q125 0 219 -55q92 -53 158 -143q61 -84 96 -207q33 -113 33 -238q0 -137 -45 -258q-47 -127 -123 -217t-180 -147q-101 -55 -216 -56q-119 0 -215 54q-90 49 -157 143q-66 90 -99 205q-34 120 -34 241zM225 641 q0 -113 31 -213q29 -96 82 -174t120.5 -121t145.5 -43t152 35q72 35 121 102q51 70 77 168q29 104 29 234q0 70 -12 137q-10 57 -35 127q-18 53 -57 113q-33 51 -76 88q-45 39 -92 59q-51 23 -107 23q-86 0 -160 -39q-70 -37 -118 -107q-49 -72 -74 -168q-27 -106 -27 -221z M436 1411l387 317l11.5 -6t17.5 -10q8 -6 17 -10.5l17.5 -8.5t19.5 -11t13 -9q10 -6 23 -19l8 -45l-469 -243q-18 6 -24 16q-2 2 -9.5 12.5z" />
<glyph unicode="&#xd4;" horiz-adv-x="1228" d="M70 612q0 129 45 258t118 217q77 92 179 148q100 55 221 55q125 0 219 -55q92 -53 158 -143q61 -84 96 -207q33 -113 33 -238q0 -137 -45 -258q-47 -127 -123 -217t-180 -147q-101 -55 -216 -56q-119 0 -215 54q-90 49 -157 143q-66 90 -99 205q-34 120 -34 241zM225 641 q0 -113 31 -213q29 -96 82 -174t120.5 -121t145.5 -43t152 35q72 35 121 102q51 70 77 168q29 104 29 234q0 70 -12 137q-10 57 -35 127q-18 53 -57 113q-33 51 -76 88q-45 39 -92 59q-51 23 -107 23q-86 0 -160 -39q-70 -37 -118 -107q-49 -72 -74 -168q-27 -106 -27 -221z M297 1411l264 309h106l262 -309l-18 -27q-6 -9 -25 -18l-272 208l-272 -208q-4 2 -7.5 5t-5.5 3q-6 4 -10 10l-10 10z" />
<glyph unicode="&#xd5;" horiz-adv-x="1228" d="M70 612q0 129 45 258t118 217q77 92 179 148q100 55 221 55q125 0 219 -55q92 -53 158 -143q61 -84 96 -207q33 -113 33 -238q0 -137 -45 -258q-47 -127 -123 -217t-180 -147q-101 -55 -216 -56q-119 0 -215 54q-90 49 -157 143q-66 90 -99 205q-34 120 -34 241zM225 641 q0 -113 31 -213q29 -96 82 -174t120.5 -121t145.5 -43t152 35q72 35 121 102q51 70 77 168q29 104 29 234q0 70 -12 137q-10 57 -35 127q-18 53 -57 113q-33 51 -76 88q-45 39 -92 59q-51 23 -107 23q-86 0 -160 -39q-70 -37 -118 -107q-49 -72 -74 -168q-27 -106 -27 -221z M274 1413q18 40 43 80q29 47 55 73q31 31 66 51.5t76 20.5q39 0 71 -19l64 -38l57 -39q25 -16 51 -17q37 0 74 31q35 29 72 92l53 -22q-23 -49 -43 -82q-27 -43 -55.5 -72t-67.5 -51q-35 -20 -74 -21q-41 0 -67 17q-41 25 -62 39q-33 23 -59 39q-31 18 -57 18q-41 0 -74 -33 t-70 -88z" />
<glyph unicode="&#xd6;" horiz-adv-x="1228" d="M70 612q0 129 45 258t118 217q77 92 179 148q100 55 221 55q125 0 219 -55q92 -53 158 -143q61 -84 96 -207q33 -113 33 -238q0 -137 -45 -258q-47 -127 -123 -217t-180 -147q-101 -55 -216 -56q-119 0 -215 54q-90 49 -157 143q-66 90 -99 205q-34 120 -34 241zM225 641 q0 -113 31 -213q29 -96 82 -174t120.5 -121t145.5 -43t152 35q72 35 121 102q51 70 77 168q29 104 29 234q0 70 -12 137q-10 57 -35 127q-18 53 -57 113q-33 51 -76 88q-45 39 -92 59q-51 23 -107 23q-86 0 -160 -39q-70 -37 -118 -107q-49 -72 -74 -168q-27 -106 -27 -221z M315 1499q0 31 8 53q8 20 27 43q18 20 35 29q29 12 45 12q86 0 86 -96q0 -27 -11 -54q-9 -25 -24 -43q-14 -16 -35 -28.5t-47 -12.5q-43 0 -63.5 27t-20.5 70zM714 1499q0 27 10 53q9 25 25 43q16 20 37 29q29 12 45 12q84 0 84 -96q0 -31 -8 -54q-9 -25 -25 -43 q-12 -14 -37 -28q-23 -12 -47 -13q-43 0 -63.5 27t-20.5 70z" />
<glyph unicode="&#xd7;" horiz-adv-x="839" d="M92 281v32l250 248l-248 248v33q29 12 45 18q10 4 26.5 7t20.5 5l234 -233l231 233q4 -2 21.5 -5t27.5 -7q16 -6 45 -18v-33l-247 -248l247 -248v-32l-47 -19q-10 -4 -24.5 -7t-20.5 -5l-233 233l-234 -233q-6 2 -21 5t-26 7z" />
<glyph unicode="&#xd8;" horiz-adv-x="1228" d="M70 612q0 129 45 258t118 217q77 92 179 148q100 55 221 55q84 0 158 -28q82 -33 131 -74l53 76q20 14 61 28l66 21l28 -33l-126 -180q66 -90 100 -209q35 -121 35 -244q0 -137 -45 -258q-47 -127 -123 -217t-180 -147q-101 -55 -216 -56q-86 0 -159.5 29t-128.5 76 l-54 -76q-10 -10 -26 -16q-10 -4 -35 -13l-37 -12l-31 -10l-28 33l129 182q-68 92 -101 207q-34 120 -34 243zM225 641q0 -96 21 -178q20 -80 59 -156l529 756q-45 51 -105 82q-57 31 -125 31q-86 0 -160 -39q-70 -37 -118 -107q-49 -72 -74 -168q-27 -106 -27 -221z M377 203q47 -53 106 -84q55 -29 121 -29q78 0 152 35q72 35 121 102q51 70 77 168q29 104 29 234q0 92 -20 174q-23 88 -58 155z" />
<glyph unicode="&#xd9;" horiz-adv-x="1337" d="M49 1217v43h451v-43q-78 -18 -107 -31q-39 -18 -39 -31v-661q0 -92 23 -172q20 -72 67 -129q41 -51 111 -80q61 -27 150 -27q74 0 126 33q51 31 93 92q39 59 57 127q18 72 18 145v672q0 12 -36 31q-25 12 -109 31v43h422v-43q-78 -18 -107 -31q-39 -18 -39 -31v-631 q0 -123 -32 -233q-31 -102 -92 -174q-63 -74 -146 -109q-90 -39 -194 -39q-98 0 -189 29q-86 27 -149 88q-66 63 -99 147q-35 92 -34 211v711q0 12 -37 31q-25 13 -109 31zM340 1609l8 45q6 8 23 19q2 2 14 9t18 11q8 4 17.5 8t17.5 11q10 6 17.5 10l11.5 6l387 -317 q-8 -10 -12 -17.5t-8 -11.5q-6 -8 -25 -16z" />
<glyph unicode="&#xda;" horiz-adv-x="1337" d="M49 1217v43h451v-43q-78 -18 -107 -31q-39 -18 -39 -31v-661q0 -92 23 -172q20 -72 67 -129q41 -51 111 -80q61 -27 150 -27q74 0 126 33q51 31 93 92q39 59 57 127q18 72 18 145v672q0 12 -36 31q-25 12 -109 31v43h422v-43q-78 -18 -107 -31q-39 -18 -39 -31v-631 q0 -123 -32 -233q-31 -102 -92 -174q-63 -74 -146 -109q-90 -39 -194 -39q-98 0 -189 29q-86 27 -149 88q-66 63 -99 147q-35 92 -34 211v711q0 12 -37 31q-25 13 -109 31zM500 1411l387 317l11.5 -6t17.5 -10q8 -6 17 -10.5l17.5 -8.5t19.5 -11t13 -9q10 -6 23 -19l8 -45 l-469 -243q-18 6 -24 16q-2 2 -9.5 12.5z" />
<glyph unicode="&#xdb;" horiz-adv-x="1337" d="M49 1217v43h451v-43q-78 -18 -107 -31q-39 -18 -39 -31v-661q0 -92 23 -172q20 -72 67 -129q41 -51 111 -80q61 -27 150 -27q74 0 126 33q51 31 93 92q39 59 57 127q18 72 18 145v672q0 12 -36 31q-25 12 -109 31v43h422v-43q-78 -18 -107 -31q-39 -18 -39 -31v-631 q0 -123 -32 -233q-31 -102 -92 -174q-63 -74 -146 -109q-90 -39 -194 -39q-98 0 -189 29q-86 27 -149 88q-66 63 -99 147q-35 92 -34 211v711q0 12 -37 31q-25 13 -109 31zM361 1411l264 309h106l262 -309l-18 -27q-6 -9 -25 -18l-272 208l-272 -208q-4 2 -7.5 5t-5.5 3 q-6 4 -10 10l-10 10z" />
<glyph unicode="&#xdc;" horiz-adv-x="1337" d="M49 1217v43h451v-43q-78 -18 -107 -31q-39 -18 -39 -31v-661q0 -92 23 -172q20 -72 67 -129q41 -51 111 -80q61 -27 150 -27q74 0 126 33q51 31 93 92q39 59 57 127q18 72 18 145v672q0 12 -36 31q-25 12 -109 31v43h422v-43q-78 -18 -107 -31q-39 -18 -39 -31v-631 q0 -123 -32 -233q-31 -102 -92 -174q-63 -74 -146 -109q-90 -39 -194 -39q-98 0 -189 29q-86 27 -149 88q-66 63 -99 147q-35 92 -34 211v711q0 12 -37 31q-25 13 -109 31zM377 1499q0 31 8 53q8 20 27 43q18 20 35 29q29 12 45 12q86 0 86 -96q0 -27 -11 -54 q-9 -25 -24 -43q-14 -16 -35 -28.5t-47 -12.5q-43 0 -63.5 27t-20.5 70zM776 1499q0 27 10 53q9 25 25 43q16 20 37 29q29 12 45 12q84 0 84 -96q0 -31 -8 -54q-9 -25 -25 -43q-12 -14 -37 -28q-23 -12 -47 -13q-43 0 -63.5 27t-20.5 70z" />
<glyph unicode="&#xdd;" horiz-adv-x="1216" d="M0 1249q35 6 119 15q57 6 100 6q47 0 78 -39q43 -57 80 -113q39 -57 86 -139q57 -98 84 -150l76 -149l268 471q16 25 -10 41q-25 16 -101 25v43h396v-43q-53 -10 -105 -27q-35 -12 -51 -39l-336 -610v-426q0 -6 8 -14.5t29 -18.5q25 -12 51 -21q29 -8 78 -18v-43h-490v43 q82 16 127 39q37 18 37 33v422q-33 72 -84 170q-31 59 -96 170l-94 155l-28.5 42l-30 44.5t-23.5 32.5q-8 12 -21 20q-20 16 -28 19q-33 10 -45 12q-37 4 -70 4zM426 1411l387 317l11.5 -6t17.5 -10q8 -6 17 -10.5l17.5 -8.5t19.5 -11t13 -9q10 -6 23 -19l8 -45l-469 -243 q-18 6 -24 16q-2 2 -9.5 12.5z" />
<glyph unicode="&#xde;" horiz-adv-x="1069" d="M49 0v43q66 14 107 31q39 14 39 30v1051q0 12 -37 31q-25 12 -109 31v43h481v-43q-74 -12 -86 -16.5t-29.5 -9.5t-23.5 -7q-12 -4 -29 -15q-8 -6 -8 -14v-141q63 6 156 6q104 0 194.5 -22.5t149.5 -67.5q57 -43 94 -113q33 -63 33 -151q0 -68 -18 -125q-20 -61 -52 -103 q-33 -43 -75 -76q-45 -35 -88 -55q-47 -23 -91 -31q-61 -12 -84 -12q-51 0 -86 8q-47 10 -75 27l-23 70q45 -18 80 -25q27 -4 74 -4t96 18q53 20 92 54q43 37 69.5 88t26.5 125q0 84 -30 143q-33 63 -80 96q-49 35 -119 54q-68 18 -145 18q-66 0 -99 -2v-830q0 -8 8 -14 l29 -14q8 -4 53 -17q12 -4 86 -16v-43h-481z" />
<glyph unicode="&#xdf;" horiz-adv-x="1155" d="M55 0v43q74 14 105 29q35 18 35 30v859q0 115 16 200q14 76 45 137q29 57 61 91q49 49 76 69q57 45 121 68q68 25 139 24q88 0 146 -34q63 -39 98 -91q39 -59 53 -116q16 -70 17 -119q0 -80 -25 -133q-23 -49 -63 -86q-31 -29 -84 -53q-25 -10 -45.5 -21.5t-36.5 -19.5 q-41 -20 -64 -43q-27 -27 -26 -64q0 -33 18 -57q14 -18 51 -45q33 -23 72 -41q18 -10 38.5 -19.5t43.5 -21.5q33 -16 80 -49q49 -33 71 -62q35 -41 52 -84q18 -47 18 -108q0 -59 -18 -115q-18 -53 -62 -100q-39 -41 -104 -70q-68 -29 -154 -29q-16 0 -70 8q-40 6 -79 19 q-59 18 -72 24q-35 16 -39 27q-4 8 -4 23q0 6 -1 19t-1 21.5t1 25t1 26.5q0 35 2 51q4 33 6 45q2 16 10 25l39 -13q6 -51 33 -92q25 -35 59 -61q27 -20 76 -35q39 -12 78 -12q31 0 66 10q31 8 55 31q23 18 35 47q14 33 14 59q0 45 -20 90q-14 31 -52 68q-20 20 -73.5 53 t-81.5 47q-57 29 -84 45q-47 29 -72 53q-39 39 -53 68q-18 37 -19 88q0 66 25 109q25 45 61 71q33 25 80 45q37 16 80 41q37 22 62 49q25 29 24 78q0 55 -14 105q-18 61 -43 96q-33 47 -78 74q-47 29 -115 28q-49 0 -88 -18q-43 -20 -71 -64q-29 -45 -46 -124 q-16 -86 -16 -203v-1016h-289z" />
<glyph unicode="&#xe0;" horiz-adv-x="937" d="M80 186q0 76 26 127q29 51 64 88q20 20 55 45q23 16 80 41q43 18 127 39q51 12 191 35v141q0 37 -9 64q-10 31 -26 51q-18 20 -51 33q-29 10 -82 10q-29 0 -64 -10q-31 -8 -53 -29q-27 -23 -37 -43q-10 -23 -8 -53q0 -8 -21 -20q-27 -14 -51 -23q-12 -4 -33.5 -8 t-25.5 -4q-25 -6 -39 -2l-14 39q20 47 69 96q47 47 107 80q61 34 129 55q72 23 131 23q111 0 168 -58q59 -59 59 -162v-563q0 -41 12.5 -59.5t28.5 -18.5q23 0 37 4q33 10 61 23l15 -45q-92 -61 -140 -86q-53 -27 -84 -27q-33 0 -55 47q-20 45 -24 127q-45 -45 -91 -77 q-49 -35 -88 -56q-43 -23 -82 -30q-45 -10 -69 -11q-37 0 -74 12.5t-69 38.5q-25 20 -50 66q-20 39 -20 100zM244 229q0 -41 12 -65q12 -27 29 -39q18 -14 34 -21q12 -4 33 -4q59 0 127 31q63 29 144 96v258q-104 -18 -138 -26q-43 -10 -90 -27q-31 -10 -55 -29 q-33 -23 -39 -30q-27 -31 -41 -62q-16 -37 -16 -82zM186 1423l22 41q20 6 29 9q10 2 20.5 3t20.5 3l43 6q29 4 33 4l240 -412q-12 -12 -24.5 -18t-31.5 -12z" />
<glyph unicode="&#xe1;" horiz-adv-x="937" d="M80 186q0 76 26 127q29 51 64 88q20 20 55 45q23 16 80 41q43 18 127 39q51 12 191 35v141q0 37 -9 64q-10 31 -26 51q-18 20 -51 33q-29 10 -82 10q-29 0 -64 -10q-31 -8 -53 -29q-27 -23 -37 -43q-10 -23 -8 -53q0 -8 -21 -20q-27 -14 -51 -23q-12 -4 -33.5 -8 t-25.5 -4q-25 -6 -39 -2l-14 39q20 47 69 96q47 47 107 80q61 34 129 55q72 23 131 23q111 0 168 -58q59 -59 59 -162v-563q0 -41 12.5 -59.5t28.5 -18.5q23 0 37 4q33 10 61 23l15 -45q-92 -61 -140 -86q-53 -27 -84 -27q-33 0 -55 47q-20 45 -24 127q-45 -45 -91 -77 q-49 -35 -88 -56q-43 -23 -82 -30q-45 -10 -69 -11q-37 0 -74 12.5t-69 38.5q-25 20 -50 66q-20 39 -20 100zM244 229q0 -41 12 -65q12 -27 29 -39q18 -14 34 -21q12 -4 33 -4q59 0 127 31q63 29 144 96v258q-104 -18 -138 -26q-43 -10 -90 -27q-31 -10 -55 -29 q-33 -23 -39 -30q-27 -31 -41 -62q-16 -37 -16 -82zM381 1075l233 414q8 0 33 -4l41 -4q8 -2 20.5 -4t20.5 -4q14 -2 31 -7l22 -39l-344 -380q-16 2 -32 12q-15 8 -25 16z" />
<glyph unicode="&#xe2;" horiz-adv-x="937" d="M80 186q0 76 26 127q29 51 64 88q20 20 55 45q23 16 80 41q43 18 127 39q51 12 191 35v141q0 37 -9 64q-10 31 -26 51q-18 20 -51 33q-29 10 -82 10q-29 0 -64 -10q-31 -8 -53 -29q-27 -23 -37 -43q-10 -23 -8 -53q0 -8 -21 -20q-27 -14 -51 -23q-12 -4 -33.5 -8 t-25.5 -4q-25 -6 -39 -2l-14 39q20 47 69 96q47 47 107 80q61 34 129 55q72 23 131 23q111 0 168 -58q59 -59 59 -162v-563q0 -41 12.5 -59.5t28.5 -18.5q23 0 37 4q33 10 61 23l15 -45q-92 -61 -140 -86q-53 -27 -84 -27q-33 0 -55 47q-20 45 -24 127q-45 -45 -91 -77 q-49 -35 -88 -56q-43 -23 -82 -30q-45 -10 -69 -11q-37 0 -74 12.5t-69 38.5q-25 20 -50 66q-20 39 -20 100zM244 229q0 -41 12 -65q12 -27 29 -39q18 -14 34 -21q12 -4 33 -4q59 0 127 31q63 29 144 96v258q-104 -18 -138 -26q-43 -10 -90 -27q-31 -10 -55 -29 q-33 -23 -39 -30q-27 -31 -41 -62q-16 -37 -16 -82zM162 1092l264 378h106l262 -378l-18 -27q-6 -9 -25 -18l-272 268l-272 -268q-4 2 -7.5 5t-5.5 3q-6 4 -10 10l-10 10z" />
<glyph unicode="&#xe3;" horiz-adv-x="937" d="M80 186q0 76 26 127q29 51 64 88q20 20 55 45q23 16 80 41q43 18 127 39q51 12 191 35v141q0 37 -9 64q-10 31 -26 51q-18 20 -51 33q-29 10 -82 10q-29 0 -64 -10q-31 -8 -53 -29q-27 -23 -37 -43q-10 -23 -8 -53q0 -8 -21 -20q-27 -14 -51 -23q-12 -4 -33.5 -8 t-25.5 -4q-25 -6 -39 -2l-14 39q20 47 69 96q47 47 107 80q61 34 129 55q72 23 131 23q111 0 168 -58q59 -59 59 -162v-563q0 -41 12.5 -59.5t28.5 -18.5q23 0 37 4q33 10 61 23l15 -45q-92 -61 -140 -86q-53 -27 -84 -27q-33 0 -55 47q-20 45 -24 127q-45 -45 -91 -77 q-49 -35 -88 -56q-43 -23 -82 -30q-45 -10 -69 -11q-37 0 -74 12.5t-69 38.5q-25 20 -50 66q-20 39 -20 100zM244 229q0 -41 12 -65q12 -27 29 -39q18 -14 34 -21q12 -4 33 -4q59 0 127 31q63 29 144 96v258q-104 -18 -138 -26q-43 -10 -90 -27q-31 -10 -55 -29 q-33 -23 -39 -30q-27 -31 -41 -62q-16 -37 -16 -82zM139 1133q23 47 43 81q27 43 55 72q37 37 66 53q35 20 76 21q39 0 71 -19l64 -38l57 -39q27 -18 51 -19q35 0 74 33q37 31 72 90l53 -22q-18 -40 -43 -80q-27 -43 -55 -72q-33 -33 -68 -53.5t-74 -20.5q-37 0 -67 19 q-41 25 -62 39q-33 23 -59 39q-31 18 -57 18q-41 0 -74 -33q-29 -29 -70 -90z" />
<glyph unicode="&#xe4;" horiz-adv-x="937" d="M80 186q0 76 26 127q29 51 64 88q20 20 55 45q23 16 80 41q43 18 127 39q51 12 191 35v141q0 37 -9 64q-10 31 -26 51q-18 20 -51 33q-29 10 -82 10q-29 0 -64 -10q-31 -8 -53 -29q-27 -23 -37 -43q-10 -23 -8 -53q0 -8 -21 -20q-27 -14 -51 -23q-12 -4 -33.5 -8 t-25.5 -4q-25 -6 -39 -2l-14 39q20 47 69 96q47 47 107 80q61 34 129 55q72 23 131 23q111 0 168 -58q59 -59 59 -162v-563q0 -41 12.5 -59.5t28.5 -18.5q23 0 37 4q33 10 61 23l15 -45q-92 -61 -140 -86q-53 -27 -84 -27q-33 0 -55 47q-20 45 -24 127q-45 -45 -91 -77 q-49 -35 -88 -56q-43 -23 -82 -30q-45 -10 -69 -11q-37 0 -74 12.5t-69 38.5q-25 20 -50 66q-20 39 -20 100zM244 229q0 -41 12 -65q12 -27 29 -39q18 -14 34 -21q12 -4 33 -4q59 0 127 31q63 29 144 96v258q-104 -18 -138 -26q-43 -10 -90 -27q-31 -10 -55 -29 q-33 -23 -39 -30q-27 -31 -41 -62q-16 -37 -16 -82zM180 1221q0 31 8 53q8 20 27 43q18 20 35 29q25 10 45 10q86 0 86 -94q0 -27 -11 -54q-9 -25 -24 -43q-16 -20 -34.5 -30.5t-47.5 -10.5q-45 0 -64 25q-20 27 -20 72zM579 1221q0 27 10 53q9 25 25 43q16 20 37 29 q25 10 45 10q84 0 84 -94q0 -31 -8 -54q-9 -25 -24.5 -43t-37.5 -30q-18 -10 -47 -11q-45 0 -63 25q-21 27 -21 72z" />
<glyph unicode="&#xe5;" horiz-adv-x="937" d="M80 186q0 76 26 127q29 51 64 88q20 20 55 45q23 16 80 41q43 18 127 39q51 12 191 35v141q0 37 -9 64q-10 31 -26 51q-18 20 -51 33q-29 10 -82 10q-29 0 -64 -10q-31 -8 -53 -29q-27 -23 -37 -43q-10 -23 -8 -53q0 -8 -21 -20q-27 -14 -51 -23q-12 -4 -33.5 -8 t-25.5 -4q-25 -6 -39 -2l-14 39q20 47 69 96q47 47 107 80q61 34 129 55q72 23 131 23q111 0 168 -58q59 -59 59 -162v-563q0 -41 12.5 -59.5t28.5 -18.5q23 0 37 4q33 10 61 23l15 -45q-92 -61 -140 -86q-53 -27 -84 -27q-33 0 -55 47q-20 45 -24 127q-45 -45 -91 -77 q-49 -35 -88 -56q-43 -23 -82 -30q-45 -10 -69 -11q-37 0 -74 12.5t-69 38.5q-25 20 -50 66q-20 39 -20 100zM244 229q0 -41 12 -65q12 -27 29 -39q18 -14 34 -21q12 -4 33 -4q59 0 127 31q63 29 144 96v258q-104 -18 -138 -26q-43 -10 -90 -27q-31 -10 -55 -29 q-33 -23 -39 -30q-27 -31 -41 -62q-16 -37 -16 -82zM295 1204q0 51 18 94t51 76q31 31 70 49q35 16 78 17q33 0 59.5 -12.5t48.5 -34.5q20 -20 32.5 -49t12.5 -60q0 -51 -18 -94q-16 -39 -51 -74q-31 -31 -70 -49q-35 -16 -78 -16q-34 0 -61 12q-29 12 -49.5 32.5 t-32.5 49.5q-10 22 -10 59zM385 1245q0 -25 6 -45q8 -25 16 -37q16 -20 27 -26q16 -10 36.5 -10.5t39.5 6.5q14 6 32 22q15 15 25 37q8 18 8 51q0 23 -6 45q-8 29 -16 39q-16 20 -27 27q-16 10 -37 10q-23 0 -39 -8t-33 -25q-15 -15 -24 -37q-8 -18 -8 -49z" />
<glyph unicode="&#xe6;" horiz-adv-x="1415" d="M80 186q0 57 24 113q27 59 70 102t119 86q61 35 170 66q29 8 74 14q29 4 86 8v87q0 39 -7 75q-6 39 -22 64q-20 29 -47 43q-33 16 -80 16q-33 0 -68 -14q-37 -14 -65 -41q-29 -25 -43.5 -57.5t2.5 -71.5q2 -8 -19 -21q-12 -6 -51 -18q-43 -12 -59 -14q-35 -4 -41 -2 l-14 36q6 43 28 76q29 45 60 72q45 41 79 63q41 27 91 50q27 12 90 30q43 12 78 13q88 0 139 -37q55 -39 76 -109q35 45 67 70q39 29 72 43q49 20 72 24q45 8 63 9q61 0 109 -19q53 -20 81 -47q33 -31 58 -70q20 -35 39 -84q12 -37 20 -92q6 -46 6 -92q-14 -16 -51 -37 q-31 -18 -61 -31h-449q-2 -12 -2 -34v-37q0 -63 14.5 -114.5t47.5 -100.5q31 -46 73 -74q41 -27 99 -27q23 0 59 4q25 2 61 17q27 10 72 41q51 35 92 72q12 -6 23 -21q6 -8 14 -20q-66 -76 -110 -115q-57 -49 -95 -70q-35 -18 -90 -30q-47 -10 -90 -11q-45 0 -86 15 q-49 16 -80 41q-45 35 -69 65q-29 39 -52 88q-39 -45 -92 -90q-37 -29 -100 -65q-45 -25 -96 -39q-53 -14 -76 -15q-37 0 -74 12.5t-69 38.5q-25 20 -50 66q-20 39 -20 100zM244 229q0 -41 12 -65q12 -27 29 -39q18 -14 34 -21q12 -4 33 -4q31 0 62 9q41 10 71 26 q39 18 76 45q41 29 76 64q-8 37 -10 57q-4 41 -4 64v120q-37 -4 -60 -6q-25 -3 -37 -6q-150 -37 -217 -100q-65 -62 -65 -144zM784 580h349q18 0 30 8q8 6 8 28q0 45 -10 93q-10 45 -31 77q-18 31 -55 54q-33 20 -80 20q-29 0 -53 -10q-31 -12 -61 -43q-27 -27 -56 -84 t-41 -143z" />
<glyph unicode="&#xe7;" horiz-adv-x="894" d="M80 444q0 109 39 201q37 90 108 164q66 70 162 111q94 41 201 41q34 0 67 -7q29 -4 66 -16q33 -10 59 -25q23 -12 43 -32q2 -10 -4 -33q-2 -4 -5 -20.5t-7 -26.5q-12 -33 -21 -47q-4 -6 -10 -18.5t-10 -18.5l-37 10q-10 18 -26 39q-23 25 -46 41q-27 16 -69 31 q-41 12 -90 12q-55 0 -101 -23q-47 -25 -86 -71q-41 -53 -61 -117q-23 -74 -23 -164q0 -80 27 -156q23 -66 68 -116q41 -47 98 -76q53 -27 115 -27q37 0 53 2q20 2 51 17q23 10 66 39q45 31 94 73l39 -41q-66 -78 -115 -120q-55 -47 -90 -66q-47 -23 -82 -29q-2 0 -6 -1 t-6 -1l-27 -77q45 -10 53 -15q29 -10 45 -24q18 -15 30.5 -37t12.5 -49q0 -37 -18 -70q-23 -39 -53 -63q-37 -27 -97 -50q-53 -20 -141 -32l-20 49q43 8 88 22q31 10 59 31q25 18 33 33q10 20 10 33q0 35 -24 47q-29 14 -89 20l3 4q2 4 4 11.5t4 13.5l20 65q4 14 12.5 36 t16.5 48q-70 0 -141 33q-70 35 -123 94q-51 55 -86 150q-33 85 -33 198z" />
<glyph unicode="&#xe8;" horiz-adv-x="944" d="M80 434q0 72 14 131q12 55 45 123q27 55 70 109q37 45 92 84q22 15 49 30q10 6 58 25q33 12 59 18q31 6 57 7q61 0 114.5 -18.5t90.5 -49.5q43 -35 64 -70q31 -51 43 -86q16 -51 22 -92q8 -61 8 -88q-12 -14 -49 -37q-31 -18 -61 -31h-527q0 -74 23 -147q25 -78 59 -125 q47 -61 92 -86q55 -31 123 -31q18 0 60 4q29 2 63 19q41 18 76 41q53 35 98 72q12 -6 23 -21q6 -8 14 -20q-68 -74 -117 -117t-96 -70q-43 -25 -88 -31q-57 -8 -94 -8q-78 0 -146 33q-72 35 -122 94q-59 70 -86 146q-31 86 -31 192zM236 580h428q23 0 30.5 8t7.5 28 q0 14 -8 68q-4 29 -30 78q-20 37 -62 65q-39 27 -106 27q-57 0 -95 -18q-47 -23 -77 -58q-34 -37 -56 -86q-24 -55 -32 -112zM215 1423l22 41q20 6 29 9q10 2 20.5 3t20.5 3l43 6q29 4 33 4l240 -412q-12 -12 -24.5 -18t-31.5 -12z" />
<glyph unicode="&#xe9;" horiz-adv-x="944" d="M80 434q0 72 14 131q12 55 45 123q27 55 70 109q37 45 92 84q22 15 49 30q10 6 58 25q33 12 59 18q31 6 57 7q61 0 114.5 -18.5t90.5 -49.5q43 -35 64 -70q31 -51 43 -86q16 -51 22 -92q8 -61 8 -88q-12 -14 -49 -37q-31 -18 -61 -31h-527q0 -74 23 -147q25 -78 59 -125 q47 -61 92 -86q55 -31 123 -31q18 0 60 4q29 2 63 19q41 18 76 41q53 35 98 72q12 -6 23 -21q6 -8 14 -20q-68 -74 -117 -117t-96 -70q-43 -25 -88 -31q-57 -8 -94 -8q-78 0 -146 33q-72 35 -122 94q-59 70 -86 146q-31 86 -31 192zM236 580h428q23 0 30.5 8t7.5 28 q0 14 -8 68q-4 29 -30 78q-20 37 -62 65q-39 27 -106 27q-57 0 -95 -18q-47 -23 -77 -58q-34 -37 -56 -86q-24 -55 -32 -112zM410 1075l233 414q8 0 33 -4l41 -4q8 -2 20.5 -4t20.5 -4q14 -2 31 -7l22 -39l-344 -380q-16 2 -32 12q-15 8 -25 16z" />
<glyph unicode="&#xea;" horiz-adv-x="944" d="M80 434q0 72 14 131q12 55 45 123q27 55 70 109q37 45 92 84q22 15 49 30q10 6 58 25q33 12 59 18q31 6 57 7q61 0 114.5 -18.5t90.5 -49.5q43 -35 64 -70q31 -51 43 -86q16 -51 22 -92q8 -61 8 -88q-12 -14 -49 -37q-31 -18 -61 -31h-527q0 -74 23 -147q25 -78 59 -125 q47 -61 92 -86q55 -31 123 -31q18 0 60 4q29 2 63 19q41 18 76 41q53 35 98 72q12 -6 23 -21q6 -8 14 -20q-68 -74 -117 -117t-96 -70q-43 -25 -88 -31q-57 -8 -94 -8q-78 0 -146 33q-72 35 -122 94q-59 70 -86 146q-31 86 -31 192zM236 580h428q23 0 30.5 8t7.5 28 q0 14 -8 68q-4 29 -30 78q-20 37 -62 65q-39 27 -106 27q-57 0 -95 -18q-47 -23 -77 -58q-34 -37 -56 -86q-24 -55 -32 -112zM193 1092l264 378h106l262 -378l-18 -27q-6 -9 -25 -18l-272 268l-272 -268q-4 2 -7.5 5t-5.5 3q-6 4 -10 10l-10 10z" />
<glyph unicode="&#xeb;" horiz-adv-x="944" d="M80 434q0 72 14 131q12 55 45 123q27 55 70 109q37 45 92 84q22 15 49 30q10 6 58 25q33 12 59 18q31 6 57 7q61 0 114.5 -18.5t90.5 -49.5q43 -35 64 -70q31 -51 43 -86q16 -51 22 -92q8 -61 8 -88q-12 -14 -49 -37q-31 -18 -61 -31h-527q0 -74 23 -147q25 -78 59 -125 q47 -61 92 -86q55 -31 123 -31q18 0 60 4q29 2 63 19q41 18 76 41q53 35 98 72q12 -6 23 -21q6 -8 14 -20q-68 -74 -117 -117t-96 -70q-43 -25 -88 -31q-57 -8 -94 -8q-78 0 -146 33q-72 35 -122 94q-59 70 -86 146q-31 86 -31 192zM236 580h428q23 0 30.5 8t7.5 28 q0 14 -8 68q-4 29 -30 78q-20 37 -62 65q-39 27 -106 27q-57 0 -95 -18q-47 -23 -77 -58q-34 -37 -56 -86q-24 -55 -32 -112zM209 1221q0 31 8 53q8 20 27 43q18 20 35 29q25 10 45 10q86 0 86 -94q0 -27 -11 -54q-9 -25 -24 -43q-16 -20 -34.5 -30.5t-47.5 -10.5 q-45 0 -64 25q-20 27 -20 72zM608 1221q0 27 10 53q9 25 25 43q16 20 37 29q25 10 45 10q84 0 84 -94q0 -31 -8 -54q-9 -25 -24.5 -43t-37.5 -30q-18 -10 -47 -11q-45 0 -63 25q-21 27 -21 72z" />
<glyph unicode="&#xec;" horiz-adv-x="552" d="M70 0v43q68 15 104.5 30.5t36.5 30.5v566q0 61 -2 82q-2 29 -16 49q-10 16 -41 26q-12 4 -82 13v41q49 10 65 14l70 18q23 6 63.5 22.5t57.5 25.5h34v-857q0 -12 33 -30q25 -14 107 -31v-43h-430zM-8 1423l22 41q20 6 29 9q10 2 20.5 3t20.5 3l43 6q29 4 33 4l240 -412 q-12 -12 -24.5 -18t-31.5 -12z" />
<glyph unicode="&#xed;" horiz-adv-x="552" d="M70 0v43q68 15 104.5 30.5t36.5 30.5v566q0 61 -2 82q-2 29 -16 49q-10 16 -41 26q-12 4 -82 13v41q49 10 65 14l70 18q23 6 63.5 22.5t57.5 25.5h34v-857q0 -12 33 -30q25 -14 107 -31v-43h-430zM184 1075l233 414q8 0 33 -4l41 -4q8 -2 20.5 -4t20.5 -4q14 -2 31 -7 l22 -39l-344 -380q-16 2 -32 12q-15 8 -25 16z" />
<glyph unicode="&#xee;" horiz-adv-x="552" d="M70 0v43q68 15 104.5 30.5t36.5 30.5v566q0 61 -2 82q-2 29 -16 49q-10 16 -41 26q-12 4 -82 13v41q49 10 65 14l70 18q23 6 63.5 22.5t57.5 25.5h34v-857q0 -12 33 -30q25 -14 107 -31v-43h-430zM-32 1092l264 378h106l262 -378l-18 -27q-6 -9 -25 -18l-272 268 l-272 -268q-4 2 -7.5 5t-5.5 3q-6 4 -10 10l-10 10z" />
<glyph unicode="&#xef;" horiz-adv-x="552" d="M70 0v43q68 15 104.5 30.5t36.5 30.5v566q0 61 -2 82q-2 29 -16 49q-10 16 -41 26q-12 4 -82 13v41q49 10 65 14l70 18q23 6 63.5 22.5t57.5 25.5h34v-857q0 -12 33 -30q25 -14 107 -31v-43h-430zM-14 1221q0 31 8 53q8 20 27 43q18 20 35 29q25 10 45 10q86 0 86 -94 q0 -27 -11 -54q-9 -25 -24 -43q-16 -20 -34.5 -30.5t-47.5 -10.5q-45 0 -64 25q-20 27 -20 72zM385 1221q0 27 10 53q9 25 25 43q16 20 37 29q25 10 45 10q84 0 84 -94q0 -31 -8 -54q-9 -25 -24.5 -43t-37.5 -30q-18 -10 -47 -11q-45 0 -63 25q-21 27 -21 72z" />
<glyph unicode="&#xf0;" horiz-adv-x="1019" d="M80 444q0 59 16 129q12 55 45 123q20 45 70 105q39 47 88 84q43 33 100 55q49 20 107 21q27 0 61.5 -10.5t65.5 -28.5q41 -25 61 -41q35 -27 56 -52q-27 94 -78 183q-47 80 -121 153l-227 -98q-18 2 -29 2q-4 0 -10 2t-9 2q-4 0 -16 4q-4 0 -11 3t-16 5l-10 37l254 111 q-35 31 -55 43q-41 25 -64 33q-35 12 -69 18q-37 6 -78 0l-6 41l201 72q102 -66 196 -154l209 92l37 -6q4 0 10 -1t10 -3q2 0 8.5 -1t8.5 -3q12 -6 20 -8l6 -35l-237 -102q68 -74 119 -154q55 -86 81 -156q29 -74 45.5 -159.5t16.5 -157.5q0 -111 -23 -207q-20 -88 -59 -160 q-41 -76 -82 -119q-43 -45 -94 -77q-45 -29 -96 -45q-43 -14 -86 -15q-98 0 -174 37q-84 41 -132 98q-55 68 -81 152q-29 90 -29 188zM236 473q0 -80 24 -151q20 -61 68 -125q41 -57 88 -86q49 -31 90 -31q59 0 106 26.5t88 86.5q40 58 62 147q23 94 22 211q0 2 1 8t1 10 t-1 8.5t-1 8.5q-16 53 -53 106q-33 47 -76 84t-90 55q-45 18 -90 19q-57 0 -104 -29q-39 -23 -74 -80q-31 -51 -47 -118q-14 -64 -14 -150z" />
<glyph unicode="&#xf1;" horiz-adv-x="1128" d="M55 0v43q72 20 103 31q37 12 37 30v607q0 47 -2 61q-4 25 -16.5 37t-43.5 18.5t-78 12.5v41q82 14 125 30q61 23 115 50l35 -35l12 -250q39 61 96.5 118.5t106.5 90.5q55 37 104 55q55 20 90 20.5t82 -14.5q43 -12 72 -39q31 -29 49 -69q18 -43 19 -97v-637q0 -16 30 -28 q27 -10 109 -33v-43h-430v43q80 20 106 33q35 16 35 28v529q0 49 -8 98q-6 39 -23 62q-14 18 -39 28q-23 8 -59 8q-35 0 -70 -14q-43 -18 -80 -47q-47 -37 -92 -88t-96 -131v-445q0 -14 39 -30q35 -14 102 -31v-43h-430zM236 1133q23 47 43 81q27 43 55 72q37 37 66 53 q35 20 76 21q39 0 71 -19l64 -38l57 -39q27 -18 51 -19q35 0 74 33q37 31 72 90l53 -22q-18 -40 -43 -80q-27 -43 -55 -72q-33 -33 -68 -53.5t-74 -20.5q-37 0 -67 19q-41 25 -62 39q-33 23 -59 39q-31 18 -57 18q-41 0 -74 -33q-29 -29 -70 -90z" />
<glyph unicode="&#xf2;" horiz-adv-x="1028" d="M80 444q0 59 16 129q14 61 47 123t70 105q45 51 92 84t109 55q55 20 121 21q92 0 170 -37q80 -39 131 -98.5t84 -151.5q31 -86 30 -189q0 -74 -16 -131q-20 -68 -47 -121q-29 -55 -74 -106t-92 -84q-53 -37 -107 -53q-66 -20 -118 -21q-95 0 -172 37q-80 39 -131.5 98.5 t-83.5 151.5q-29 79 -29 188zM236 473q0 -84 26 -151q27 -66 72 -125.5t92 -85.5q52 -31 98 -31q70 0 121 26q49 27 84 76q34 49 49 117q16 72 17 156q0 76 -27 151q-23 66 -66 125q-39 53 -94 86t-102 33q-74 0 -127 -29q-51 -27 -84 -80q-29 -45 -45 -118 q-14 -64 -14 -150zM242 1423l22 41q20 6 29 9q10 2 20.5 3t20.5 3l43 6q29 4 33 4l240 -412q-12 -12 -24.5 -18t-31.5 -12z" />
<glyph unicode="&#xf3;" horiz-adv-x="1028" d="M80 444q0 59 16 129q14 61 47 123t70 105q45 51 92 84t109 55q55 20 121 21q92 0 170 -37q80 -39 131 -98.5t84 -151.5q31 -86 30 -189q0 -74 -16 -131q-20 -68 -47 -121q-29 -55 -74 -106t-92 -84q-53 -37 -107 -53q-66 -20 -118 -21q-95 0 -172 37q-80 39 -131.5 98.5 t-83.5 151.5q-29 79 -29 188zM236 473q0 -84 26 -151q27 -66 72 -125.5t92 -85.5q52 -31 98 -31q70 0 121 26q49 27 84 76q34 49 49 117q16 72 17 156q0 76 -27 151q-23 66 -66 125q-39 53 -94 86t-102 33q-74 0 -127 -29q-51 -27 -84 -80q-29 -45 -45 -118 q-14 -64 -14 -150zM434 1075l233 414q8 0 33 -4l41 -4q8 -2 20.5 -4t20.5 -4q14 -2 31 -7l22 -39l-344 -380q-16 2 -32 12q-15 8 -25 16z" />
<glyph unicode="&#xf4;" horiz-adv-x="1028" d="M80 444q0 59 16 129q14 61 47 123t70 105q45 51 92 84t109 55q55 20 121 21q92 0 170 -37q80 -39 131 -98.5t84 -151.5q31 -86 30 -189q0 -74 -16 -131q-20 -68 -47 -121q-29 -55 -74 -106t-92 -84q-53 -37 -107 -53q-66 -20 -118 -21q-95 0 -172 37q-80 39 -131.5 98.5 t-83.5 151.5q-29 79 -29 188zM236 473q0 -84 26 -151q27 -66 72 -125.5t92 -85.5q52 -31 98 -31q70 0 121 26q49 27 84 76q34 49 49 117q16 72 17 156q0 76 -27 151q-23 66 -66 125q-39 53 -94 86t-102 33q-74 0 -127 -29q-51 -27 -84 -80q-29 -45 -45 -118 q-14 -64 -14 -150zM218 1092l264 378h106l262 -378l-18 -27q-6 -9 -25 -18l-272 268l-272 -268q-4 2 -7.5 5t-5.5 3q-6 4 -10 10l-10 10z" />
<glyph unicode="&#xf5;" horiz-adv-x="1028" d="M80 444q0 59 16 129q14 61 47 123t70 105q45 51 92 84t109 55q55 20 121 21q92 0 170 -37q80 -39 131 -98.5t84 -151.5q31 -86 30 -189q0 -74 -16 -131q-20 -68 -47 -121q-29 -55 -74 -106t-92 -84q-53 -37 -107 -53q-66 -20 -118 -21q-95 0 -172 37q-80 39 -131.5 98.5 t-83.5 151.5q-29 79 -29 188zM236 473q0 -84 26 -151q27 -66 72 -125.5t92 -85.5q52 -31 98 -31q70 0 121 26q49 27 84 76q34 49 49 117q16 72 17 156q0 76 -27 151q-23 66 -66 125q-39 53 -94 86t-102 33q-74 0 -127 -29q-51 -27 -84 -80q-29 -45 -45 -118 q-14 -64 -14 -150zM195 1133q23 47 43 81q27 43 55 72q37 37 66 53q35 20 76 21q39 0 71 -19l64 -38l57 -39q27 -18 51 -19q35 0 74 33q37 31 72 90l53 -22q-18 -40 -43 -80q-27 -43 -55 -72q-33 -33 -68 -53.5t-74 -20.5q-37 0 -67 19q-41 25 -62 39q-33 23 -59 39 q-31 18 -57 18q-41 0 -74 -33q-29 -29 -70 -90z" />
<glyph unicode="&#xf6;" horiz-adv-x="1028" d="M80 444q0 59 16 129q14 61 47 123t70 105q45 51 92 84t109 55q55 20 121 21q92 0 170 -37q80 -39 131 -98.5t84 -151.5q31 -86 30 -189q0 -74 -16 -131q-20 -68 -47 -121q-29 -55 -74 -106t-92 -84q-53 -37 -107 -53q-66 -20 -118 -21q-95 0 -172 37q-80 39 -131.5 98.5 t-83.5 151.5q-29 79 -29 188zM236 473q0 -84 26 -151q27 -66 72 -125.5t92 -85.5q52 -31 98 -31q70 0 121 26q49 27 84 76q34 49 49 117q16 72 17 156q0 76 -27 151q-23 66 -66 125q-39 53 -94 86t-102 33q-74 0 -127 -29q-51 -27 -84 -80q-29 -45 -45 -118 q-14 -64 -14 -150zM236 1221q0 31 8 53q8 20 27 43q18 20 35 29q25 10 45 10q86 0 86 -94q0 -27 -11 -54q-9 -25 -24 -43q-16 -20 -34.5 -30.5t-47.5 -10.5q-45 0 -64 25q-20 27 -20 72zM635 1221q0 27 10 53q9 25 25 43q16 20 37 29q25 10 45 10q84 0 84 -94q0 -31 -8 -54 q-9 -25 -24.5 -43t-37.5 -30q-18 -10 -47 -11q-45 0 -63 25q-21 27 -21 72z" />
<glyph unicode="&#xf7;" horiz-adv-x="839" d="M61 530l13 43l18 43h662l24 -22q-8 -29 -14 -45q-12 -33 -16 -41h-662zM340 307q0 22 6 43q4 14 21 35q10 14 28 23q16 8 37 8q68 0 68 -76q0 -12 -8 -41q-6 -22 -19 -37q-10 -12 -31 -22q-16 -8 -34 -9q-37 0 -52 21q-16 22 -16 55zM340 788q0 18 6 41q4 14 21 35 q10 14 28 23q20 10 37 10q68 0 68 -78q0 -12 -8 -41q-6 -18 -19 -35q-12 -15 -31 -24q-16 -8 -34 -8q-37 0 -52 20q-16 22 -16 57z" />
<glyph unicode="&#xf8;" horiz-adv-x="1028" d="M80 444q0 59 16 129q14 61 47 123t70 105q45 51 92 84t109 55q55 20 121 21q63 0 129 -21q59 -18 108 -55l21 28l28 19l33 20l31 19q15 9 30 12l31 -33l-102 -135q49 -59 78 -147q29 -86 28 -183q0 -74 -16 -131q-20 -68 -47 -121q-29 -55 -74 -106t-92 -84 q-53 -37 -107 -53q-66 -20 -118 -21q-61 0 -127 21q-57 18 -109 53l-18 -25q-9 -9 -25 -18q-16 -10 -35 -20q-6 -4 -17 -10.5l-18 -10.5q-18 -9 -30 -12l-29 33l100 133q-53 66 -79 147q-29 90 -29 184zM233 473q0 -57 17 -117q12 -45 45 -102l383 508q-35 37 -84 65 q-39 23 -88 23q-74 0 -127 -29q-49 -27 -86 -80q-27 -39 -45 -118q-15 -64 -15 -150zM356 170q35 -37 84 -66q43 -25 84 -24q72 0 123 26q49 27 84 76q34 49 49 117q16 72 17 156q0 57 -17 116q-14 51 -41 105z" />
<glyph unicode="&#xf9;" horiz-adv-x="1083" d="M41 854v41q45 4 68 8q41 8 61 15l59 18q12 4 34 13t30 12l26 -39v-588q0 -66 11 -117q8 -43 30 -76q16 -25 48 -39q27 -12 65 -12q29 0 66 10q39 10 69 29q35 20 74 53q45 39 84 80v449q0 16 -6 71q-3 28 -19 43q-14 14 -43 21q-20 4 -73 8v41q84 10 139 27q29 8 121 39 l30 -39v-668q0 -47 5 -100q3 -40 18 -50q10 -8 41 -4q20 2 80 27l10 -45q-37 -25 -72 -45q-8 -6 -61 -35q-4 -2 -51 -22q-25 -10 -35 -11q-35 0 -57 47q-20 43 -27 150q-53 -53 -115 -100q-47 -35 -94 -60q-45 -23 -80 -29q-49 -8 -69 -8q-39 0 -91 15q-41 12 -75 47 q-33 33 -52 94q-20 68 -20 154v432q0 57 -2 75q-2 25 -16 39q-12 12 -39 19q-6 2 -72 10zM252 1423l22 41q20 6 29 9q10 2 20.5 3t20.5 3l43 6q29 4 33 4l240 -412q-12 -12 -24.5 -18t-31.5 -12z" />
<glyph unicode="&#xfa;" horiz-adv-x="1083" d="M41 854v41q45 4 68 8q41 8 61 15l59 18q12 4 34 13t30 12l26 -39v-588q0 -66 11 -117q8 -43 30 -76q16 -25 48 -39q27 -12 65 -12q29 0 66 10q39 10 69 29q35 20 74 53q45 39 84 80v449q0 16 -6 71q-3 28 -19 43q-14 14 -43 21q-20 4 -73 8v41q84 10 139 27q29 8 121 39 l30 -39v-668q0 -47 5 -100q3 -40 18 -50q10 -8 41 -4q20 2 80 27l10 -45q-37 -25 -72 -45q-8 -6 -61 -35q-4 -2 -51 -22q-25 -10 -35 -11q-35 0 -57 47q-20 43 -27 150q-53 -53 -115 -100q-47 -35 -94 -60q-45 -23 -80 -29q-49 -8 -69 -8q-39 0 -91 15q-41 12 -75 47 q-33 33 -52 94q-20 68 -20 154v432q0 57 -2 75q-2 25 -16 39q-12 12 -39 19q-6 2 -72 10zM444 1075l233 414q8 0 33 -4l41 -4q8 -2 20.5 -4t20.5 -4q14 -2 31 -7l22 -39l-344 -380q-16 2 -32 12q-15 8 -25 16z" />
<glyph unicode="&#xfb;" horiz-adv-x="1083" d="M41 854v41q45 4 68 8q41 8 61 15l59 18q12 4 34 13t30 12l26 -39v-588q0 -66 11 -117q8 -43 30 -76q16 -25 48 -39q27 -12 65 -12q29 0 66 10q39 10 69 29q35 20 74 53q45 39 84 80v449q0 16 -6 71q-3 28 -19 43q-14 14 -43 21q-20 4 -73 8v41q84 10 139 27q29 8 121 39 l30 -39v-668q0 -47 5 -100q3 -40 18 -50q10 -8 41 -4q20 2 80 27l10 -45q-37 -25 -72 -45q-8 -6 -61 -35q-4 -2 -51 -22q-25 -10 -35 -11q-35 0 -57 47q-20 43 -27 150q-53 -53 -115 -100q-47 -35 -94 -60q-45 -23 -80 -29q-49 -8 -69 -8q-39 0 -91 15q-41 12 -75 47 q-33 33 -52 94q-20 68 -20 154v432q0 57 -2 75q-2 25 -16 39q-12 12 -39 19q-6 2 -72 10zM228 1092l264 378h106l262 -378l-18 -27q-6 -9 -25 -18l-272 268l-272 -268q-4 2 -7.5 5t-5.5 3q-6 4 -10 10l-10 10z" />
<glyph unicode="&#xfc;" horiz-adv-x="1083" d="M41 854v41q45 4 68 8q41 8 61 15l59 18q12 4 34 13t30 12l26 -39v-588q0 -66 11 -117q8 -43 30 -76q16 -25 48 -39q27 -12 65 -12q29 0 66 10q39 10 69 29q35 20 74 53q45 39 84 80v449q0 16 -6 71q-3 28 -19 43q-14 14 -43 21q-20 4 -73 8v41q84 10 139 27q29 8 121 39 l30 -39v-668q0 -47 5 -100q3 -40 18 -50q10 -8 41 -4q20 2 80 27l10 -45q-37 -25 -72 -45q-8 -6 -61 -35q-4 -2 -51 -22q-25 -10 -35 -11q-35 0 -57 47q-20 43 -27 150q-53 -53 -115 -100q-47 -35 -94 -60q-45 -23 -80 -29q-49 -8 -69 -8q-39 0 -91 15q-41 12 -75 47 q-33 33 -52 94q-20 68 -20 154v432q0 57 -2 75q-2 25 -16 39q-12 12 -39 19q-6 2 -72 10zM246 1221q0 31 8 53q8 20 27 43q18 20 35 29q25 10 45 10q86 0 86 -94q0 -27 -11 -54q-9 -25 -24 -43q-16 -20 -34.5 -30.5t-47.5 -10.5q-45 0 -64 25q-20 27 -20 72zM645 1221 q0 27 10 53q9 25 25 43q16 20 37 29q25 10 45 10q84 0 84 -94q0 -31 -8 -54q-9 -25 -24.5 -43t-37.5 -30q-18 -10 -47 -11q-45 0 -63 25q-21 27 -21 72z" />
<glyph unicode="&#xfd;" horiz-adv-x="1009" d="M-47 -446q0 4 12 22q14 23 31 41q25 29 37 41q22 22 37 31q49 -27 96 -31q8 -1 15 -1q38 0 69 13q16 6 43 29q14 12 47 53q23 27 49 72q16 27 41 84l29 69l-328 842q-8 27 -35 43q-14 10 -76 25v43h386v-43q-59 -8 -64 -10q-25 -6 -37 -13q-14 -6 -16 -18q-2 -10 4 -27 l246 -637l231 637q6 14 2 24.5t-18 18.5q-12 6 -37 12.5t-62 12.5v43h334v-43q-31 -6 -49 -13q-6 -2 -31 -14q-12 -6 -18 -16q-6 -9 -12 -25l-334 -901q-45 -115 -94 -190q-53 -82 -107 -129q-55 -49 -110.5 -74t-106.5 -25q-49 0 -70 4q-41 8 -55 13q-20 6 -37 18 q-12 10 -12 19zM430 1075l233 414q8 0 33 -4l41 -4q8 -2 20.5 -4t20.5 -4q14 -2 31 -7l22 -39l-344 -380q-16 2 -32 12q-15 8 -25 16z" />
<glyph unicode="&#xfe;" horiz-adv-x="1083" d="M55 -436q68 16 103 30q37 16 37 31v1671q0 45 -7 70q-6 27 -20 37q-20 16 -43 18q-55 6 -70 9v40q111 25 133 31q51 14 119 49l37 -34v-783q49 57 102 105q39 35 95 69q45 29 81.5 41.5t67.5 12.5q63 0 125 -33q57 -31 100 -92q39 -57 66 -148q25 -86 25 -196 q0 -53 -17 -119q-14 -59 -43 -119q-28 -58 -67 -111q-41 -53 -86 -90q-49 -40 -105 -61q-57 -23 -115 -23q-16 0 -40.5 6.5t-55.5 18.5q-27 10 -63 31q-29 16 -70 49v-449q0 -16 39 -33q29 -12 131 -28v-43h-459v43zM344 213q77 -61 148 -92q70 -31 139 -31q59 0 100 27 q49 31 76 71q33 49 47 103q16 61 16 117q0 102 -20 178q-22 80 -55 135q-33 53 -78 84t-94 31q-20 0 -48 -13q-31 -14 -65 -37q-31 -20 -80 -69q-45 -45 -86 -107v-397z" />
<glyph unicode="&#xff;" horiz-adv-x="1009" d="M-47 -446q0 4 12 22q14 23 31 41q25 29 37 41q22 22 37 31q49 -27 96 -31q8 -1 15 -1q38 0 69 13q16 6 43 29q14 12 47 53q23 27 49 72q16 27 41 84l29 69l-328 842q-8 27 -35 43q-14 10 -76 25v43h386v-43q-59 -8 -64 -10q-25 -6 -37 -13q-14 -6 -16 -18q-2 -10 4 -27 l246 -637l231 637q6 14 2 24.5t-18 18.5q-12 6 -37 12.5t-62 12.5v43h334v-43q-31 -6 -49 -13q-6 -2 -31 -14q-12 -6 -18 -16q-6 -9 -12 -25l-334 -901q-45 -115 -94 -190q-53 -82 -107 -129q-55 -49 -110.5 -74t-106.5 -25q-49 0 -70 4q-41 8 -55 13q-20 6 -37 18 q-12 10 -12 19zM229 1221q0 31 8 53q8 20 27 43q18 20 35 29q25 10 45 10q86 0 86 -94q0 -27 -11 -54q-9 -25 -24 -43q-16 -20 -34.5 -30.5t-47.5 -10.5q-45 0 -64 25q-20 27 -20 72zM628 1221q0 27 10 53q9 25 25 43q16 20 37 29q25 10 45 10q84 0 84 -94q0 -31 -8 -54 q-9 -25 -24.5 -43t-37.5 -30q-18 -10 -47 -11q-45 0 -63 25q-21 27 -21 72z" />
<glyph unicode="&#x100;" horiz-adv-x="1218" d="M0 0v43q70 12 109 25q40 12 49 43l372 1126q16 18 58 45q12 8 32.5 19.5t26.5 15.5l420 -1206q4 -12 14 -25q4 -6 25 -18q12 -8 37 -15q25 -8 55 -10v-43h-422v43q80 6 109 20q31 14 18 48l-115 333h-407l-111 -333q-8 -31 27 -45q31 -12 119 -23v-43h-416zM412 535h346 l-176 514zM270 1478q4 16 8 27q2 6 5 14t5 14q4 6 6.5 12.5t6.5 14.5l12 25h612l23 -25q-2 -10 -8 -24q-2 -4 -5.5 -14.5l-5.5 -16.5l-12 -29q-4 -10 -8 -22h-616z" />
<glyph unicode="&#x101;" horiz-adv-x="937" d="M80 186q0 76 26 127q29 51 64 88q20 20 55 45q23 16 80 41q43 18 127 39q51 12 191 35v141q0 37 -9 64q-10 31 -26 51q-18 20 -51 33q-29 10 -82 10q-29 0 -64 -10q-31 -8 -53 -29q-27 -23 -37 -43q-10 -23 -8 -53q0 -8 -21 -20q-27 -14 -51 -23q-12 -4 -33.5 -8 t-25.5 -4q-25 -6 -39 -2l-14 39q20 47 69 96q47 47 107 80q61 34 129 55q72 23 131 23q111 0 168 -58q59 -59 59 -162v-563q0 -41 12.5 -59.5t28.5 -18.5q23 0 37 4q33 10 61 23l15 -45q-92 -61 -140 -86q-53 -27 -84 -27q-33 0 -55 47q-20 45 -24 127q-45 -45 -91 -77 q-49 -35 -88 -56q-43 -23 -82 -30q-45 -10 -69 -11q-37 0 -74 12.5t-69 38.5q-25 20 -50 66q-20 39 -20 100zM244 229q0 -41 12 -65q12 -27 29 -39q18 -14 34 -21q12 -4 33 -4q59 0 127 31q63 29 144 96v258q-104 -18 -138 -26q-43 -10 -90 -27q-31 -10 -55 -29 q-33 -23 -39 -30q-27 -31 -41 -62q-16 -37 -16 -82zM152 1200q2 10 8 25q2 4 5 14t5 14l13 29q8 16 12 23h612l23 -25q-2 -10 -8 -25q-2 -6 -5.5 -14t-5.5 -14l-12 -29q-4 -10 -8 -22h-616z" />
<glyph unicode="&#x102;" horiz-adv-x="1218" d="M0 0v43q70 12 109 25q40 12 49 43l372 1126q16 18 58 45q12 8 32.5 19.5t26.5 15.5l420 -1206q4 -12 14 -25q4 -6 25 -18q12 -8 37 -15q25 -8 55 -10v-43h-422v43q80 6 109 20q31 14 18 48l-115 333h-407l-111 -333q-8 -31 27 -45q31 -12 119 -23v-43h-416zM412 535h346 l-176 514zM274 1679q10 16 25 26q16 12 29 19q25 -57 57 -96q33 -37 67 -62q39 -27 74 -35q41 -10 72 -10q27 0 72 10q37 8 75 35q41 27 70 61.5t55 96.5q18 -9 31 -19q10 -6 23 -26q-31 -80 -68 -135q-41 -61 -78 -90q-43 -35 -88 -50q-49 -16 -88 -16q-47 0 -96 16 q-45 14 -88 50q-37 29 -78 90q-33 47 -66 135z" />
<glyph unicode="&#x103;" horiz-adv-x="937" d="M80 186q0 76 26 127q29 51 64 88q20 20 55 45q23 16 80 41q43 18 127 39q51 12 191 35v141q0 37 -9 64q-10 31 -26 51q-18 20 -51 33q-29 10 -82 10q-29 0 -64 -10q-31 -8 -53 -29q-27 -23 -37 -43q-10 -23 -8 -53q0 -8 -21 -20q-27 -14 -51 -23q-12 -4 -33.5 -8 t-25.5 -4q-25 -6 -39 -2l-14 39q20 47 69 96q47 47 107 80q61 34 129 55q72 23 131 23q111 0 168 -58q59 -59 59 -162v-563q0 -41 12.5 -59.5t28.5 -18.5q23 0 37 4q33 10 61 23l15 -45q-92 -61 -140 -86q-53 -27 -84 -27q-33 0 -55 47q-20 45 -24 127q-45 -45 -91 -77 q-49 -35 -88 -56q-43 -23 -82 -30q-45 -10 -69 -11q-37 0 -74 12.5t-69 38.5q-25 20 -50 66q-20 39 -20 100zM244 229q0 -41 12 -65q12 -27 29 -39q18 -14 34 -21q12 -4 33 -4q59 0 127 31q63 29 144 96v258q-104 -18 -138 -26q-43 -10 -90 -27q-31 -10 -55 -29 q-33 -23 -39 -30q-27 -31 -41 -62q-16 -37 -16 -82zM155 1360q10 16 25 26q16 12 29 19q25 -57 57 -96q33 -37 67 -62q39 -27 74 -35q41 -10 72 -10q27 0 72 10q37 8 75 35q41 27 70 61.5t55 96.5q18 -9 31 -19q10 -6 23 -26q-31 -80 -68 -135q-41 -61 -78 -90 q-43 -35 -88 -50q-49 -16 -88 -16q-47 0 -96 16q-45 14 -88 50q-37 29 -78 90q-33 47 -66 135z" />
<glyph unicode="&#x106;" horiz-adv-x="1097" d="M70 586q0 162 49 291q49 131 131 221q84 92 192 141q115 51 234 51q104 0 190 -28q78 -27 133 -72q4 -6 -4 -21q-6 -12 -24 -32q-31 -37 -33 -39q-10 -10 -16.5 -17.5t-12.5 -13.5l-35 6q-57 49 -120 78q-66 29 -162 29q-34 0 -74 -13q-47 -14 -82 -39q-45 -31 -80 -71 q-37 -43 -67 -105q-27 -55 -47 -143q-16 -74 -17 -186q0 -135 39 -234q41 -102 98 -166q59 -66 136 -100q72 -33 145 -33q55 0 141 37t197 129q4 -2 10 -8q2 -2 5 -7t5 -8q8 -8 11 -12q4 -8 6 -10q-68 -72 -123 -115q-59 -47 -113 -73q-59 -31 -106 -41q-52 -12 -105 -13 q-92 0 -182 43q-96 47 -162 121q-74 82 -114 193q-43 113 -43 260zM436 1411l387 317l11.5 -6t17.5 -10q8 -6 17 -10.5l17.5 -8.5t19.5 -11t13 -9q10 -6 23 -19l8 -45l-469 -243q-18 6 -24 16q-2 2 -9.5 12.5z" />
<glyph unicode="&#x107;" horiz-adv-x="894" d="M80 444q0 109 39 201q37 90 108 164q66 70 162 111q94 41 201 41q34 0 67 -7q29 -4 66 -16q33 -10 59 -25q23 -12 43 -32q2 -10 -4 -33q-2 -4 -5 -20.5t-7 -26.5q-12 -33 -21 -47q-4 -6 -10 -18.5t-10 -18.5l-37 10q-10 18 -26 39q-23 25 -46 41q-27 16 -69 31 q-41 12 -90 12q-55 0 -101 -23q-47 -25 -86 -71q-41 -53 -61 -117q-23 -74 -23 -164q0 -80 27 -156q23 -66 68 -116q41 -47 98 -76q53 -27 115 -27q37 0 53 2q20 2 51 17q23 10 66 39q45 31 94 73l39 -41q-66 -78 -115 -120q-55 -47 -90 -66q-47 -23 -82 -29q-41 -6 -88 -6 q-76 0 -143.5 33t-122.5 94q-51 55 -86 150q-33 85 -33 198zM389 1075l233 414q8 0 33 -4l41 -4q8 -2 20.5 -4t20.5 -4q14 -2 31 -7l22 -39l-344 -380q-16 2 -32 12q-15 8 -25 16z" />
<glyph unicode="&#x108;" horiz-adv-x="1097" d="M70 586q0 162 49 291q49 131 131 221q84 92 192 141q115 51 234 51q104 0 190 -28q78 -27 133 -72q4 -6 -4 -21q-6 -12 -24 -32q-31 -37 -33 -39q-10 -10 -16.5 -17.5t-12.5 -13.5l-35 6q-57 49 -120 78q-66 29 -162 29q-34 0 -74 -13q-47 -14 -82 -39q-45 -31 -80 -71 q-37 -43 -67 -105q-27 -55 -47 -143q-16 -74 -17 -186q0 -135 39 -234q41 -102 98 -166q59 -66 136 -100q72 -33 145 -33q55 0 141 37t197 129q4 -2 10 -8q2 -2 5 -7t5 -8q8 -8 11 -12q4 -8 6 -10q-68 -72 -123 -115q-59 -47 -113 -73q-59 -31 -106 -41q-52 -12 -105 -13 q-92 0 -182 43q-96 47 -162 121q-74 82 -114 193q-43 113 -43 260zM297 1411l264 309h106l262 -309l-18 -27q-6 -9 -25 -18l-272 208l-272 -208q-4 2 -7.5 5t-5.5 3q-6 4 -10 10l-10 10z" />
<glyph unicode="&#x109;" horiz-adv-x="894" d="M80 444q0 109 39 201q37 90 108 164q66 70 162 111q94 41 201 41q34 0 67 -7q29 -4 66 -16q33 -10 59 -25q23 -12 43 -32q2 -10 -4 -33q-2 -4 -5 -20.5t-7 -26.5q-12 -33 -21 -47q-4 -6 -10 -18.5t-10 -18.5l-37 10q-10 18 -26 39q-23 25 -46 41q-27 16 -69 31 q-41 12 -90 12q-55 0 -101 -23q-47 -25 -86 -71q-41 -53 -61 -117q-23 -74 -23 -164q0 -80 27 -156q23 -66 68 -116q41 -47 98 -76q53 -27 115 -27q37 0 53 2q20 2 51 17q23 10 66 39q45 31 94 73l39 -41q-66 -78 -115 -120q-55 -47 -90 -66q-47 -23 -82 -29q-41 -6 -88 -6 q-76 0 -143.5 33t-122.5 94q-51 55 -86 150q-33 85 -33 198zM173 1092l264 378h106l262 -378l-18 -27q-6 -9 -25 -18l-272 268l-272 -268q-4 2 -7.5 5t-5.5 3q-6 4 -10 10l-10 10z" />
<glyph unicode="&#x10a;" horiz-adv-x="1097" d="M70 586q0 162 49 291q49 131 131 221q84 92 192 141q115 51 234 51q104 0 190 -28q78 -27 133 -72q4 -6 -4 -21q-6 -12 -24 -32q-31 -37 -33 -39q-10 -10 -16.5 -17.5t-12.5 -13.5l-35 6q-57 49 -120 78q-66 29 -162 29q-34 0 -74 -13q-47 -14 -82 -39q-45 -31 -80 -71 q-37 -43 -67 -105q-27 -55 -47 -143q-16 -74 -17 -186q0 -135 39 -234q41 -102 98 -166q59 -66 136 -100q72 -33 145 -33q55 0 141 37t197 129q4 -2 10 -8q2 -2 5 -7t5 -8q8 -8 11 -12q4 -8 6 -10q-68 -72 -123 -115q-59 -47 -113 -73q-59 -31 -106 -41q-52 -12 -105 -13 q-92 0 -182 43q-96 47 -162 121q-74 82 -114 193q-43 113 -43 260zM514 1499q0 31 8 53q9 25 24 43q16 20 37 29q29 12 45 12q84 0 84 -96q0 -31 -8 -54q-9 -25 -25 -43q-12 -14 -36 -28q-23 -12 -45 -13q-45 0 -66 27q-18 25 -18 70z" />
<glyph unicode="&#x10b;" horiz-adv-x="894" d="M80 444q0 109 39 201q37 90 108 164q66 70 162 111q94 41 201 41q34 0 67 -7q29 -4 66 -16q33 -10 59 -25q23 -12 43 -32q2 -10 -4 -33q-2 -4 -5 -20.5t-7 -26.5q-12 -33 -21 -47q-4 -6 -10 -18.5t-10 -18.5l-37 10q-10 18 -26 39q-23 25 -46 41q-27 16 -69 31 q-41 12 -90 12q-55 0 -101 -23q-47 -25 -86 -71q-41 -53 -61 -117q-23 -74 -23 -164q0 -80 27 -156q23 -66 68 -116q41 -47 98 -76q53 -27 115 -27q37 0 53 2q20 2 51 17q23 10 66 39q45 31 94 73l39 -41q-66 -78 -115 -120q-55 -47 -90 -66q-47 -23 -82 -29q-41 -6 -88 -6 q-76 0 -143.5 33t-122.5 94q-51 55 -86 150q-33 85 -33 198zM392 1221q0 31 8 53q9 25 24 43q16 20 37 29q25 10 45 10q84 0 84 -94q0 -31 -8 -54q-9 -25 -24.5 -43t-36.5 -30q-18 -10 -45 -11q-47 0 -65.5 25t-18.5 72z" />
<glyph unicode="&#x10c;" horiz-adv-x="1097" d="M70 586q0 162 49 291q49 131 131 221q84 92 192 141q115 51 234 51q104 0 190 -28q78 -27 133 -72q4 -6 -4 -21q-6 -12 -24 -32q-31 -37 -33 -39q-10 -10 -16.5 -17.5t-12.5 -13.5l-35 6q-57 49 -120 78q-66 29 -162 29q-34 0 -74 -13q-47 -14 -82 -39q-45 -31 -80 -71 q-37 -43 -67 -105q-27 -55 -47 -143q-16 -74 -17 -186q0 -135 39 -234q41 -102 98 -166q59 -66 136 -100q72 -33 145 -33q55 0 141 37t197 129q4 -2 10 -8q2 -2 5 -7t5 -8q8 -8 11 -12q4 -8 6 -10q-68 -72 -123 -115q-59 -47 -113 -73q-59 -31 -106 -41q-52 -12 -105 -13 q-92 0 -182 43q-96 47 -162 121q-74 82 -114 193q-43 113 -43 260zM297 1697l7 10.5t5 6.5q8 8 10 12t10 8l5 5t8 5l274 -211l270 211q18 -9 25 -18q14 -23 18 -29l-262 -307h-106z" />
<glyph unicode="&#x10d;" horiz-adv-x="894" d="M80 444q0 109 39 201q37 90 108 164q66 70 162 111q94 41 201 41q34 0 67 -7q29 -4 66 -16q33 -10 59 -25q23 -12 43 -32q2 -10 -4 -33q-2 -4 -5 -20.5t-7 -26.5q-12 -33 -21 -47q-4 -6 -10 -18.5t-10 -18.5l-37 10q-10 18 -26 39q-23 25 -46 41q-27 16 -69 31 q-41 12 -90 12q-55 0 -101 -23q-47 -25 -86 -71q-41 -53 -61 -117q-23 -74 -23 -164q0 -80 27 -156q23 -66 68 -116q41 -47 98 -76q53 -27 115 -27q37 0 53 2q20 2 51 17q23 10 66 39q45 31 94 73l39 -41q-66 -78 -115 -120q-55 -47 -90 -66q-47 -23 -82 -29q-41 -6 -88 -6 q-76 0 -143.5 33t-122.5 94q-51 55 -86 150q-33 85 -33 198zM173 1427l12 19l10 10q4 6 10 10l13 9l274 -250l270 250q18 -9 25 -19q14 -23 18 -29l-262 -356h-106z" />
<glyph unicode="&#x10e;" horiz-adv-x="1212" d="M41 1231q12 4 102 22q16 4 121 19q86 12 129 14q86 4 125 4q145 0 250 -41q117 -45 193 -121q78 -78 120 -192q41 -109 41 -260q0 -125 -24 -223q-23 -90 -70 -174q-43 -77 -98 -129q-57 -53 -119 -87q-57 -31 -129 -47q-70 -16 -123 -16h-510v43q66 14 107 31 q39 14 39 30v1084q-12 -2 -38 -5t-38 -5q-20 -2 -38 -5.5t-32 -5.5zM354 154q0 -18 11 -35q14 -16 55 -27q35 -8 117 -8q72 0 143 33q70 31 133 102q59 66 100 172q39 102 39 246q0 137 -32 237q-37 111 -97 181q-61 72 -157 112q-90 39 -213 39q-33 0 -99 -4v-1048z M234 1697l7 10.5t5 6.5q8 8 10 12t10 8l5 5t8 5l274 -211l270 211q18 -9 25 -18q14 -23 18 -29l-262 -307h-106z" />
<glyph unicode="&#x110;" horiz-adv-x="1212" d="M27 639q6 23 10 33q4 12 12 33h146v483q-12 -2 -38 -5t-38 -5q-20 -2 -38 -5.5t-32 -5.5l-8 64q12 4 102 22q16 4 121 19q86 12 129 14q86 4 125 4q145 0 250 -41q117 -45 193 -121q78 -78 120 -192q41 -109 41 -260q0 -125 -24 -223q-23 -90 -70 -174q-43 -77 -98 -129 q-57 -53 -119 -87q-57 -31 -129 -47q-70 -16 -123 -16h-510v43q66 14 107 31q39 14 39 30v510h-146zM354 154q0 -18 11 -35q14 -16 55 -27q35 -8 117 -8q72 0 143 33q70 31 133 102q59 66 100 172q39 102 39 246q0 137 -32 237q-37 111 -97 181q-61 72 -157 112 q-90 39 -213 39q-33 0 -99 -4v-497h260l25 -23l-25 -68h-260v-460z" />
<glyph unicode="&#x111;" horiz-adv-x="1064" d="M80 444q0 51 16 117q14 59 43 119q25 51 72 108q35 43 94 89q51 39 114.5 61.5t131.5 22.5q47 0 94 -12.5t100 -51.5v244h-280l-23 20q2 6 5.5 17.5t5.5 17.5q10 33 12 35h280v43q0 43 -4 88q-2 33 -16 49q-15 18 -43 25q-33 8 -82 10v39q83 12 148 31q94 27 116 34 l31 -30v-289h145l23 -27l-23 -63h-145v-887q0 -12 1 -31.5t1 -27.5q0 -18 4 -43q0 -6 6 -27q2 -10 11 -19q8 -10 34 -6q16 2 86 27l13 -43l-82 -53l-62 -35q-25 -14 -45 -21q-18 -6 -33 -6q-35 0 -55 45q-20 43 -26 156q-33 -41 -76 -84q-41 -41 -78 -63.5t-82 -38.5 q-41 -14 -96 -15q-57 0 -115 33q-61 35 -108 94q-53 68 -82 150q-31 89 -31 198zM229 475q0 -86 25 -156q20 -59 63 -116q35 -47 84 -76q45 -27 86 -27q37 0 68 15q39 18 63 35q20 14 64 53q12 12 29.5 26.5t33.5 30.5v469q-35 61 -94 90q-61 31 -130.5 31t-117.5 -23 q-51 -25 -92 -71q-37 -43 -59.5 -117t-22.5 -164z" />
<glyph unicode="&#x112;" horiz-adv-x="1015" d="M49 0v43q66 14 107 31q39 14 39 30v1051q0 12 -37 31q-25 12 -109 31v43h807l33 -25q-2 -16 -6 -57q-2 -20 -10.5 -61.5t-12.5 -59.5q-6 -31 -12 -47h-45q-4 55 -8 77q-6 27 -17 50q-10 20 -24 26q-16 6 -33 6h-367v-434h406l26 -28l-20 -29l-11 -16.5t-12 -16.5 q-8 -10 -26 -29q-14 -14 -23 -20q-16 16 -32 25q-31 16 -41 18q-16 4 -52 8q-41 4 -73 4h-142v-497q0 -10 8 -27q6 -10 29 -21q22 -9 62 -12q53 -4 106 -4h129q55 0 78 4q37 6 57 23q25 18 47 53q16 27 41 92l43 -18q-10 -96 -20 -150q-14 -76 -21 -94h-864zM172 1478 q4 16 8 27q2 6 5 14t5 14q4 6 6.5 12.5t6.5 14.5l12 25h612l23 -25q-2 -10 -8 -24q-2 -4 -5.5 -14.5l-5.5 -16.5l-12 -29q-4 -10 -8 -22h-616z" />
<glyph unicode="&#x113;" horiz-adv-x="944" d="M80 434q0 72 14 131q12 55 45 123q27 55 70 109q37 45 92 84q22 15 49 30q10 6 58 25q33 12 59 18q31 6 57 7q61 0 114.5 -18.5t90.5 -49.5q43 -35 64 -70q31 -51 43 -86q16 -51 22 -92q8 -61 8 -88q-12 -14 -49 -37q-31 -18 -61 -31h-527q0 -74 23 -147q25 -78 59 -125 q47 -61 92 -86q55 -31 123 -31q18 0 60 4q29 2 63 19q41 18 76 41q53 35 98 72q12 -6 23 -21q6 -8 14 -20q-68 -74 -117 -117t-96 -70q-43 -25 -88 -31q-57 -8 -94 -8q-78 0 -146 33q-72 35 -122 94q-59 70 -86 146q-31 86 -31 192zM236 580h428q23 0 30.5 8t7.5 28 q0 14 -8 68q-4 29 -30 78q-20 37 -62 65q-39 27 -106 27q-57 0 -95 -18q-47 -23 -77 -58q-34 -37 -56 -86q-24 -55 -32 -112zM180 1200q2 10 8 25q2 4 5 14t5 14l13 29q8 16 12 23h612l23 -25q-2 -10 -8 -25q-2 -6 -5.5 -14t-5.5 -14l-12 -29q-4 -10 -8 -22h-616z" />
<glyph unicode="&#x114;" horiz-adv-x="1015" d="M49 0v43q66 14 107 31q39 14 39 30v1051q0 12 -37 31q-25 12 -109 31v43h807l33 -25q-2 -16 -6 -57q-2 -20 -10.5 -61.5t-12.5 -59.5q-6 -31 -12 -47h-45q-4 55 -8 77q-6 27 -17 50q-10 20 -24 26q-16 6 -33 6h-367v-434h406l26 -28l-20 -29l-11 -16.5t-12 -16.5 q-8 -10 -26 -29q-14 -14 -23 -20q-16 16 -32 25q-31 16 -41 18q-16 4 -52 8q-41 4 -73 4h-142v-497q0 -10 8 -27q6 -10 29 -21q22 -9 62 -12q53 -4 106 -4h129q55 0 78 4q37 6 57 23q25 18 47 53q16 27 41 92l43 -18q-10 -96 -20 -150q-14 -76 -21 -94h-864zM178 1679 q10 16 25 26q16 12 29 19q25 -57 57 -96q33 -37 67 -62q39 -27 74 -35q41 -10 72 -10q27 0 72 10q37 8 75 35q41 27 70 61.5t55 96.5q18 -9 31 -19q10 -6 23 -26q-31 -80 -68 -135q-41 -61 -78 -90q-43 -35 -88 -50q-49 -16 -88 -16q-47 0 -96 16q-45 14 -88 50 q-37 29 -78 90q-33 47 -66 135z" />
<glyph unicode="&#x115;" horiz-adv-x="944" d="M80 434q0 72 14 131q12 55 45 123q27 55 70 109q37 45 92 84q22 15 49 30q10 6 58 25q33 12 59 18q31 6 57 7q61 0 114.5 -18.5t90.5 -49.5q43 -35 64 -70q31 -51 43 -86q16 -51 22 -92q8 -61 8 -88q-12 -14 -49 -37q-31 -18 -61 -31h-527q0 -74 23 -147q25 -78 59 -125 q47 -61 92 -86q55 -31 123 -31q18 0 60 4q29 2 63 19q41 18 76 41q53 35 98 72q12 -6 23 -21q6 -8 14 -20q-68 -74 -117 -117t-96 -70q-43 -25 -88 -31q-57 -8 -94 -8q-78 0 -146 33q-72 35 -122 94q-59 70 -86 146q-31 86 -31 192zM236 580h428q23 0 30.5 8t7.5 28 q0 14 -8 68q-4 29 -30 78q-20 37 -62 65q-39 27 -106 27q-57 0 -95 -18q-47 -23 -77 -58q-34 -37 -56 -86q-24 -55 -32 -112zM184 1360q10 16 25 26q16 12 29 19q25 -57 57 -96q33 -37 67 -62q39 -27 74 -35q41 -10 72 -10q27 0 72 10q37 8 75 35q41 27 70 61.5t55 96.5 q18 -9 31 -19q10 -6 23 -26q-31 -80 -68 -135q-41 -61 -78 -90q-43 -35 -88 -50q-49 -16 -88 -16q-47 0 -96 16q-45 14 -88 50q-37 29 -78 90q-33 47 -66 135z" />
<glyph unicode="&#x116;" horiz-adv-x="1015" d="M49 0v43q66 14 107 31q39 14 39 30v1051q0 12 -37 31q-25 12 -109 31v43h807l33 -25q-2 -16 -6 -57q-2 -20 -10.5 -61.5t-12.5 -59.5q-6 -31 -12 -47h-45q-4 55 -8 77q-6 27 -17 50q-10 20 -24 26q-16 6 -33 6h-367v-434h406l26 -28l-20 -29l-11 -16.5t-12 -16.5 q-8 -10 -26 -29q-14 -14 -23 -20q-16 16 -32 25q-31 16 -41 18q-16 4 -52 8q-41 4 -73 4h-142v-497q0 -10 8 -27q6 -10 29 -21q22 -9 62 -12q53 -4 106 -4h129q55 0 78 4q37 6 57 23q25 18 47 53q16 27 41 92l43 -18q-10 -96 -20 -150q-14 -76 -21 -94h-864zM404 1499 q0 31 8 53q9 25 24 43q16 20 37 29q29 12 45 12q84 0 84 -96q0 -31 -8 -54q-9 -25 -25 -43q-12 -14 -36 -28q-23 -12 -45 -13q-45 0 -66 27q-18 25 -18 70z" />
<glyph unicode="&#x117;" horiz-adv-x="944" d="M80 434q0 72 14 131q12 55 45 123q27 55 70 109q37 45 92 84q22 15 49 30q10 6 58 25q33 12 59 18q31 6 57 7q61 0 114.5 -18.5t90.5 -49.5q43 -35 64 -70q31 -51 43 -86q16 -51 22 -92q8 -61 8 -88q-12 -14 -49 -37q-31 -18 -61 -31h-527q0 -74 23 -147q25 -78 59 -125 q47 -61 92 -86q55 -31 123 -31q18 0 60 4q29 2 63 19q41 18 76 41q53 35 98 72q12 -6 23 -21q6 -8 14 -20q-68 -74 -117 -117t-96 -70q-43 -25 -88 -31q-57 -8 -94 -8q-78 0 -146 33q-72 35 -122 94q-59 70 -86 146q-31 86 -31 192zM236 580h428q23 0 30.5 8t7.5 28 q0 14 -8 68q-4 29 -30 78q-20 37 -62 65q-39 27 -106 27q-57 0 -95 -18q-47 -23 -77 -58q-34 -37 -56 -86q-24 -55 -32 -112zM410 1221q0 31 8 53q9 25 24 43q16 20 37 29q25 10 45 10q84 0 84 -94q0 -31 -8 -54q-9 -25 -24.5 -43t-36.5 -30q-18 -10 -45 -11q-47 0 -65.5 25 t-18.5 72z" />
<glyph unicode="&#x11a;" horiz-adv-x="1015" d="M49 0v43q66 14 107 31q39 14 39 30v1051q0 12 -37 31q-25 12 -109 31v43h807l33 -25q-2 -16 -6 -57q-2 -20 -10.5 -61.5t-12.5 -59.5q-6 -31 -12 -47h-45q-4 55 -8 77q-6 27 -17 50q-10 20 -24 26q-16 6 -33 6h-367v-434h406l26 -28l-20 -29l-11 -16.5t-12 -16.5 q-8 -10 -26 -29q-14 -14 -23 -20q-16 16 -32 25q-31 16 -41 18q-16 4 -52 8q-41 4 -73 4h-142v-497q0 -10 8 -27q6 -10 29 -21q22 -9 62 -12q53 -4 106 -4h129q55 0 78 4q37 6 57 23q25 18 47 53q16 27 41 92l43 -18q-10 -96 -20 -150q-14 -76 -21 -94h-864zM185 1697 l7 10.5t5 6.5q8 8 10 12t10 8l5 5t8 5l274 -211l270 211q18 -9 25 -18q14 -23 18 -29l-262 -307h-106z" />
<glyph unicode="&#x11b;" horiz-adv-x="944" d="M80 434q0 72 14 131q12 55 45 123q27 55 70 109q37 45 92 84q22 15 49 30q10 6 58 25q33 12 59 18q31 6 57 7q61 0 114.5 -18.5t90.5 -49.5q43 -35 64 -70q31 -51 43 -86q16 -51 22 -92q8 -61 8 -88q-12 -14 -49 -37q-31 -18 -61 -31h-527q0 -74 23 -147q25 -78 59 -125 q47 -61 92 -86q55 -31 123 -31q18 0 60 4q29 2 63 19q41 18 76 41q53 35 98 72q12 -6 23 -21q6 -8 14 -20q-68 -74 -117 -117t-96 -70q-43 -25 -88 -31q-57 -8 -94 -8q-78 0 -146 33q-72 35 -122 94q-59 70 -86 146q-31 86 -31 192zM236 580h428q23 0 30.5 8t7.5 28 q0 14 -8 68q-4 29 -30 78q-20 37 -62 65q-39 27 -106 27q-57 0 -95 -18q-47 -23 -77 -58q-34 -37 -56 -86q-24 -55 -32 -112zM193 1427l12 19l10 10q4 6 10 10l13 9l274 -250l270 250q18 -9 25 -19q14 -23 18 -29l-262 -356h-106z" />
<glyph unicode="&#x11c;" horiz-adv-x="1193" d="M70 582q0 162 53 297q53 133 143 223t213 139t258 49q18 0 72 -8q43 -6 82 -18q27 -8 80 -33q43 -20 71 -43q6 -6 -2 -19q-2 -2 -26 -32q-10 -12 -35 -37q-10 -8 -18.5 -15.5t-14.5 -13.5l-33 6q-31 27 -67 51q-25 16 -74 31q-45 14 -82 17q-57 4 -92 4q-33 0 -63 -11 q-23 -8 -78 -39q-45 -27 -82 -65q-47 -51 -76 -102q-31 -53 -53 -142q-20 -76 -21 -184q0 -137 37 -241.5t96 -170.5q63 -70 135 -102.5t152 -32.5q78 0 135 14q68 16 111 41v340q0 10 -10 21q-12 12 -33 20q-41 14 -64 21q-68 16 -100 20v43h461v-43q-53 -14 -80 -37 q-25 -23 -25 -45v-331q-59 -51 -133 -97q-59 -37 -106 -55q-57 -20 -94 -27q-43 -6 -89 -6q-94 0 -198 39q-102 39 -176 113t-125 192q-49 113 -49 269zM322 1411l264 309h106l262 -309l-18 -27q-6 -9 -25 -18l-272 208l-272 -208q-4 2 -7.5 5t-5.5 3q-6 4 -10 10l-10 10z " />
<glyph unicode="&#x11d;" horiz-adv-x="997" d="M31 -229q0 31 8 55q8 23 39 61q23 29 82 70q74 51 137 86q-63 20 -90 51q-25 29 -25 60q0 12 4 20q10 20 21 33q16 18 45 45q37 33 74 57q-53 16 -93 41q-41 27 -71 64q-29 35 -45.5 84t-16.5 104q0 76 33 139q35 68 86 113q57 51 123 78q70 29 143 29q59 0 113 -19 q55 -20 94 -47q82 10 94 12q39 8 76 19q57 16 60 16q33 12 47 19l20 -31l-22 -51q-10 -23 -35 -50q-49 -8 -74 -10q-33 -2 -84 -6q25 -37 41 -82q14 -41 14 -90q0 -76 -34 -141q-31 -59 -90 -109q-57 -47 -127 -71.5t-144 -24.5h-4q-47 -39 -65 -66q-18 -29 -19 -32 q0 -10 10 -25q10 -12 39 -22q41 -14 78 -21q43 -8 129 -18q111 -12 180.5 -37t112.5 -56q45 -33 59 -67q16 -39 17 -72q0 -53 -23 -104q-23 -53 -55 -90q-35 -41 -86 -76q-53 -37 -105 -60q-55 -25 -116.5 -37t-118.5 -12q-47 0 -96 6q-57 8 -101 21q-59 18 -92 35 q-39 18 -76 53q-39 35 -53 68q-18 39 -18 88zM180 -190q0 -41 29 -80q27 -35 74 -64q51 -31 108 -45q66 -16 131.5 -16t120.5 18q53 18 94 49q39 29 62 76q20 41 20 94q0 27 -12 51.5t-47 43.5q-37 20 -92 34q-59 16 -150 25q-49 4 -69 8l-62 12q-72 -41 -113 -69 q-35 -25 -61 -56q-20 -23 -27 -45q-6 -21 -6 -36zM240 659q0 -51 16 -100t51 -84t84 -55.5t123 -20.5q31 0 61 13q27 10 56 39q31 31 43 61q16 39 16 88q0 55 -18 100q-20 49 -51 84q-29 33 -86 56q-49 20 -119 20q-25 0 -56 -12q-25 -10 -57 -39q-25 -20 -45 -64 q-18 -37 -18 -86zM183 1092l264 378h106l262 -378l-18 -27q-6 -9 -25 -18l-272 268l-272 -268q-4 2 -7.5 5t-5.5 3q-6 4 -10 10l-10 10z" />
<glyph unicode="&#x11e;" horiz-adv-x="1193" d="M70 582q0 162 53 297q53 133 143 223t213 139t258 49q18 0 72 -8q43 -6 82 -18q27 -8 80 -33q43 -20 71 -43q6 -6 -2 -19q-2 -2 -26 -32q-10 -12 -35 -37q-10 -8 -18.5 -15.5t-14.5 -13.5l-33 6q-31 27 -67 51q-25 16 -74 31q-45 14 -82 17q-57 4 -92 4q-33 0 -63 -11 q-23 -8 -78 -39q-45 -27 -82 -65q-47 -51 -76 -102q-31 -53 -53 -142q-20 -76 -21 -184q0 -137 37 -241.5t96 -170.5q63 -70 135 -102.5t152 -32.5q78 0 135 14q68 16 111 41v340q0 10 -10 21q-12 12 -33 20q-41 14 -64 21q-68 16 -100 20v43h461v-43q-53 -14 -80 -37 q-25 -23 -25 -45v-331q-59 -51 -133 -97q-59 -37 -106 -55q-57 -20 -94 -27q-43 -6 -89 -6q-94 0 -198 39q-102 39 -176 113t-125 192q-49 113 -49 269zM315 1679q10 16 25 26q16 12 29 19q25 -57 57 -96q33 -37 67 -62q39 -27 74 -35q41 -10 72 -10q27 0 72 10q37 8 75 35 q41 27 70 61.5t55 96.5q18 -9 31 -19q10 -6 23 -26q-31 -80 -68 -135q-41 -61 -78 -90q-43 -35 -88 -50q-49 -16 -88 -16q-47 0 -96 16q-45 14 -88 50q-37 29 -78 90q-33 47 -66 135z" />
<glyph unicode="&#x11f;" horiz-adv-x="997" d="M31 -229q0 31 8 55q8 23 39 61q23 29 82 70q74 51 137 86q-63 20 -90 51q-25 29 -25 60q0 12 4 20q10 20 21 33q16 18 45 45q37 33 74 57q-53 16 -93 41q-41 27 -71 64q-29 35 -45.5 84t-16.5 104q0 76 33 139q35 68 86 113q57 51 123 78q70 29 143 29q59 0 113 -19 q55 -20 94 -47q82 10 94 12q39 8 76 19q57 16 60 16q33 12 47 19l20 -31l-22 -51q-10 -23 -35 -50q-49 -8 -74 -10q-33 -2 -84 -6q25 -37 41 -82q14 -41 14 -90q0 -76 -34 -141q-31 -59 -90 -109q-57 -47 -127 -71.5t-144 -24.5h-4q-47 -39 -65 -66q-18 -29 -19 -32 q0 -10 10 -25q10 -12 39 -22q41 -14 78 -21q43 -8 129 -18q111 -12 180.5 -37t112.5 -56q45 -33 59 -67q16 -39 17 -72q0 -53 -23 -104q-23 -53 -55 -90q-35 -41 -86 -76q-53 -37 -105 -60q-55 -25 -116.5 -37t-118.5 -12q-47 0 -96 6q-57 8 -101 21q-59 18 -92 35 q-39 18 -76 53q-39 35 -53 68q-18 39 -18 88zM180 -190q0 -41 29 -80q27 -35 74 -64q51 -31 108 -45q66 -16 131.5 -16t120.5 18q53 18 94 49q39 29 62 76q20 41 20 94q0 27 -12 51.5t-47 43.5q-37 20 -92 34q-59 16 -150 25q-49 4 -69 8l-62 12q-72 -41 -113 -69 q-35 -25 -61 -56q-20 -23 -27 -45q-6 -21 -6 -36zM240 659q0 -51 16 -100t51 -84t84 -55.5t123 -20.5q31 0 61 13q27 10 56 39q31 31 43 61q16 39 16 88q0 55 -18 100q-20 49 -51 84q-29 33 -86 56q-49 20 -119 20q-25 0 -56 -12q-25 -10 -57 -39q-25 -20 -45 -64 q-18 -37 -18 -86zM176 1360q10 16 25 26q16 12 29 19q25 -57 57 -96q33 -37 67 -62q39 -27 74 -35q41 -10 72 -10q27 0 72 10q37 8 75 35q41 27 70 61.5t55 96.5q18 -9 31 -19q10 -6 23 -26q-31 -80 -68 -135q-41 -61 -78 -90q-43 -35 -88 -50q-49 -16 -88 -16q-47 0 -96 16 q-45 14 -88 50q-37 29 -78 90q-33 47 -66 135z" />
<glyph unicode="&#x120;" horiz-adv-x="1193" d="M70 582q0 162 53 297q53 133 143 223t213 139t258 49q18 0 72 -8q43 -6 82 -18q27 -8 80 -33q43 -20 71 -43q6 -6 -2 -19q-2 -2 -26 -32q-10 -12 -35 -37q-10 -8 -18.5 -15.5t-14.5 -13.5l-33 6q-31 27 -67 51q-25 16 -74 31q-45 14 -82 17q-57 4 -92 4q-33 0 -63 -11 q-23 -8 -78 -39q-45 -27 -82 -65q-47 -51 -76 -102q-31 -53 -53 -142q-20 -76 -21 -184q0 -137 37 -241.5t96 -170.5q63 -70 135 -102.5t152 -32.5q78 0 135 14q68 16 111 41v340q0 10 -10 21q-12 12 -33 20q-41 14 -64 21q-68 16 -100 20v43h461v-43q-53 -14 -80 -37 q-25 -23 -25 -45v-331q-59 -51 -133 -97q-59 -37 -106 -55q-57 -20 -94 -27q-43 -6 -89 -6q-94 0 -198 39q-102 39 -176 113t-125 192q-49 113 -49 269zM541 1499q0 31 8 53q9 25 24 43q16 20 37 29q29 12 45 12q84 0 84 -96q0 -31 -8 -54q-9 -25 -25 -43q-12 -14 -36 -28 q-23 -12 -45 -13q-45 0 -66 27q-18 25 -18 70z" />
<glyph unicode="&#x121;" horiz-adv-x="997" d="M31 -229q0 31 8 55q8 23 39 61q23 29 82 70q74 51 137 86q-63 20 -90 51q-25 29 -25 60q0 12 4 20q10 20 21 33q16 18 45 45q37 33 74 57q-53 16 -93 41q-41 27 -71 64q-29 35 -45.5 84t-16.5 104q0 76 33 139q35 68 86 113q57 51 123 78q70 29 143 29q59 0 113 -19 q55 -20 94 -47q82 10 94 12q39 8 76 19q57 16 60 16q33 12 47 19l20 -31l-22 -51q-10 -23 -35 -50q-49 -8 -74 -10q-33 -2 -84 -6q25 -37 41 -82q14 -41 14 -90q0 -76 -34 -141q-31 -59 -90 -109q-57 -47 -127 -71.5t-144 -24.5h-4q-47 -39 -65 -66q-18 -29 -19 -32 q0 -10 10 -25q10 -12 39 -22q41 -14 78 -21q43 -8 129 -18q111 -12 180.5 -37t112.5 -56q45 -33 59 -67q16 -39 17 -72q0 -53 -23 -104q-23 -53 -55 -90q-35 -41 -86 -76q-53 -37 -105 -60q-55 -25 -116.5 -37t-118.5 -12q-47 0 -96 6q-57 8 -101 21q-59 18 -92 35 q-39 18 -76 53q-39 35 -53 68q-18 39 -18 88zM180 -190q0 -41 29 -80q27 -35 74 -64q51 -31 108 -45q66 -16 131.5 -16t120.5 18q53 18 94 49q39 29 62 76q20 41 20 94q0 27 -12 51.5t-47 43.5q-37 20 -92 34q-59 16 -150 25q-49 4 -69 8l-62 12q-72 -41 -113 -69 q-35 -25 -61 -56q-20 -23 -27 -45q-6 -21 -6 -36zM240 659q0 -51 16 -100t51 -84t84 -55.5t123 -20.5q31 0 61 13q27 10 56 39q31 31 43 61q16 39 16 88q0 55 -18 100q-20 49 -51 84q-29 33 -86 56q-49 20 -119 20q-25 0 -56 -12q-25 -10 -57 -39q-25 -20 -45 -64 q-18 -37 -18 -86zM402 1221q0 31 8 53q9 25 24 43q16 20 37 29q25 10 45 10q84 0 84 -94q0 -31 -8 -54q-9 -25 -24.5 -43t-36.5 -30q-18 -10 -45 -11q-47 0 -65.5 25t-18.5 72z" />
<glyph unicode="&#x124;" horiz-adv-x="1337" d="M49 0v43q66 14 107 31q39 14 39 30v1051q0 12 -37 31q-25 12 -109 31v43h451v-43q-78 -18 -107 -31q-39 -18 -39 -31v-450h611v450q0 12 -37 31q-25 12 -109 31v43h451v-43q-78 -18 -107 -31q-39 -18 -39 -31v-1051q0 -12 37 -30q25 -12 109 -31v-43h-451v43 q66 14 107 31q39 14 39 30v510h-611v-510q0 -12 37 -30q29 -14 109 -31v-43h-451zM343 1411l264 309h106l262 -309l-18 -27q-6 -9 -25 -18l-272 208l-272 -208q-4 2 -7.5 5t-5.5 3q-6 4 -10 10l-10 10z" />
<glyph unicode="&#x125;" horiz-adv-x="1128" d="M55 0v43q72 20 103 31q37 12 37 30v1194q0 49 -2 66q-3 25 -18.5 37t-43.5 18q-8 2 -76 11v40q74 16 76 17q8 2 29.5 7t34.5 9q35 10 57 21q37 16 55 26l37 -34v-832q37 55 96 115q43 43 107 88q45 31 102 53q55 20 90 20.5t82 -14.5q43 -12 72 -39q31 -29 49 -69 q18 -43 19 -97v-637q0 -16 30 -28q27 -10 109 -33v-43h-430v43q80 20 106 33q35 16 35 28v529q0 49 -8 98q-6 35 -25 62q-14 18 -39 28q-23 8 -57.5 8t-75.5 -18q-45 -20 -84 -51q-41 -33 -90 -88q-43 -49 -88 -123v-445q0 -14 39 -30q35 -14 102 -31v-43h-430zM261 1661 l264 309h106l262 -309l-18 -27q-6 -9 -25 -18l-272 208l-272 -208q-4 2 -7.5 5t-5.5 3q-6 4 -10 10l-10 10z" />
<glyph unicode="&#x128;" horiz-adv-x="608" d="M70 0v43q66 14 106 31q39 14 39 30v1051q0 12 -37 31q-25 12 -108 31v43h450v-43q-78 -18 -106 -31q-39 -18 -39 -31v-1051q0 -12 37 -30q25 -12 108 -31v-43h-450zM-45 1413q18 40 43 80q29 47 55 73q31 31 66 51.5t76 20.5q39 0 71 -19l64 -38l57 -39q25 -16 51 -17 q37 0 74 31q35 29 72 92l53 -22q-23 -49 -43 -82q-27 -43 -55.5 -72t-67.5 -51q-35 -20 -74 -21q-41 0 -67 17q-41 25 -62 39q-33 23 -59 39q-31 18 -57 18q-41 0 -74 -33t-70 -88z" />
<glyph unicode="&#x129;" horiz-adv-x="552" d="M70 0v43q68 15 104.5 30.5t36.5 30.5v566q0 61 -2 82q-2 29 -16 49q-10 16 -41 26q-12 4 -82 13v41q49 10 65 14l70 18q23 6 63.5 22.5t57.5 25.5h34v-857q0 -12 33 -30q25 -14 107 -31v-43h-430zM-55 1133q23 47 43 81q27 43 55 72q37 37 66 53q35 20 76 21q39 0 71 -19 l64 -38l57 -39q27 -18 51 -19q35 0 74 33q37 31 72 90l53 -22q-18 -40 -43 -80q-27 -43 -55 -72q-33 -33 -68 -53.5t-74 -20.5q-37 0 -67 19q-41 25 -62 39q-33 23 -59 39q-31 18 -57 18q-41 0 -74 -33q-29 -29 -70 -90z" />
<glyph unicode="&#x12a;" horiz-adv-x="608" d="M70 0v43q66 14 106 31q39 14 39 30v1051q0 12 -37 31q-25 12 -108 31v43h450v-43q-78 -18 -106 -31q-39 -18 -39 -31v-1051q0 -12 37 -30q25 -12 108 -31v-43h-450zM47 1519l2 9q2 9 4 16q2 4 5 14t5 14l13 29q8 16 12 23h452l23 -25q-2 -10 -8 -25q-2 -6 -5 -14t-5 -14 l-13 -29q-2 -6 -5 -12l-5 -10h-455z" />
<glyph unicode="&#x12b;" horiz-adv-x="552" d="M70 0v43q68 15 104.5 30.5t36.5 30.5v566q0 61 -2 82q-2 29 -16 49q-10 16 -41 26q-12 4 -82 13v41q49 10 65 14l70 18q23 6 63.5 22.5t57.5 25.5h34v-857q0 -12 33 -30q25 -14 107 -31v-43h-430zM39 1200l2 9q2 9 4 16q2 4 5 14t5 14l13 29q8 16 12 23h452l23 -25 q-2 -10 -8 -25q-2 -6 -5 -14t-5 -14l-13 -29q-2 -6 -5 -12l-5 -10h-455z" />
<glyph unicode="&#x12c;" horiz-adv-x="608" d="M70 0v43q66 14 106 31q39 14 39 30v1051q0 12 -37 31q-25 12 -108 31v43h450v-43q-78 -18 -106 -31q-39 -18 -39 -31v-1051q0 -12 37 -30q25 -12 108 -31v-43h-450zM-29 1679q10 16 25 26q16 12 29 19q25 -57 57 -96q33 -37 67 -62q39 -27 74 -35q41 -10 72 -10 q27 0 72 10q37 8 75 35q41 27 70 61.5t55 96.5q18 -9 31 -19q10 -6 23 -26q-31 -80 -68 -135q-41 -61 -78 -90q-43 -35 -88 -50q-49 -16 -88 -16q-47 0 -96 16q-45 14 -88 50q-37 29 -78 90q-33 47 -66 135z" />
<glyph unicode="&#x12d;" horiz-adv-x="552" d="M70 0v43q68 15 104.5 30.5t36.5 30.5v566q0 61 -2 82q-2 29 -16 49q-10 16 -41 26q-12 4 -82 13v41q49 10 65 14l70 18q23 6 63.5 22.5t57.5 25.5h34v-857q0 -12 33 -30q25 -14 107 -31v-43h-430zM-39 1360q10 16 25 26q16 12 29 19q25 -57 57 -96q33 -37 67 -62 q39 -27 74 -35q41 -10 72 -10q27 0 72 10q37 8 75 35q41 27 70 61.5t55 96.5q18 -9 31 -19q10 -6 23 -26q-31 -80 -68 -135q-41 -61 -78 -90q-43 -35 -88 -50q-49 -16 -88 -16q-47 0 -96 16q-45 14 -88 50q-37 29 -78 90q-33 47 -66 135z" />
<glyph unicode="&#x130;" horiz-adv-x="608" d="M70 0v43q66 14 106 31q39 14 39 30v1051q0 12 -37 31q-25 12 -108 31v43h450v-43q-78 -18 -106 -31q-39 -18 -39 -31v-1051q0 -12 37 -30q25 -12 108 -31v-43h-450zM197 1499q0 31 8 53q9 25 24 43q16 20 37 29q29 12 45 12q84 0 84 -96q0 -31 -8 -54q-9 -25 -25 -43 q-12 -14 -36 -28q-23 -12 -45 -13q-45 0 -66 27q-18 25 -18 70z" />
<glyph unicode="&#x131;" horiz-adv-x="552" d="M70 0v43q68 15 104.5 30.5t36.5 30.5v566q0 61 -2 82q-2 29 -16 49q-10 16 -41 26q-12 4 -82 13v41q49 10 65 14l70 18q23 6 63.5 22.5t57.5 25.5h34v-857q0 -12 33 -30q25 -14 107 -31v-43h-430z" />
<glyph unicode="&#x132;" horiz-adv-x="1234" d="M70 0v43q66 14 106 31q39 14 39 30v1051q0 12 -37 31q-25 12 -108 31v43h450v-43q-78 -18 -106 -31q-39 -18 -39 -31v-1051q0 -12 37 -30q25 -12 108 -31v-43h-450zM420 -299q0 4 14 23q8 10 31 28q29 25 36 29l35 18q6 -4 49 -28q23 -12 39 -19q10 -2 35 -8h35 q29 0 55 16q29 18 54 60q27 45 40 121q16 82 17 192v1022q0 6 -8 12q-16 12 -29 17q-8 4 -59 16q-16 4 -99 17v43h500v-43q-78 -18 -106 -31q-39 -18 -39 -31v-950q0 -113 -17 -199q-14 -76 -42.5 -133t-63.5 -92q-49 -49 -76 -70q-29 -23 -59 -39q-27 -14 -66 -28 q-35 -12 -63 -19q-31 -6 -48 -6q-27 0 -61 10q-25 8 -51 23q-20 12 -39 26q-14 13 -14 23z" />
<glyph unicode="&#x133;" horiz-adv-x="1083" d="M70 0v43q68 15 104.5 30.5t36.5 30.5v566q0 61 -2 82q-2 29 -16 49q-10 16 -41 26q-12 4 -82 13v41q49 10 65 14l70 18q23 6 63.5 22.5t57.5 25.5h34v-857q0 -12 33 -30q25 -14 107 -31v-43h-430zM190 1221q0 31 9 53q9 25 24 43q16 20 37 29q25 10 45 10q84 0 84 -94 q0 -31 -8 -54q-9 -25 -24.5 -43t-37.5 -30q-18 -10 -45 -11q-47 0 -65.5 25t-18.5 72zM336 -430q0 10 14 24q6 6 35 31l41 33q25 18 37 23q31 -27 65 -37q31 -8 72 -9q29 0 57 19q31 20 52 63q23 47 36 125q14 74 15 201v627q0 61 -2 82q-2 29 -17 49q-10 14 -41 24 q-23 8 -79 15v41q29 4 73 16l62 18q35 10 57 21l59 25h37v-863q0 -121 -14 -194q-16 -88 -38.5 -137.5t-61.5 -96.5q-31 -37 -74 -69q-37 -29 -57 -41q-31 -18 -62 -31l-55 -21q-37 -8 -45 -8q-20 0 -62 8q-27 6 -53 19q-23 12 -37 22q-14 13 -14 21zM739 1221q0 27 11 53 q9 25 24 43q16 20 37 29q25 10 43 10q86 0 86 -94q0 -31 -8 -54q-9 -25 -24.5 -43t-37.5 -30q-18 -10 -45 -11q-45 0 -65 25q-21 23 -21 72z" />
<glyph unicode="&#x139;" horiz-adv-x="974" d="M49 0v43q66 14 107 31q39 14 39 30v1051q0 12 -37 31q-25 12 -109 31v43h451v-43q-78 -18 -107 -31q-39 -18 -39 -31v-991q0 -20 8 -31q12 -16 31 -24.5t58 -14.5q25 -4 90 -4h143q57 0 78 4q35 6 55 23q25 18 43 53q23 39 41 92l43 -18q-10 -100 -20 -152 q-14 -72 -21 -92h-854zM289 1411l387 317l11.5 -6t17.5 -10q8 -6 17 -10.5l17.5 -8.5t19.5 -11t13 -9q10 -6 23 -19l8 -45l-469 -243q-18 6 -24 16q-2 2 -9.5 12.5z" />
<glyph unicode="&#x13a;" horiz-adv-x="552" d="M59 0v43q20 2 72 14q12 2 47 15q18 6 25 16q8 12 8 16v1192q0 45 -6 70q-6 23 -23 37q-20 16 -43 18q-55 6 -69 9v40q111 25 133 31q55 16 121 49l36 -34v-1412q0 -16 33 -30q34 -15 117 -31v-43h-451zM106 1731l387 317l11.5 -6t17.5 -10q8 -6 17 -10.5l17.5 -8.5 t19.5 -11t13 -9q10 -6 23 -19l8 -45l-469 -243q-18 6 -24 16q-2 2 -9.5 12.5z" />
<glyph unicode="&#x141;" horiz-adv-x="974" d="M41 492q4 12 8 20l7 13.5t7.5 13.5l7.5 12t7 12t14 17l103 53v522q0 12 -37 31q-25 12 -109 31v43h451v-43q-78 -18 -107 -31q-39 -18 -39 -31v-442l279 141l26 -27q-9 -18 -24 -43q-20 -35 -29 -43l-252 -127v-450q0 -20 8 -31q12 -16 31 -24.5t58 -14.5q25 -4 90 -4 h143q57 0 78 4q35 6 55 23q25 18 43 53q23 39 41 92l43 -18q-10 -100 -20 -152q-14 -72 -21 -92h-854v43q66 14 107 31q39 14 39 30v428l-127 -63z" />
<glyph unicode="&#x142;" horiz-adv-x="573" d="M53 594q0 4 1 10t3 10q0 4 2 8.5t4 8.5l7 22q4 12 12 33l137 96v514q0 45 -6 70q-6 27 -20 37q-20 16 -43 18q-55 6 -70 9v40q111 25 133 31q57 16 121 49l37 -34v-629l145 102l25 -16q-2 -16 -6 -27l-7 -18l-6 -19l-10 -26l-141 -101v-678q0 -16 32 -30q34 -15 117 -31 v-43h-450v43q20 2 71 14q12 2 47 15q18 6 24.5 16t6.5 16v574l-141 -100z" />
<glyph unicode="&#x143;" horiz-adv-x="1327" d="M49 0v43q72 8 111 29q35 18 35 32v1045q-37 33 -70 47t-76 21v43h213q18 0 25 -3q12 -4 18 -10q14 -14 23 -24l8 -11.5t9 -11.5t13 -18l658 -906v879q0 12 -33 31q-35 18 -113 31v43h410v-43q-70 -8 -109 -29q-37 -18 -36 -33v-1186q-53 6 -78 21q-33 18 -41 30l-701 973 v-889q0 -12 33 -30.5t113 -30.5v-43h-412zM487 1411l387 317l11.5 -6t17.5 -10q8 -6 17 -10.5l17.5 -8.5t19.5 -11t13 -9q10 -6 23 -19l8 -45l-469 -243q-18 6 -24 16q-2 2 -9.5 12.5z" />
<glyph unicode="&#x144;" horiz-adv-x="1128" d="M55 0v43q72 20 103 31q37 12 37 30v607q0 47 -2 61q-4 25 -16.5 37t-43.5 18.5t-78 12.5v41q82 14 125 30q61 23 115 50l35 -35l12 -250q39 61 96.5 118.5t106.5 90.5q55 37 104 55q55 20 90 20.5t82 -14.5q43 -12 72 -39q31 -29 49 -69q18 -43 19 -97v-637q0 -16 30 -28 q27 -10 109 -33v-43h-430v43q80 20 106 33q35 16 35 28v529q0 49 -8 98q-6 39 -23 62q-14 18 -39 28q-23 8 -59 8q-35 0 -70 -14q-43 -18 -80 -47q-47 -37 -92 -88t-96 -131v-445q0 -14 39 -30q35 -14 102 -31v-43h-430zM477 1075l233 414q8 0 33 -4l41 -4q8 -2 20.5 -4 t20.5 -4q14 -2 31 -7l22 -39l-344 -380q-16 2 -32 12q-15 8 -25 16z" />
<glyph unicode="&#x147;" horiz-adv-x="1327" d="M49 0v43q72 8 111 29q35 18 35 32v1045q-37 33 -70 47t-76 21v43h213q18 0 25 -3q12 -4 18 -10q14 -14 23 -24l8 -11.5t9 -11.5t13 -18l658 -906v879q0 12 -33 31q-35 18 -113 31v43h410v-43q-70 -8 -109 -29q-37 -18 -36 -33v-1186q-53 6 -78 21q-33 18 -41 30l-701 973 v-889q0 -12 33 -30.5t113 -30.5v-43h-412zM349 1697l7 10.5t5 6.5q8 8 10 12t10 8l5 5t8 5l274 -211l270 211q18 -9 25 -18q14 -23 18 -29l-262 -307h-106z" />
<glyph unicode="&#x148;" horiz-adv-x="1128" d="M55 0v43q72 20 103 31q37 12 37 30v607q0 47 -2 61q-4 25 -16.5 37t-43.5 18.5t-78 12.5v41q82 14 125 30q61 23 115 50l35 -35l12 -250q39 61 96.5 118.5t106.5 90.5q55 37 104 55q55 20 90 20.5t82 -14.5q43 -12 72 -39q31 -29 49 -69q18 -43 19 -97v-637q0 -16 30 -28 q27 -10 109 -33v-43h-430v43q80 20 106 33q35 16 35 28v529q0 49 -8 98q-6 39 -23 62q-14 18 -39 28q-23 8 -59 8q-35 0 -70 -14q-43 -18 -80 -47q-47 -37 -92 -88t-96 -131v-445q0 -14 39 -30q35 -14 102 -31v-43h-430zM261 1427l12 19l10 10q4 6 10 10l13 9l274 -250 l270 250q18 -9 25 -19q14 -23 18 -29l-262 -356h-106z" />
<glyph unicode="&#x14a;" horiz-adv-x="1234" d="M49 0v43q66 14 107 31q39 14 39 30v926q0 47 -2 64q-2 23 -17 39q-12 16 -43 22t-78 12v43q45 8 140 33q63 16 124 47l35 -35v-327q61 86 148 176q61 63 131 110q61 41 121 60q51 16 110 16q41 0 88 -12q41 -10 86 -49q37 -31 62 -94q25 -61 24 -154v-705 q0 -109 -20 -190q-23 -88 -57 -156q-33 -66 -84 -125q-47 -57 -97 -94q-14 -10 -61 -37q-25 -14 -74 -28q-43 -12 -78 -19q-53 -8 -75 -8q-45 0 -89 12q-51 14 -79 27q-33 14 -58 35q-23 18 -22 35q0 8 16 24q10 10 39 35l43 31q16 10 39 20q27 -27 57 -45q37 -23 64 -33 q33 -12 59 -18q31 -6 58 -6q49 0 94 31q49 33 84 90q39 66 59 151q23 96 23 215v649q0 83 -13 136q-12 51 -34.5 83.5t-53.5 45.5q-37 14 -67 14q-40 0 -86 -18q-53 -20 -99 -62q-52 -46 -116 -123q-61 -74 -142 -200v-644q0 -12 37 -30q29 -14 109 -31v-43h-451z" />
<glyph unicode="&#x14b;" horiz-adv-x="1118" d="M55 0v43q72 20 103 31q37 12 37 30v607q0 47 -2 61q-4 25 -16.5 37t-43.5 18.5t-78 12.5v41q72 12 125 32q78 29 115 48l35 -35l10 -250q39 61 96 119q53 53 109 90q59 39 104 55q57 20 90 21q35 0 82 -15q43 -12 72 -39q31 -29 49 -69q18 -43 19 -97v-653 q0 -117 -18.5 -196.5t-49.5 -135.5q-35 -61 -70 -94q-63 -59 -78 -70q-23 -18 -61 -38q-23 -12 -68 -29q-33 -12 -65 -19q-31 -6 -49 -6q-29 0 -74 11q-40 9 -74 24q-41 18 -57 33q-23 18 -23 31q0 10 15 24q20 20 34.5 32.5t43.5 33.5q18 12 36 20q18 -18 60 -43 q33 -20 59 -28q39 -12 51 -15q33 -4 39 -4q31 0 64 19q31 16 63 65q29 43 52 127q20 76 20 205v598q0 49 -8 98q-6 37 -22.5 59.5t-39 30.5t-59.5 8q-33 0 -70 -14q-43 -16 -82 -47q-41 -33 -90 -88q-45 -51 -96 -131v-445q0 -14 39 -30q35 -14 102 -31v-43h-430z" />
<glyph unicode="&#x14c;" horiz-adv-x="1228" d="M70 612q0 129 45 258t118 217q77 92 179 148q100 55 221 55q125 0 219 -55q92 -53 158 -143q61 -84 96 -207q33 -113 33 -238q0 -137 -45 -258q-47 -127 -123 -217t-180 -147q-101 -55 -216 -56q-119 0 -215 54q-90 49 -157 143q-66 90 -99 205q-34 120 -34 241zM225 641 q0 -113 31 -213q29 -96 82 -174t120.5 -121t145.5 -43t152 35q72 35 121 102q51 70 77 168q29 104 29 234q0 70 -12 137q-10 57 -35 127q-18 53 -57 113q-33 51 -76 88q-45 39 -92 59q-51 23 -107 23q-86 0 -160 -39q-70 -37 -118 -107q-49 -72 -74 -168q-27 -106 -27 -221z M287 1478q4 16 8 27q2 6 5 14t5 14q4 6 6.5 12.5t6.5 14.5l12 25h612l23 -25q-2 -10 -8 -24q-2 -4 -5.5 -14.5l-5.5 -16.5l-12 -29q-4 -10 -8 -22h-616z" />
<glyph unicode="&#x14d;" horiz-adv-x="1028" d="M80 444q0 59 16 129q14 61 47 123t70 105q45 51 92 84t109 55q55 20 121 21q92 0 170 -37q80 -39 131 -98.5t84 -151.5q31 -86 30 -189q0 -74 -16 -131q-20 -68 -47 -121q-29 -55 -74 -106t-92 -84q-53 -37 -107 -53q-66 -20 -118 -21q-95 0 -172 37q-80 39 -131.5 98.5 t-83.5 151.5q-29 79 -29 188zM236 473q0 -84 26 -151q27 -66 72 -125.5t92 -85.5q52 -31 98 -31q70 0 121 26q49 27 84 76q34 49 49 117q16 72 17 156q0 76 -27 151q-23 66 -66 125q-39 53 -94 86t-102 33q-74 0 -127 -29q-51 -27 -84 -80q-29 -45 -45 -118 q-14 -64 -14 -150zM207 1200q2 10 8 25q2 4 5 14t5 14l13 29q8 16 12 23h612l23 -25q-2 -10 -8 -25q-2 -6 -5.5 -14t-5.5 -14l-12 -29q-4 -10 -8 -22h-616z" />
<glyph unicode="&#x14e;" horiz-adv-x="1228" d="M70 612q0 129 45 258t118 217q77 92 179 148q100 55 221 55q125 0 219 -55q92 -53 158 -143q61 -84 96 -207q33 -113 33 -238q0 -137 -45 -258q-47 -127 -123 -217t-180 -147q-101 -55 -216 -56q-119 0 -215 54q-90 49 -157 143q-66 90 -99 205q-34 120 -34 241zM225 641 q0 -113 31 -213q29 -96 82 -174t120.5 -121t145.5 -43t152 35q72 35 121 102q51 70 77 168q29 104 29 234q0 70 -12 137q-10 57 -35 127q-18 53 -57 113q-33 51 -76 88q-45 39 -92 59q-51 23 -107 23q-86 0 -160 -39q-70 -37 -118 -107q-49 -72 -74 -168q-27 -106 -27 -221z M290 1679q10 16 25 26q16 12 29 19q25 -57 57 -96q33 -37 67 -62q39 -27 74 -35q41 -10 72 -10q27 0 72 10q37 8 75 35q41 27 70 61.5t55 96.5q18 -9 31 -19q10 -6 23 -26q-31 -80 -68 -135q-41 -61 -78 -90q-43 -35 -88 -50q-49 -16 -88 -16q-47 0 -96 16q-45 14 -88 50 q-37 29 -78 90q-33 47 -66 135z" />
<glyph unicode="&#x14f;" horiz-adv-x="1028" d="M80 444q0 59 16 129q14 61 47 123t70 105q45 51 92 84t109 55q55 20 121 21q92 0 170 -37q80 -39 131 -98.5t84 -151.5q31 -86 30 -189q0 -74 -16 -131q-20 -68 -47 -121q-29 -55 -74 -106t-92 -84q-53 -37 -107 -53q-66 -20 -118 -21q-95 0 -172 37q-80 39 -131.5 98.5 t-83.5 151.5q-29 79 -29 188zM236 473q0 -84 26 -151q27 -66 72 -125.5t92 -85.5q52 -31 98 -31q70 0 121 26q49 27 84 76q34 49 49 117q16 72 17 156q0 76 -27 151q-23 66 -66 125q-39 53 -94 86t-102 33q-74 0 -127 -29q-51 -27 -84 -80q-29 -45 -45 -118 q-14 -64 -14 -150zM211 1360q10 16 25 26q16 12 29 19q25 -57 57 -96q33 -37 67 -62q39 -27 74 -35q41 -10 72 -10q27 0 72 10q37 8 75 35q41 27 70 61.5t55 96.5q18 -9 31 -19q10 -6 23 -26q-31 -80 -68 -135q-41 -61 -78 -90q-43 -35 -88 -50q-49 -16 -88 -16 q-47 0 -96 16q-45 14 -88 50q-37 29 -78 90q-33 47 -66 135z" />
<glyph unicode="&#x150;" horiz-adv-x="1228" d="M70 612q0 129 45 258t118 217q77 92 179 148q100 55 221 55q125 0 219 -55q92 -53 158 -143q61 -84 96 -207q33 -113 33 -238q0 -137 -45 -258q-47 -127 -123 -217t-180 -147q-101 -55 -216 -56q-119 0 -215 54q-90 49 -157 143q-66 90 -99 205q-34 120 -34 241zM225 641 q0 -113 31 -213q29 -96 82 -174t120.5 -121t145.5 -43t152 35q72 35 121 102q51 70 77 168q29 104 29 234q0 70 -12 137q-10 57 -35 127q-18 53 -57 113q-33 51 -76 88q-45 39 -92 59q-51 23 -107 23q-86 0 -160 -39q-70 -37 -118 -107q-49 -72 -74 -168q-27 -106 -27 -221z M393 1392l176 416q4 -2 14.5 -3t14.5 -1q4 -2 16.5 -4t16.5 -2q8 -2 16 -3t16 -3l25 -9l23 -41l-261 -376q-14 2 -26 10q-2 2 -12.5 7zM686 1392l174 416q12 -2 29 -4q4 -2 16 -4t16 -2q8 -2 16.5 -3t16.5 -3q6 -2 14.5 -5.5t12.5 -3.5l20 -41l-260 -376q-18 2 -28 10 q-2 2 -11.5 7t-15.5 9z" />
<glyph unicode="&#x151;" horiz-adv-x="1028" d="M80 444q0 59 16 129q14 61 47 123t70 105q45 51 92 84t109 55q55 20 121 21q92 0 170 -37q80 -39 131 -98.5t84 -151.5q31 -86 30 -189q0 -74 -16 -131q-20 -68 -47 -121q-29 -55 -74 -106t-92 -84q-53 -37 -107 -53q-66 -20 -118 -21q-95 0 -172 37q-80 39 -131.5 98.5 t-83.5 151.5q-29 79 -29 188zM236 473q0 -84 26 -151q27 -66 72 -125.5t92 -85.5q52 -31 98 -31q70 0 121 26q49 27 84 76q34 49 49 117q16 72 17 156q0 76 -27 151q-23 66 -66 125q-39 53 -94 86t-102 33q-74 0 -127 -29q-51 -27 -84 -80q-29 -45 -45 -118 q-14 -64 -14 -150zM313 1073l176 416q4 -2 14.5 -3t14.5 -1q4 -2 16.5 -4t16.5 -2q8 -2 16 -3t16 -3l25 -9l23 -41l-261 -376q-14 2 -26 10q-2 2 -12.5 7zM606 1073l174 416q12 -2 29 -4q4 -2 16 -4t16 -2q8 -2 16.5 -3t16.5 -3q6 -2 14.5 -5.5t12.5 -3.5l20 -41l-260 -376 q-18 2 -28 10q-2 2 -11.5 7t-15.5 9z" />
<glyph unicode="&#x152;" horiz-adv-x="1632" d="M70 612q0 129 45 258t118 217q77 92 179 148q100 55 221 55q29 0 69 -4q20 -2 58 -10q39 -8 55 -10q61 -6 70 -6h592l30 -25q-2 -16 -6 -57t-8 -62q-8 -41 -12 -59q-6 -31 -13 -47h-47q-4 55 -8 77q-4 25 -16 48q-10 20 -25 26q-20 8 -33 8h-323v-434h362l29 -28 q-8 -12 -21 -29l-24 -31q-8 -10 -25 -26l-12 -11.5t-10 -9.5q-16 16 -33 25q-25 12 -39 16q-27 8 -53 10q-41 4 -74 4h-100v-501q0 -6 1 -14.5t1 -12.5q0 -12 14 -21q16 -10 47 -12q45 -4 101 -4h129q55 0 77 4q37 6 57.5 22.5t45.5 53.5q22 34 43 92l43 -18 q-10 -100 -21 -152q-14 -72 -20 -92h-653q-18 0 -93 -6q-25 -2 -69 -10q-23 -4 -68 -9q-68 -6 -76 -6q-119 0 -215 54q-90 49 -157 143q-66 90 -99 205q-34 120 -34 241zM225 641q0 -113 31 -213q29 -96 82 -174t120.5 -121t145.5 -43q14 0 40 1t36 1q35 0 65 6q37 8 58 15 q29 10 51 26v961q-49 39 -117 57q-66 18 -133 19q-89 0 -160 -37q-68 -35 -118 -109q-49 -72 -74 -168q-27 -106 -27 -221z" />
<glyph unicode="&#x153;" horiz-adv-x="1622" d="M80 444q0 72 16 129q18 65 49 123q31 57 72 105q45 51 92 84t109 55q55 20 117 21q51 0 104 -17q55 -16 92 -41q49 -31 78 -65q41 -47 59 -86q16 25 58 69q31 33 69 60q8 6 49 28q2 2 60 27q27 12 57 18q27 6 51 7q61 0 110.5 -18.5t86.5 -49.5q39 -33 61 -70 q31 -51 43 -86q16 -51 23 -92q8 -61 8 -88q-16 -16 -51 -37q-31 -18 -61 -31h-502q0 -74 22 -147q25 -82 56 -125q37 -53 90 -84q52 -31 116 -31q18 0 56 4q20 2 59 17q31 10 74 41q61 41 96 72q12 -6 23 -21q6 -8 14 -20q-55 -61 -117 -117q-51 -45 -94 -69.5t-84 -31.5 q-53 -8 -88 -8q-53 0 -96 14.5t-88 43t-78 67.5q-39 45 -60 90q-25 -37 -73 -86q-45 -45 -86 -69q-47 -29 -94 -43q-53 -16 -103 -17q-84 0 -158 37q-76 39 -124 98q-49 61 -82 152q-31 86 -31 188zM233 473q0 -84 27 -151q29 -72 70 -125q45 -57 96 -86q55 -31 108.5 -31 t98.5 29q43 29 76 79q31 47 49 119q18 68 18 148q0 76 -26 151q-25 70 -68 125q-45 57 -96 86q-59 33 -111 33q-53 0 -98 -29q-47 -31 -78 -80q-31 -47 -49 -118q-17 -60 -17 -150zM936 580h403q18 0 31 8q8 6 8 28q0 14 -8 68q-6 41 -29 80q-23 37 -59 65q-35 27 -98 27 q-49 0 -90 -20q-39 -20 -74 -58q-31 -33 -53 -86q-21 -46 -31 -112z" />
<glyph unicode="&#x154;" horiz-adv-x="1148" d="M41 1231q61 16 94 22l101 19q8 2 110 12q58 6 123 6q113 0 203 -22q72 -18 141 -66q57 -39 86 -96t29 -119q0 -76 -21 -131q-18 -51 -59 -102q-39 -49 -88 -78q-57 -35 -115 -51l303 -486q18 -25 33 -35q25 -16 39 -20q20 -6 47 -6q39 0 61 2l11 -43q-57 -18 -125 -37 q-55 -14 -99 -14q-29 0 -57 16q-23 12 -41 39l-303 561q-8 -2 -27 -2h-26q-35 0 -51 2q-43 6 -56 8v-506q0 -12 37 -30q29 -14 109 -31v-43h-451v43q66 14 107 31q39 14 39 30v1086q-14 -2 -24.5 -3t-22 -4t-25.5 -5q-12 -2 -37 -5.5t-37 -5.5zM354 690q27 -6 47 -6h43 q158 0 242 70q86 71 86 202q0 49 -20 101q-18 49 -60 80q-41 33 -106 51t-154 18q-25 0 -78 -4v-512zM342 1411l387 317l11.5 -6t17.5 -10q8 -6 17 -10.5l17.5 -8.5t19.5 -11t13 -9q10 -6 23 -19l8 -45l-469 -243q-18 6 -24 16q-2 2 -9.5 12.5z" />
<glyph unicode="&#x155;" horiz-adv-x="808" d="M55 0v43q78 18 103 29q37 14 37 32v582q0 41 -2 55q0 6 -1.5 18.5t-3.5 18.5l-5 15l-3 8q-2 4 -5 7t-3 5q-10 10 -16 12q-12 4 -21 6q-16 4 -33 5q-10 0 -47 4v41q51 12 127 34q70 20 113 46l35 -35l12 -228q18 37 59 103q27 43 68 84q31 31 76 55q39 20 82 21 q37 0 69 -9q43 -10 74 -28q8 -6 8 -35q0 -18 -8 -68q-6 -39 -18 -78q-12 -40 -25 -67h-43q-8 47 -16 67q-14 33 -27 45q-23 23 -31 25q-18 6 -37 6q-20 0 -51 -18q-33 -18 -61 -58q-33 -41 -62 -100q-31 -61 -55 -147v-392q0 -14 39 -30q37 -16 131 -31v-43h-459zM350 1075 l233 414q8 0 33 -4l41 -4q8 -2 20.5 -4t20.5 -4q14 -2 31 -7l22 -39l-344 -380q-16 2 -32 12q-15 8 -25 16z" />
<glyph unicode="&#x158;" horiz-adv-x="1148" d="M41 1231q61 16 94 22l101 19q8 2 110 12q58 6 123 6q113 0 203 -22q72 -18 141 -66q57 -39 86 -96t29 -119q0 -76 -21 -131q-18 -51 -59 -102q-39 -49 -88 -78q-57 -35 -115 -51l303 -486q18 -25 33 -35q25 -16 39 -20q20 -6 47 -6q39 0 61 2l11 -43q-57 -18 -125 -37 q-55 -14 -99 -14q-29 0 -57 16q-23 12 -41 39l-303 561q-8 -2 -27 -2h-26q-35 0 -51 2q-43 6 -56 8v-506q0 -12 37 -30q29 -14 109 -31v-43h-451v43q66 14 107 31q39 14 39 30v1086q-14 -2 -24.5 -3t-22 -4t-25.5 -5q-12 -2 -37 -5.5t-37 -5.5zM354 690q27 -6 47 -6h43 q158 0 242 70q86 71 86 202q0 49 -20 101q-18 49 -60 80q-41 33 -106 51t-154 18q-25 0 -78 -4v-512zM203 1697l7 10.5t5 6.5q8 8 10 12t10 8l5 5t8 5l274 -211l270 211q18 -9 25 -18q14 -23 18 -29l-262 -307h-106z" />
<glyph unicode="&#x159;" horiz-adv-x="808" d="M55 0v43q78 18 103 29q37 14 37 32v582q0 41 -2 55q0 6 -1.5 18.5t-3.5 18.5l-5 15l-3 8q-2 4 -5 7t-3 5q-10 10 -16 12q-12 4 -21 6q-16 4 -33 5q-10 0 -47 4v41q51 12 127 34q70 20 113 46l35 -35l12 -228q18 37 59 103q27 43 68 84q31 31 76 55q39 20 82 21 q37 0 69 -9q43 -10 74 -28q8 -6 8 -35q0 -18 -8 -68q-6 -39 -18 -78q-12 -40 -25 -67h-43q-8 47 -16 67q-14 33 -27 45q-23 23 -31 25q-18 6 -37 6q-20 0 -51 -18q-33 -18 -61 -58q-33 -41 -62 -100q-31 -61 -55 -147v-392q0 -14 39 -30q37 -16 131 -31v-43h-459zM134 1427 l12 19l10 10q4 6 10 10l13 9l274 -250l270 250q18 -9 25 -19q14 -23 18 -29l-262 -356h-106z" />
<glyph unicode="&#x15a;" horiz-adv-x="974" d="M117 172q0 27 4 84q4 47 10 68l41 -5q20 -55 57 -102t76 -72q45 -29 92 -41q57 -14 99 -14q45 0 90 19q39 16 82 51q39 33 59 73q23 45 23 91q0 63 -27 104q-33 51 -70 80q-33 25 -100 59l-38.5 19.5t-34 16.5l-42.5 20q-78 37 -114 57q-57 33 -99 70q-45 41 -71.5 92 t-26.5 125q0 35 8 67.5t31 71.5q23 37 51 70q31 33 76 59.5t102 40.5q55 14 131 14q29 0 90 -8q46 -6 86 -18q45 -14 70 -29q41 -25 51 -37q6 -6 0 -24q0 -2 -20 -37q-2 -4 -29 -41q-4 -6 -29 -31l-36 6q-29 35 -58 55q-25 18 -63 37q-27 14 -62 21q-31 6 -59 6 q-61 0 -96 -16q-39 -18 -64 -44q-27 -27 -39 -57.5t-12 -58.5q0 -45 29 -84q25 -35 69 -66q33 -25 101 -57q31 -14 61.5 -29.5l54.5 -27.5q78 -41 115 -64q57 -35 100 -78t72 -100q27 -53 27 -131q0 -46 -12.5 -92t-36.5 -92q-27 -51 -60 -87q-35 -37 -86 -69 q-47 -29 -112 -49q-61 -18 -138 -19q-18 0 -71 8q-40 6 -80 19q-47 14 -82 31q-41 18 -76 41q-6 4 -10 34q-4 41 -4 70zM321 1411l387 317l11.5 -6t17.5 -10q8 -6 17 -10.5l17.5 -8.5t19.5 -11t13 -9q10 -6 23 -19l8 -45l-469 -243q-18 6 -24 16q-2 2 -9.5 12.5z" />
<glyph unicode="&#x15b;" horiz-adv-x="790" d="M96 143q0 12 1 24.5t3 29t2 24.5q2 35 11 62l43 -11q4 -47 22 -79q23 -39 53 -64q33 -27 78 -43t97 -16q35 0 65 12q37 14 53 31q18 18 33 51q12 29 12 63q0 43 -20 72q-18 29 -57 55q-41 29 -80 49l-90 46q-35 18 -80 45q-37 23 -70 55.5t-49 64.5q-18 37 -19 86 q0 61 25 110.5t66 82.5q35 27 96 49q52 18 110 19q31 0 68 -7q25 -4 74 -16t69 -23q31 -16 52 -32q4 -6 2 -27q-2 -10 -15 -45q-12 -33 -20 -47q-4 -6 -9.5 -16.5l-7.5 -14.5l-39 8q-51 76 -100 101q-53 29 -100 28q-35 0 -60 -12q-33 -16 -43 -27q-20 -20 -28 -38 q-10 -25 -11 -43q0 -31 20.5 -57.5t49.5 -47.5q35 -25 70 -43l82 -43l88 -47q47 -27 78 -57q41 -41 57 -74q23 -45 22 -98q0 -74 -20 -121q-25 -57 -51 -86q-31 -33 -72 -56q-33 -18 -78 -32q-33 -10 -71 -15q-45 -4 -52 -4q-49 0 -116 19q-63 16 -134 55q-8 4 -10 33 q-1 9 -1 20q0 7 0.5 22.5t0.5 24.5zM297 1075l233 414q8 0 33 -4l41 -4q8 -2 20.5 -4t20.5 -4q14 -2 31 -7l22 -39l-344 -380q-16 2 -32 12q-15 8 -25 16z" />
<glyph unicode="&#x15c;" horiz-adv-x="974" d="M117 172q0 27 4 84q4 47 10 68l41 -5q20 -55 57 -102t76 -72q45 -29 92 -41q57 -14 99 -14q45 0 90 19q39 16 82 51q39 33 59 73q23 45 23 91q0 63 -27 104q-33 51 -70 80q-33 25 -100 59l-38.5 19.5t-34 16.5l-42.5 20q-78 37 -114 57q-57 33 -99 70q-45 41 -71.5 92 t-26.5 125q0 35 8 67.5t31 71.5q23 37 51 70q31 33 76 59.5t102 40.5q55 14 131 14q29 0 90 -8q46 -6 86 -18q45 -14 70 -29q41 -25 51 -37q6 -6 0 -24q0 -2 -20 -37q-2 -4 -29 -41q-4 -6 -29 -31l-36 6q-29 35 -58 55q-25 18 -63 37q-27 14 -62 21q-31 6 -59 6 q-61 0 -96 -16q-39 -18 -64 -44q-27 -27 -39 -57.5t-12 -58.5q0 -45 29 -84q25 -35 69 -66q33 -25 101 -57q31 -14 61.5 -29.5l54.5 -27.5q78 -41 115 -64q57 -35 100 -78t72 -100q27 -53 27 -131q0 -46 -12.5 -92t-36.5 -92q-27 -51 -60 -87q-35 -37 -86 -69 q-47 -29 -112 -49q-61 -18 -138 -19q-18 0 -71 8q-40 6 -80 19q-47 14 -82 31q-41 18 -76 41q-6 4 -10 34q-4 41 -4 70zM183 1411l264 309h106l262 -309l-18 -27q-6 -9 -25 -18l-272 208l-272 -208q-4 2 -7.5 5t-5.5 3q-6 4 -10 10l-10 10z" />
<glyph unicode="&#x15d;" horiz-adv-x="790" d="M96 143q0 12 1 24.5t3 29t2 24.5q2 35 11 62l43 -11q4 -47 22 -79q23 -39 53 -64q33 -27 78 -43t97 -16q35 0 65 12q37 14 53 31q18 18 33 51q12 29 12 63q0 43 -20 72q-18 29 -57 55q-41 29 -80 49l-90 46q-35 18 -80 45q-37 23 -70 55.5t-49 64.5q-18 37 -19 86 q0 61 25 110.5t66 82.5q35 27 96 49q52 18 110 19q31 0 68 -7q25 -4 74 -16t69 -23q31 -16 52 -32q4 -6 2 -27q-2 -10 -15 -45q-12 -33 -20 -47q-4 -6 -9.5 -16.5l-7.5 -14.5l-39 8q-51 76 -100 101q-53 29 -100 28q-35 0 -60 -12q-33 -16 -43 -27q-20 -20 -28 -38 q-10 -25 -11 -43q0 -31 20.5 -57.5t49.5 -47.5q35 -25 70 -43l82 -43l88 -47q47 -27 78 -57q41 -41 57 -74q23 -45 22 -98q0 -74 -20 -121q-25 -57 -51 -86q-31 -33 -72 -56q-33 -18 -78 -32q-33 -10 -71 -15q-45 -4 -52 -4q-49 0 -116 19q-63 16 -134 55q-8 4 -10 33 q-1 9 -1 20q0 7 0.5 22.5t0.5 24.5zM80 1092l264 378h106l262 -378l-18 -27q-6 -9 -25 -18l-272 268l-272 -268q-4 2 -7.5 5t-5.5 3q-6 4 -10 10l-10 10z" />
<glyph unicode="&#x160;" horiz-adv-x="974" d="M117 172q0 27 4 84q4 47 10 68l41 -5q20 -55 57 -102t76 -72q45 -29 92 -41q57 -14 99 -14q45 0 90 19q39 16 82 51q39 33 59 73q23 45 23 91q0 63 -27 104q-33 51 -70 80q-33 25 -100 59l-38.5 19.5t-34 16.5l-42.5 20q-78 37 -114 57q-57 33 -99 70q-45 41 -71.5 92 t-26.5 125q0 35 8 67.5t31 71.5q23 37 51 70q31 33 76 59.5t102 40.5q55 14 131 14q29 0 90 -8q46 -6 86 -18q45 -14 70 -29q41 -25 51 -37q6 -6 0 -24q0 -2 -20 -37q-2 -4 -29 -41q-4 -6 -29 -31l-36 6q-29 35 -58 55q-25 18 -63 37q-27 14 -62 21q-31 6 -59 6 q-61 0 -96 -16q-39 -18 -64 -44q-27 -27 -39 -57.5t-12 -58.5q0 -45 29 -84q25 -35 69 -66q33 -25 101 -57q31 -14 61.5 -29.5l54.5 -27.5q78 -41 115 -64q57 -35 100 -78t72 -100q27 -53 27 -131q0 -46 -12.5 -92t-36.5 -92q-27 -51 -60 -87q-35 -37 -86 -69 q-47 -29 -112 -49q-61 -18 -138 -19q-18 0 -71 8q-40 6 -80 19q-47 14 -82 31q-41 18 -76 41q-6 4 -10 34q-4 41 -4 70zM183 1697l7 10.5t5 6.5q8 8 10 12t10 8l5 5t8 5l274 -211l270 211q18 -9 25 -18q14 -23 18 -29l-262 -307h-106z" />
<glyph unicode="&#x161;" horiz-adv-x="790" d="M96 143q0 12 1 24.5t3 29t2 24.5q2 35 11 62l43 -11q4 -47 22 -79q23 -39 53 -64q33 -27 78 -43t97 -16q35 0 65 12q37 14 53 31q18 18 33 51q12 29 12 63q0 43 -20 72q-18 29 -57 55q-41 29 -80 49l-90 46q-35 18 -80 45q-37 23 -70 55.5t-49 64.5q-18 37 -19 86 q0 61 25 110.5t66 82.5q35 27 96 49q52 18 110 19q31 0 68 -7q25 -4 74 -16t69 -23q31 -16 52 -32q4 -6 2 -27q-2 -10 -15 -45q-12 -33 -20 -47q-4 -6 -9.5 -16.5l-7.5 -14.5l-39 8q-51 76 -100 101q-53 29 -100 28q-35 0 -60 -12q-33 -16 -43 -27q-20 -20 -28 -38 q-10 -25 -11 -43q0 -31 20.5 -57.5t49.5 -47.5q35 -25 70 -43l82 -43l88 -47q47 -27 78 -57q41 -41 57 -74q23 -45 22 -98q0 -74 -20 -121q-25 -57 -51 -86q-31 -33 -72 -56q-33 -18 -78 -32q-33 -10 -71 -15q-45 -4 -52 -4q-49 0 -116 19q-63 16 -134 55q-8 4 -10 33 q-1 9 -1 20q0 7 0.5 22.5t0.5 24.5zM80 1427l12 19l10 10q4 6 10 10l13 9l274 -250l270 250q18 -9 25 -19q14 -23 18 -29l-262 -356h-106z" />
<glyph unicode="&#x164;" horiz-adv-x="1126" d="M10 1014q2 10 5 55t8 72q10 76 20 119h1010l30 -25q-4 -70 -10 -111q-12 -82 -20 -125h-45q-4 23 -8.5 43.5t-8.5 36.5q-2 14 -18 51q-8 20 -23 31q-10 8 -35 8h-284v-1054q0 -12 37 -33q35 -20 127 -39v-43h-488v43q49 10 78 18q20 6 49 21q20 10 28.5 18.5t8.5 14.5 v1054h-299q-18 0 -27 -4q-14 -8 -26 -24q-14 -20 -29 -54t-37 -92zM230 1697l7 10.5t5 6.5q8 8 10 12t10 8l5 5t8 5l274 -211l270 211q18 -9 25 -18q14 -23 18 -29l-262 -307h-106z" />
<glyph unicode="&#x168;" horiz-adv-x="1337" d="M49 1217v43h451v-43q-78 -18 -107 -31q-39 -18 -39 -31v-661q0 -92 23 -172q20 -72 67 -129q41 -51 111 -80q61 -27 150 -27q74 0 126 33q51 31 93 92q39 59 57 127q18 72 18 145v672q0 12 -36 31q-25 12 -109 31v43h422v-43q-78 -18 -107 -31q-39 -18 -39 -31v-631 q0 -123 -32 -233q-31 -102 -92 -174q-63 -74 -146 -109q-90 -39 -194 -39q-98 0 -189 29q-86 27 -149 88q-66 63 -99 147q-35 92 -34 211v711q0 12 -37 31q-25 13 -109 31zM336 1413q18 40 43 80q29 47 55 73q31 31 66 51.5t76 20.5q39 0 71 -19l64 -38l57 -39 q25 -16 51 -17q37 0 74 31q35 29 72 92l53 -22q-23 -49 -43 -82q-27 -43 -55.5 -72t-67.5 -51q-35 -20 -74 -21q-41 0 -67 17q-41 25 -62 39q-33 23 -59 39q-31 18 -57 18q-41 0 -74 -33t-70 -88z" />
<glyph unicode="&#x169;" horiz-adv-x="1083" d="M41 854v41q45 4 68 8q41 8 61 15l59 18q12 4 34 13t30 12l26 -39v-588q0 -66 11 -117q8 -43 30 -76q16 -25 48 -39q27 -12 65 -12q29 0 66 10q39 10 69 29q35 20 74 53q45 39 84 80v449q0 16 -6 71q-3 28 -19 43q-14 14 -43 21q-20 4 -73 8v41q84 10 139 27q29 8 121 39 l30 -39v-668q0 -47 5 -100q3 -40 18 -50q10 -8 41 -4q20 2 80 27l10 -45q-37 -25 -72 -45q-8 -6 -61 -35q-4 -2 -51 -22q-25 -10 -35 -11q-35 0 -57 47q-20 43 -27 150q-53 -53 -115 -100q-47 -35 -94 -60q-45 -23 -80 -29q-49 -8 -69 -8q-39 0 -91 15q-41 12 -75 47 q-33 33 -52 94q-20 68 -20 154v432q0 57 -2 75q-2 25 -16 39q-12 12 -39 19q-6 2 -72 10zM205 1133q23 47 43 81q27 43 55 72q37 37 66 53q35 20 76 21q39 0 71 -19l64 -38l57 -39q27 -18 51 -19q35 0 74 33q37 31 72 90l53 -22q-18 -40 -43 -80q-27 -43 -55 -72 q-33 -33 -68 -53.5t-74 -20.5q-37 0 -67 19q-41 25 -62 39q-33 23 -59 39q-31 18 -57 18q-41 0 -74 -33q-29 -29 -70 -90z" />
<glyph unicode="&#x16a;" horiz-adv-x="1337" d="M49 1217v43h451v-43q-78 -18 -107 -31q-39 -18 -39 -31v-661q0 -92 23 -172q20 -72 67 -129q41 -51 111 -80q61 -27 150 -27q74 0 126 33q51 31 93 92q39 59 57 127q18 72 18 145v672q0 12 -36 31q-25 12 -109 31v43h422v-43q-78 -18 -107 -31q-39 -18 -39 -31v-631 q0 -123 -32 -233q-31 -102 -92 -174q-63 -74 -146 -109q-90 -39 -194 -39q-98 0 -189 29q-86 27 -149 88q-66 63 -99 147q-35 92 -34 211v711q0 12 -37 31q-25 13 -109 31zM348 1478q4 16 8 27q2 6 5 14t5 14q4 6 6.5 12.5t6.5 14.5l12 25h612l23 -25q-2 -10 -8 -24 q-2 -4 -5.5 -14.5l-5.5 -16.5l-12 -29q-4 -10 -8 -22h-616z" />
<glyph unicode="&#x16b;" horiz-adv-x="1083" d="M41 854v41q45 4 68 8q41 8 61 15l59 18q12 4 34 13t30 12l26 -39v-588q0 -66 11 -117q8 -43 30 -76q16 -25 48 -39q27 -12 65 -12q29 0 66 10q39 10 69 29q35 20 74 53q45 39 84 80v449q0 16 -6 71q-3 28 -19 43q-14 14 -43 21q-20 4 -73 8v41q84 10 139 27q29 8 121 39 l30 -39v-668q0 -47 5 -100q3 -40 18 -50q10 -8 41 -4q20 2 80 27l10 -45q-37 -25 -72 -45q-8 -6 -61 -35q-4 -2 -51 -22q-25 -10 -35 -11q-35 0 -57 47q-20 43 -27 150q-53 -53 -115 -100q-47 -35 -94 -60q-45 -23 -80 -29q-49 -8 -69 -8q-39 0 -91 15q-41 12 -75 47 q-33 33 -52 94q-20 68 -20 154v432q0 57 -2 75q-2 25 -16 39q-12 12 -39 19q-6 2 -72 10zM215 1200q2 10 8 25q2 4 5 14t5 14l13 29q8 16 12 23h612l23 -25q-2 -10 -8 -25q-2 -6 -5.5 -14t-5.5 -14l-12 -29q-4 -10 -8 -22h-616z" />
<glyph unicode="&#x16c;" horiz-adv-x="1337" d="M49 1217v43h451v-43q-78 -18 -107 -31q-39 -18 -39 -31v-661q0 -92 23 -172q20 -72 67 -129q41 -51 111 -80q61 -27 150 -27q74 0 126 33q51 31 93 92q39 59 57 127q18 72 18 145v672q0 12 -36 31q-25 12 -109 31v43h422v-43q-78 -18 -107 -31q-39 -18 -39 -31v-631 q0 -123 -32 -233q-31 -102 -92 -174q-63 -74 -146 -109q-90 -39 -194 -39q-98 0 -189 29q-86 27 -149 88q-66 63 -99 147q-35 92 -34 211v711q0 12 -37 31q-25 13 -109 31zM352 1679q10 16 25 26q16 12 29 19q25 -57 57 -96q33 -37 67 -62q39 -27 74 -35q41 -10 72 -10 q27 0 72 10q37 8 75 35q41 27 70 61.5t55 96.5q18 -9 31 -19q10 -6 23 -26q-31 -80 -68 -135q-41 -61 -78 -90q-43 -35 -88 -50q-49 -16 -88 -16q-47 0 -96 16q-45 14 -88 50q-37 29 -78 90q-33 47 -66 135z" />
<glyph unicode="&#x16d;" horiz-adv-x="1083" d="M41 854v41q45 4 68 8q41 8 61 15l59 18q12 4 34 13t30 12l26 -39v-588q0 -66 11 -117q8 -43 30 -76q16 -25 48 -39q27 -12 65 -12q29 0 66 10q39 10 69 29q35 20 74 53q45 39 84 80v449q0 16 -6 71q-3 28 -19 43q-14 14 -43 21q-20 4 -73 8v41q84 10 139 27q29 8 121 39 l30 -39v-668q0 -47 5 -100q3 -40 18 -50q10 -8 41 -4q20 2 80 27l10 -45q-37 -25 -72 -45q-8 -6 -61 -35q-4 -2 -51 -22q-25 -10 -35 -11q-35 0 -57 47q-20 43 -27 150q-53 -53 -115 -100q-47 -35 -94 -60q-45 -23 -80 -29q-49 -8 -69 -8q-39 0 -91 15q-41 12 -75 47 q-33 33 -52 94q-20 68 -20 154v432q0 57 -2 75q-2 25 -16 39q-12 12 -39 19q-6 2 -72 10zM221 1360q10 16 25 26q16 12 29 19q25 -57 57 -96q33 -37 67 -62q39 -27 74 -35q41 -10 72 -10q27 0 72 10q37 8 75 35q41 27 70 61.5t55 96.5q18 -9 31 -19q10 -6 23 -26 q-31 -80 -68 -135q-41 -61 -78 -90q-43 -35 -88 -50q-49 -16 -88 -16q-47 0 -96 16q-45 14 -88 50q-37 29 -78 90q-33 47 -66 135z" />
<glyph unicode="&#x16e;" horiz-adv-x="1337" d="M49 1217v43h451v-43q-78 -18 -107 -31q-39 -18 -39 -31v-661q0 -92 23 -172q20 -72 67 -129q41 -51 111 -80q61 -27 150 -27q74 0 126 33q51 31 93 92q39 59 57 127q18 72 18 145v672q0 12 -36 31q-25 12 -109 31v43h422v-43q-78 -18 -107 -31q-39 -18 -39 -31v-631 q0 -123 -32 -233q-31 -102 -92 -174q-63 -74 -146 -109q-90 -39 -194 -39q-98 0 -189 29q-86 27 -149 88q-66 63 -99 147q-35 92 -34 211v711q0 12 -37 31q-25 13 -109 31zM492 1523q0 51 18 94t51 76q31 31 70 49q35 16 78 17q33 0 59.5 -12.5t48.5 -34.5q20 -20 32.5 -49 t12.5 -60q0 -51 -18 -94q-16 -39 -51 -74q-31 -31 -70 -49q-35 -16 -78 -16q-34 0 -61 12q-29 12 -49.5 32.5t-32.5 49.5q-10 22 -10 59zM582 1564q0 -25 6 -45q8 -25 16 -37q16 -20 27 -26q16 -10 36.5 -10.5t39.5 6.5q14 6 32 22q15 15 25 37q8 18 8 51q0 23 -6 45 q-8 29 -16 39q-16 20 -27 27q-16 10 -37 10q-23 0 -39 -8t-33 -25q-15 -15 -24 -37q-8 -18 -8 -49z" />
<glyph unicode="&#x16f;" horiz-adv-x="1083" d="M41 854v41q45 4 68 8q41 8 61 15l59 18q12 4 34 13t30 12l26 -39v-588q0 -66 11 -117q8 -43 30 -76q16 -25 48 -39q27 -12 65 -12q29 0 66 10q39 10 69 29q35 20 74 53q45 39 84 80v449q0 16 -6 71q-3 28 -19 43q-14 14 -43 21q-20 4 -73 8v41q84 10 139 27q29 8 121 39 l30 -39v-668q0 -47 5 -100q3 -40 18 -50q10 -8 41 -4q20 2 80 27l10 -45q-37 -25 -72 -45q-8 -6 -61 -35q-4 -2 -51 -22q-25 -10 -35 -11q-35 0 -57 47q-20 43 -27 150q-53 -53 -115 -100q-47 -35 -94 -60q-45 -23 -80 -29q-49 -8 -69 -8q-39 0 -91 15q-41 12 -75 47 q-33 33 -52 94q-20 68 -20 154v432q0 57 -2 75q-2 25 -16 39q-12 12 -39 19q-6 2 -72 10zM361 1204q0 51 18 94t51 76q31 31 70 49q35 16 78 17q33 0 59.5 -12.5t48.5 -34.5q20 -20 32.5 -49t12.5 -60q0 -51 -18 -94q-16 -39 -51 -74q-31 -31 -70 -49q-35 -16 -78 -16 q-34 0 -61 12q-29 12 -49.5 32.5t-32.5 49.5q-10 22 -10 59zM451 1245q0 -25 6 -45q8 -25 16 -37q16 -20 27 -26q16 -10 36.5 -10.5t39.5 6.5q14 6 32 22q15 15 25 37q8 18 8 51q0 23 -6 45q-8 29 -16 39q-16 20 -27 27q-16 10 -37 10q-23 0 -39 -8t-33 -25q-15 -15 -24 -37 q-8 -18 -8 -49z" />
<glyph unicode="&#x170;" horiz-adv-x="1337" d="M49 1217v43h451v-43q-78 -18 -107 -31q-39 -18 -39 -31v-661q0 -92 23 -172q20 -72 67 -129q41 -51 111 -80q61 -27 150 -27q74 0 126 33q51 31 93 92q39 59 57 127q18 72 18 145v672q0 12 -36 31q-25 12 -109 31v43h422v-43q-78 -18 -107 -31q-39 -18 -39 -31v-631 q0 -123 -32 -233q-31 -102 -92 -174q-63 -74 -146 -109q-90 -39 -194 -39q-98 0 -189 29q-86 27 -149 88q-66 63 -99 147q-35 92 -34 211v711q0 12 -37 31q-25 13 -109 31zM457 1392l176 416q4 -2 14.5 -3t14.5 -1q4 -2 16.5 -4t16.5 -2q8 -2 16 -3t16 -3l25 -9l23 -41 l-261 -376q-14 2 -26 10q-2 2 -12.5 7zM750 1392l174 416q12 -2 29 -4q4 -2 16 -4t16 -2q8 -2 16.5 -3t16.5 -3q6 -2 14.5 -5.5t12.5 -3.5l20 -41l-260 -376q-18 2 -28 10q-2 2 -11.5 7t-15.5 9z" />
<glyph unicode="&#x171;" horiz-adv-x="1083" d="M41 854v41q45 4 68 8q41 8 61 15l59 18q12 4 34 13t30 12l26 -39v-588q0 -66 11 -117q8 -43 30 -76q16 -25 48 -39q27 -12 65 -12q29 0 66 10q39 10 69 29q35 20 74 53q45 39 84 80v449q0 16 -6 71q-3 28 -19 43q-14 14 -43 21q-20 4 -73 8v41q84 10 139 27q29 8 121 39 l30 -39v-668q0 -47 5 -100q3 -40 18 -50q10 -8 41 -4q20 2 80 27l10 -45q-37 -25 -72 -45q-8 -6 -61 -35q-4 -2 -51 -22q-25 -10 -35 -11q-35 0 -57 47q-20 43 -27 150q-53 -53 -115 -100q-47 -35 -94 -60q-45 -23 -80 -29q-49 -8 -69 -8q-39 0 -91 15q-41 12 -75 47 q-33 33 -52 94q-20 68 -20 154v432q0 57 -2 75q-2 25 -16 39q-12 12 -39 19q-6 2 -72 10zM323 1073l176 416q4 -2 14.5 -3t14.5 -1q4 -2 16.5 -4t16.5 -2q8 -2 16 -3t16 -3l25 -9l23 -41l-261 -376q-14 2 -26 10q-2 2 -12.5 7zM616 1073l174 416q12 -2 29 -4q4 -2 16 -4 t16 -2q8 -2 16.5 -3t16.5 -3q6 -2 14.5 -5.5t12.5 -3.5l20 -41l-260 -376q-18 2 -28 10q-2 2 -11.5 7t-15.5 9z" />
<glyph unicode="&#x174;" horiz-adv-x="1740" d="M20 1217v43h429v-43q-47 -6 -76 -13q-25 -6 -43 -16q-12 -8 -16.5 -18.5t-0.5 -22.5l199 -897l324 1010h55l354 -1010l187 905q2 12 -9 21q-14 12 -32 16q-22 6 -50 12q-18 4 -63 13v43h424v-43q-70 -14 -74 -17q-10 -4 -24.5 -9l-20.5 -7q-14 -4 -24 -15q-8 -8 -9 -14 l-229 -1096q-6 -23 -21 -36q-18 -18 -38 -27q-29 -12 -43 -16q-33 -10 -37 -11l-326 975l-287 -885q-6 -22 -24 -36q-20 -16 -39 -25q-41 -16 -45 -18l-43 -11l-260 1178q-6 27 -35 41q-33 17 -103 29zM543 1411l264 309h106l262 -309l-18 -27q-6 -9 -25 -18l-272 208 l-272 -208q-4 2 -7.5 5t-5.5 3q-6 4 -10 10l-10 10z" />
<glyph unicode="&#x175;" horiz-adv-x="1445" d="M20 887v43h386v-43q-47 -6 -76 -12.5t-39 -14.5q-12 -8 -12 -16q0 -12 2 -19l188 -635l246 740h69l260 -740l173 635q6 23 -21 37q-18 10 -96 25v43h325v-43q-31 -6 -49 -13q-14 -4 -28 -14q-12 -8 -15 -14q0 -2 -3 -9.5t-5 -11.5l-221 -766q-8 -27 -23 -39 q-20 -16 -39 -24q-33 -14 -41 -16q-6 -2 -18 -5.5t-16 -5.5l-238 678l-205 -588q-10 -25 -24 -39q-18 -18 -37 -26q-14 -6 -39 -14.5t-33 -10.5l-262 856q-11 42 -109 62zM433 1092l264 378h106l262 -378l-18 -27q-6 -9 -25 -18l-272 268l-272 -268q-4 2 -7.5 5t-5.5 3 q-6 4 -10 10l-10 10z" />
<glyph unicode="&#x176;" horiz-adv-x="1216" d="M0 1249q35 6 119 15q57 6 100 6q47 0 78 -39q43 -57 80 -113q39 -57 86 -139q57 -98 84 -150l76 -149l268 471q16 25 -10 41q-25 16 -101 25v43h396v-43q-53 -10 -105 -27q-35 -12 -51 -39l-336 -610v-426q0 -6 8 -14.5t29 -18.5q25 -12 51 -21q29 -8 78 -18v-43h-490v43 q82 16 127 39q37 18 37 33v422q-33 72 -84 170q-31 59 -96 170l-94 155l-28.5 42l-30 44.5t-23.5 32.5q-8 12 -21 20q-20 16 -28 19q-33 10 -45 12q-37 4 -70 4zM287 1411l264 309h106l262 -309l-18 -27q-6 -9 -25 -18l-272 208l-272 -208q-4 2 -7.5 5t-5.5 3q-6 4 -10 10 l-10 10z" />
<glyph unicode="&#x177;" horiz-adv-x="1009" d="M-47 -446q0 4 12 22q14 23 31 41q25 29 37 41q22 22 37 31q49 -27 96 -31q8 -1 15 -1q38 0 69 13q16 6 43 29q14 12 47 53q23 27 49 72q16 27 41 84l29 69l-328 842q-8 27 -35 43q-14 10 -76 25v43h386v-43q-59 -8 -64 -10q-25 -6 -37 -13q-14 -6 -16 -18q-2 -10 4 -27 l246 -637l231 637q6 14 2 24.5t-18 18.5q-12 6 -37 12.5t-62 12.5v43h334v-43q-31 -6 -49 -13q-6 -2 -31 -14q-12 -6 -18 -16q-6 -9 -12 -25l-334 -901q-45 -115 -94 -190q-53 -82 -107 -129q-55 -49 -110.5 -74t-106.5 -25q-49 0 -70 4q-41 8 -55 13q-20 6 -37 18 q-12 10 -12 19zM213 1092l264 378h106l262 -378l-18 -27q-6 -9 -25 -18l-272 268l-272 -268q-4 2 -7.5 5t-5.5 3q-6 4 -10 10l-10 10z" />
<glyph unicode="&#x178;" horiz-adv-x="1216" d="M0 1249q35 6 119 15q57 6 100 6q47 0 78 -39q43 -57 80 -113q39 -57 86 -139q57 -98 84 -150l76 -149l268 471q16 25 -10 41q-25 16 -101 25v43h396v-43q-53 -10 -105 -27q-35 -12 -51 -39l-336 -610v-426q0 -6 8 -14.5t29 -18.5q25 -12 51 -21q29 -8 78 -18v-43h-490v43 q82 16 127 39q37 18 37 33v422q-33 72 -84 170q-31 59 -96 170l-94 155l-28.5 42l-30 44.5t-23.5 32.5q-8 12 -21 20q-20 16 -28 19q-33 10 -45 12q-37 4 -70 4zM303 1499q0 31 8 53q8 20 27 43q18 20 35 29q29 12 45 12q86 0 86 -96q0 -27 -11 -54q-9 -25 -24 -43 q-14 -16 -35 -28.5t-47 -12.5q-43 0 -63.5 27t-20.5 70zM702 1499q0 27 10 53q9 25 25 43q16 20 37 29q29 12 45 12q84 0 84 -96q0 -31 -8 -54q-9 -25 -25 -43q-12 -14 -37 -28q-23 -12 -47 -13q-43 0 -63.5 27t-20.5 70z" />
<glyph unicode="&#x179;" horiz-adv-x="1069" d="M59 45l711 1114h-459q-20 0 -35 -10q-23 -14 -36 -35q-20 -29 -35 -61q-12 -31 -27 -90l-57 12l29 301q41 -8 49 -10q29 -4 45 -4q6 0 22.5 -1t22.5 -1h667l25 -43l-705 -1117h523q23 0 39 9q14 8 32 32q14 18 31 64q18 49 35 102l55 -14q-4 -41 -4 -72v-38.5t-2 -39.5 l-4 -77q0 -12 -1 -35t-1 -31h-891zM377 1411l387 317l11.5 -6t17.5 -10q8 -6 17 -10.5l17.5 -8.5t19.5 -11t13 -9q10 -6 23 -19l8 -45l-469 -243q-18 6 -24 16q-2 2 -9.5 12.5z" />
<glyph unicode="&#x17a;" horiz-adv-x="903" d="M76 45l555 795h-346q-18 0 -32.5 -6.5t-31.5 -22.5q-18 -18 -28 -45q-18 -47 -25 -76l-49 12l18 244l39 -10q25 -4 39 -4q6 0 19.5 -1t21.5 -1h549l22 -43l-557 -797h422q25 0 45 39q27 49 45 129l47 -10q0 -10 -1 -32.5t-1 -35t-1 -36t-1 -33.5q0 -27 -4 -64 q0 -8 -1 -24.5t-3 -22.5h-715zM381 1075l233 414q8 0 33 -4l41 -4q8 -2 20.5 -4t20.5 -4q14 -2 31 -7l22 -39l-344 -380q-16 2 -32 12q-15 8 -25 16z" />
<glyph unicode="&#x17b;" horiz-adv-x="1069" d="M59 45l711 1114h-459q-20 0 -35 -10q-23 -14 -36 -35q-20 -29 -35 -61q-12 -31 -27 -90l-57 12l29 301q41 -8 49 -10q29 -4 45 -4q6 0 22.5 -1t22.5 -1h667l25 -43l-705 -1117h523q23 0 39 9q14 8 32 32q14 18 31 64q18 49 35 102l55 -14q-4 -41 -4 -72v-38.5t-2 -39.5 l-4 -77q0 -12 -1 -35t-1 -31h-891zM455 1499q0 31 8 53q9 25 24 43q16 20 37 29q29 12 45 12q84 0 84 -96q0 -31 -8 -54q-9 -25 -25 -43q-12 -14 -36 -28q-23 -12 -45 -13q-45 0 -66 27q-18 25 -18 70z" />
<glyph unicode="&#x17c;" horiz-adv-x="903" d="M76 45l555 795h-346q-18 0 -32.5 -6.5t-31.5 -22.5q-18 -18 -28 -45q-18 -47 -25 -76l-49 12l18 244l39 -10q25 -4 39 -4q6 0 19.5 -1t21.5 -1h549l22 -43l-557 -797h422q25 0 45 39q27 49 45 129l47 -10q0 -10 -1 -32.5t-1 -35t-1 -36t-1 -33.5q0 -27 -4 -64 q0 -8 -1 -24.5t-3 -22.5h-715zM381 1221q0 31 8 53q9 25 24 43q16 20 37 29q25 10 45 10q84 0 84 -94q0 -31 -8 -54q-9 -25 -24.5 -43t-36.5 -30q-18 -10 -45 -11q-47 0 -65.5 25t-18.5 72z" />
<glyph unicode="&#x17d;" horiz-adv-x="1069" d="M59 45l711 1114h-459q-20 0 -35 -10q-23 -14 -36 -35q-20 -29 -35 -61q-12 -31 -27 -90l-57 12l29 301q41 -8 49 -10q29 -4 45 -4q6 0 22.5 -1t22.5 -1h667l25 -43l-705 -1117h523q23 0 39 9q14 8 32 32q14 18 31 64q18 49 35 102l55 -14q-4 -41 -4 -72v-38.5t-2 -39.5 l-4 -77q0 -12 -1 -35t-1 -31h-891zM238 1697l7 10.5t5 6.5q8 8 10 12t10 8l5 5t8 5l274 -211l270 211q18 -9 25 -18q14 -23 18 -29l-262 -307h-106z" />
<glyph unicode="&#x17e;" horiz-adv-x="903" d="M76 45l555 795h-346q-18 0 -32.5 -6.5t-31.5 -22.5q-18 -18 -28 -45q-18 -47 -25 -76l-49 12l18 244l39 -10q25 -4 39 -4q6 0 19.5 -1t21.5 -1h549l22 -43l-557 -797h422q25 0 45 39q27 49 45 129l47 -10q0 -10 -1 -32.5t-1 -35t-1 -36t-1 -33.5q0 -27 -4 -64 q0 -8 -1 -24.5t-3 -22.5h-715zM162 1427l12 19l10 10q4 6 10 10l13 9l274 -250l270 250q18 -9 25 -19q14 -23 18 -29l-262 -356h-106z" />
<glyph unicode="&#x181;" horiz-adv-x="1355" d="M31 1004q0 68 37 116q45 57 112 92q72 37 176 58q100 20 234 20q61 0 151 -4q31 -2 121 -16q41 -6 96 -27q35 -12 78 -41q45 -31 72 -78t27 -104q0 -111 -52 -186q-53 -78 -139 -111q68 -12 121 -45q55 -33 94 -82q45 -55 64 -109q23 -63 22 -131q0 -88 -33 -153 q-35 -70 -94 -117q-61 -49 -143 -74q-90 -27 -187 -26h-51q-10 0 -31.5 1t-33.5 1q-16 0 -36 1t-38 1q-27 0 -72 4q-92 4 -174 6h-71v43q66 14 106 31q39 14 39 30v1094q-53 -6 -96 -18.5t-72 -32.5q-33 -23 -47 -49q-16 -29 -16 -62q0 -37 18 -63q18 -28 49 -43 q-2 -2 -18 -17q-6 -4 -37 -22q-14 -8 -47 -21q-35 -12 -45 -14q-37 14 -62 53q-22 34 -22 95zM586 104q0 -10 8 -16q14 -4 39 -8l45 -6q14 -2 47 -2q8 0 22.5 -1t20.5 -1q71 0 129 18q59 18 100 51t64 80q20 43 20 103q0 55 -18 112q-18 59 -59 107q-39 45 -105 77 q-61 31 -149 31q-35 0 -88 -4q-27 -2 -76 -10v-531zM586 725h32q111 0 185 23q68 20 110 57q37 31 51.5 80t14.5 86q0 49 -18 92q-18 45 -58 74q-27 20 -51 30q-31 14 -66 23q-37 9 -86 12q-66 4 -114 4v-481z" />
<glyph unicode="&#x186;" horiz-adv-x="1097" d="M61 274q0 41 12.5 80t47.5 78q25 14 47 23l49 20l45 17l41 14l23 -49q-39 -27 -47 -33q-16 -12 -27 -35q-12 -25 -14 -41q-2 -14 -2 -49q0 -37 18 -74q20 -43 51 -69q31 -29 84 -52q43 -18 107 -18q72 0 137 27q61 25 117 94q51 63 81.5 171.5t30.5 262.5q0 139 -37 233 q-39 98 -100 166q-59 66 -135 101t-146 35q-28 0 -61 -7q-23 -4 -74 -22q-53 -18 -92 -41q-57 -33 -111 -70q-4 2 -10 8q-2 2 -5 7.5t-5 7.5q-8 8 -10 12q-4 8 -6 10q70 70 127 109q68 45 112 63q59 23 105 29q66 8 100 8q92 0 184 -41q94 -43 162 -119q74 -82 115 -192 q43 -115 43 -260q0 -160 -43 -289q-45 -135 -119 -223q-80 -96 -178 -146q-102 -51 -227 -51q-94 0 -170 29q-72 27 -123 72q-45 39 -72 100q-25 55 -25 104z" />
<glyph unicode="&#x189;" horiz-adv-x="1212" d="M27 639q6 23 10 33q4 12 12 33h146v483q-12 -2 -38 -5t-38 -5q-20 -2 -38 -5.5t-32 -5.5l-8 64q12 4 102 22q16 4 121 19q86 12 129 14q86 4 125 4q145 0 250 -41q117 -45 193 -121q78 -78 120 -192q41 -109 41 -260q0 -125 -24 -223q-23 -90 -70 -174q-43 -77 -98 -129 q-57 -53 -119 -87q-57 -31 -129 -47q-70 -16 -123 -16h-510v43q66 14 107 31q39 14 39 30v510h-146zM354 154q0 -18 11 -35q14 -16 55 -27q35 -8 117 -8q72 0 143 33q70 31 133 102q59 66 100 172q39 102 39 246q0 137 -32 237q-37 111 -97 181q-61 72 -157 112 q-90 39 -213 39q-33 0 -99 -4v-497h260l25 -23l-25 -68h-260v-460z" />
<glyph unicode="&#x18a;" horiz-adv-x="1443" d="M31 1004q0 76 45 129q47 57 129 90q90 37 198 51q125 16 254 16q80 0 146 -6q78 -8 117 -14q43 -8 96 -27q39 -14 80 -41q76 -49 121 -102q49 -59 79 -125q31 -68 43 -144q14 -90 15 -155q0 -117 -27 -223q-25 -96 -67 -174q-41 -72 -101 -129q-57 -53 -119 -87 q-59 -31 -127 -47q-70 -16 -125 -16h-507v43q66 14 106 31q39 14 39 30v1094q-123 -16 -176 -57q-55 -43 -55 -105q0 -37 18 -63q18 -28 49 -43q-2 -2 -18 -17q-6 -4 -37 -22q-14 -8 -47 -21q-35 -12 -45 -14q-37 14 -62 53q-22 34 -22 95zM586 154q0 -18 10 -35 q14 -18 53 -27q35 -8 119 -8q70 0 141.5 33t134.5 102q59 66 101 172q39 102 39 246q0 59 -10 135q-8 55 -33 127q-20 59 -55 112.5t-82 92.5q-43 31 -76 47q-53 25 -86 33q-35 8 -111 16q-61 6 -145 6v-1052z" />
<glyph unicode="&#x18e;" horiz-adv-x="1015" d="M66 25q0 25 6 67q8 57 14 86l7 40t9 42q10 47 15 57h45q6 -84 6 -88q8 -59 12 -71q8 -29 23 -49q12 -18 30 -19h216q49 0 102 4q40 3 61 12q25 10 29 23q8 20 8 35v491h-211q-6 0 -22.5 -1t-26.5 -1q-18 0 -55 -4l-49 -6l-41 -8l-27 29q8 12 21 28q4 4 12 16.5t12 16.5 q16 20 25 29q14 14 22 20q18 -16 33 -22q23 -8 41 -11q14 -2 51 -2h215v430h-243q-55 0 -78 -4q-37 -6 -57.5 -22.5t-45.5 -52.5q-22 -34 -43 -93l-43 19q4 70 21 151q14 72 20 93h774v-43q-66 -14 -106 -31q-39 -14 -39 -31v-1051q0 -10 37 -28q33 -16 108 -33v-43h-856z " />
<glyph unicode="&#x190;" horiz-adv-x="1040" d="M80 283q0 51 20 112q18 55 51 100.5t76 82.5q39 33 90 57q-92 33 -149 102q-55 68 -55 168q0 86 49 164q51 80 137 133q57 37 137 64q72 25 152 24q109 0 200 -24q90 -25 156 -80q-25 -45 -41 -64l-49 -57l-43 8q-20 18 -61 47q-29 20 -64 33q-45 16 -70 21q-37 6 -81 6 q-55 0 -107 -19q-39 -14 -88 -51q-37 -29 -64 -76q-23 -39 -22 -96q0 -43 14.5 -80t59.5 -72q43 -34 116 -55q70 -20 187 -26v-74q-92 -6 -176 -37q-80 -29 -123 -68q-49 -43 -70 -90q-23 -51 -22 -92q0 -53 24 -100q23 -43 64 -78q37 -31 96 -51q61 -20 119 -21q51 0 90 6 q49 8 84 23q37 16 90 49q29 18 113 86l43 -45q-68 -74 -119 -115q-66 -51 -119 -75q-66 -29 -127 -41q-65 -12 -141 -13q-92 0 -162 31q-76 33 -119 76q-47 47 -71.5 102.5t-24.5 104.5z" />
<glyph unicode="&#x192;" horiz-adv-x="591" d="M-250 -430q0 8 14 22l33 33q14 12 43 33q27 20 35 23l39 -25q27 -12 33 -14q20 -4 33 -4q4 0 16 -1.5t18 -1.5q31 0 56 17q35 23 53 63q20 45 37 127q14 74 14 203v791h-133l-21 28l78 66h76v31q0 113 16 198q14 76 46 137q29 57 63 93q49 49 76 69q18 14 59 39 q20 12 62 29q29 12 59 18q27 6 47 6q29 0 64 -12q39 -14 61.5 -26.5t46.5 -32.5q18 -15 19 -25q0 -10 -15 -24q-20 -20 -35 -33q-10 -8 -41 -31q-25 -18 -36 -23q-25 22 -50 37q-23 14 -47 25q-20 8 -43 16q-18 6 -30 6q-25 0 -55.5 -18t-55.5 -63q-29 -55 -43 -127 q-16 -86 -16 -203v-86h258l28 -29q-2 -2 -22 -29q-16 -20 -27 -30l-15 -14.5l-13 -12.5q-10 -10 -23 -14q-20 12 -66 24q-37 10 -120 11v-738q0 -111 -17 -198q-14 -80 -43 -140q-29 -61 -63 -98q-37 -39 -76 -70q-25 -20 -57 -38q-14 -8 -60 -29q-27 -12 -53 -19 q-25 -6 -45 -6q-35 0 -59 8q-45 14 -52 19q-22 12 -37 24q-14 13 -14 19z" />
<glyph unicode="&#x197;" horiz-adv-x="608" d="M47 639q2 8 6 16.5t6 16.5q2 4 5.5 15t5.5 18h145v450q0 12 -37 31q-25 12 -108 31v43h450v-43q-78 -18 -106 -31q-39 -18 -39 -31v-450h145l25 -23l-25 -68h-145v-510q0 -12 37 -30q25 -12 108 -31v-43h-450v43q66 14 106 31q39 14 39 30v510h-145z" />
<glyph unicode="&#x198;" horiz-adv-x="1261" d="M49 0v43q66 14 107 31q39 14 39 30v1051q0 12 -37 31q-25 12 -109 31v43h451v-43q-78 -18 -107 -31q-39 -18 -39 -31v-508l363 457q63 82 135 125q68 41 147 41q47 0 91 -13q45 -12 73 -38q35 -31 51 -70q18 -43 19 -102q0 -46 -12 -105q-2 -6 -23 -20q-16 -10 -47 -25 q-8 -4 -55 -23q-35 -14 -54 -18l-18 29q14 35 27 78q8 31 8 63q-4 63 -31 94q-29 31 -70 31q-16 0 -40.5 -10.5t-40.5 -24.5q-12 -10 -37 -35q-10 -10 -35 -39l-305 -368l485 -547q14 -16 39 -30.5t43 -16.5q33 -4 49 -4q18 0 51 4l7 -43l-119 -35q-61 -16 -107 -16 q-27 0 -51 10q-23 10 -43 33l-500 610v-535q0 -12 37 -30q29 -14 109 -31v-43h-451z" />
<glyph unicode="&#x199;" horiz-adv-x="1024" d="M55 0v43q72 20 103 31q37 12 37 30v793q0 119 18 205q18 88 49 151q27 57 76 113q43 49 98 92q27 20 64 41q27 14 65 29q25 8 62 16q31 6 51 6q37 0 82 -16q29 -10 74 -39q34 -22 55 -43q20 -20 20 -30.5t-14 -24.5q-20 -20 -35 -33l-41 -33q-18 -12 -37 -20 q-45 51 -100 84q-51 31 -115 30q-31 0 -71 -22q-35 -18 -72 -79.5t-57 -149.5q-23 -100 -23 -238v-406l309 269q33 27 39 47q6 18 -2 26q-9 9 -31 13q-14 2 -49 2v43h379v-43q-57 -8 -82 -17q-35 -12 -78 -45l-342 -272l377 -442q25 -25 29 -27q20 -12 33 -16q18 -6 41 -7 h51l6 -43l-57 -12q-16 -4 -54 -8q-25 -3 -43 -6q-12 -2 -30 -2q-43 0 -67.5 12t-47.5 41l-381 479v-418q0 -6 4 -14q4 -6 14 -12q4 -2 33 -15l60 -20v-43h-400z" />
<glyph unicode="&#x19a;" horiz-adv-x="653" d="M70 762q8 18 10 34.5t12 32.5h160v467q0 45 -6 70q-6 23 -23 37q-20 16 -43 18q-45 4 -67 9v40q104 23 131 31q61 18 123 49l34 -34v-687h160l23 -24l-23 -66h-160v-635q0 -14 35 -30q34 -15 117 -31v-43h-451v43q20 2 72 14l45 15q18 6 25 16q8 12 8 16v635h-160z" />
<glyph unicode="&#x19d;" horiz-adv-x="1327" d="M-246 -299q0 4 15 23q8 10 30 28q29 25 37 29l35 18q6 -4 49 -28q23 -12 39 -19q8 -2 35 -8h35q29 0 55 16q33 20 55.5 59.5t39 121.5t16.5 192v1016q-33 29 -70 45q-41 16 -76 23v43h213q18 0 25 -3q12 -4 18 -10q14 -14 23 -24l8 -11.5t9 -11.5t13 -18l658 -906v879 q0 12 -33 31q-35 18 -113 31v43h410v-43q-70 -8 -109 -29q-37 -18 -36 -33v-1186q-53 6 -78 21q-33 18 -41 30l-701 973v-788q0 -111 -10 -199q-8 -78 -31 -133q-25 -61 -49 -92q-37 -45 -69 -70q-18 -14 -60 -37q-27 -14 -65 -28q-37 -14 -62 -19q-41 -8 -49 -8 q-25 0 -59 10q-29 8 -54 23q-20 12 -38 26q-15 13 -15 23z" />
<glyph unicode="&#x19f;" horiz-adv-x="1228" d="M70 612q0 129 45 258t118 217q77 92 179 148q100 55 221 55q125 0 219 -55q92 -53 158 -143q61 -84 96 -207q33 -113 33 -238q0 -137 -45 -258q-47 -127 -123 -217t-180 -147q-101 -55 -216 -56q-119 0 -215 54q-90 49 -157 143q-66 90 -99 205q-34 120 -34 241zM225 614 q2 -104 35 -202q31 -96 84 -168q51 -70 119 -113q63 -41 141 -41q84 0 150 33q72 37 118 100q55 76 80 164q25 90 29 227h-756zM227 705h752q-8 88 -41 178t-78 149q-49 63 -115 105q-63 39 -141 39q-84 0 -149.5 -33t-114.5 -94.5t-78 -149.5q-29 -90 -35 -194z" />
<glyph unicode="&#x1a0;" horiz-adv-x="1228" d="M70 612q0 129 45 258t118 217q77 92 179 148q100 55 221 55q94 0 167.5 -30.5t135.5 -85.5q55 33 86 73q27 35 27 63.5t-17 55.5q-18 31 -43 49l178 80q25 -25 39.5 -47.5t14.5 -54.5q0 -25 -13 -56q-16 -39 -37 -67q-25 -33 -73 -72q-51 -41 -115 -76q78 -92 117 -217 q39 -123 39 -258q0 -137 -45 -258q-47 -127 -123 -217t-180 -147q-101 -55 -216 -56q-119 0 -215 54q-90 49 -157 143q-66 90 -99 205q-34 120 -34 241zM225 641q0 -113 31 -213q29 -96 82 -174t120.5 -121t145.5 -43t152 35q72 35 121 102q51 70 77 168q29 104 29 234 q0 70 -12 137q-10 57 -35 127q-18 53 -57 113q-33 51 -76 88q-45 39 -92 59q-51 23 -107 23q-86 0 -160 -39q-70 -37 -118 -107q-49 -72 -74 -168q-27 -106 -27 -221z" />
<glyph unicode="&#x1a1;" horiz-adv-x="1099" d="M80 444q0 59 16 129q14 61 47 123t70 105q45 51 92 84t109 55q55 20 121 21q90 0 165 -35q78 -37 129 -92q51 33 76 67q23 31 23 60q0 33 -15 55q-18 31 -43 49l179 80q20 -20 36 -47q14 -23 15 -56q0 -31 -10 -55q-12 -33 -37 -65q-20 -27 -72 -72q-37 -31 -111 -74 q41 -68 60 -133q20 -70 20 -158q0 -74 -16 -131q-20 -68 -47 -121q-29 -55 -74 -106t-92 -84q-53 -37 -107 -53q-66 -20 -118 -21q-95 0 -172 37q-80 39 -131.5 98.5t-83.5 151.5q-29 79 -29 188zM236 473q0 -84 26 -151q27 -66 72 -125.5t92 -85.5q52 -31 98 -31 q70 0 121 26q49 27 84 76q34 49 49 117q16 72 17 156q0 76 -27 151q-23 66 -66 125q-39 53 -94 86t-102 33q-74 0 -127 -29q-51 -27 -84 -80q-29 -45 -45 -118q-14 -64 -14 -150z" />
<glyph unicode="&#x1a9;" horiz-adv-x="1062" d="M59 43l437 592l-416 582v43h674q72 0 104 2q53 4 109 14l4 -301l-56 -12q-18 76 -36 114q-18 41 -35 58q-20 20 -33 22q-10 2 -31 2h-469l342 -485l-397 -535h553q27 0 51 11q20 8 35 32q10 16 29 68q12 33 32 106l54 -12q-4 -45 -6 -88q0 -16 -4.5 -48t-4.5 -48l-8 -90 q-2 -43 -4 -70h-893z" />
<glyph unicode="&#x1aa;" horiz-adv-x="704" d="M31 1282q0 49 22.5 92t65.5 86q37 37 96 63.5t123 26.5q59 0 104 -28q43 -29 72 -78q33 -57 43 -111q12 -61 12 -127q0 -154 -6 -309q-4 -104 -16 -309q-6 -98 -15 -297q-8 -193 -8 -271q0 -119 13 -200q12 -78 34 -131q23 -49 54 -72q33 -23 71 -23q31 0 53.5 14.5 t36.5 35.5q12 18 17 47q2 23 -10 45q-2 2 0 4t7 5t11 7q29 16 47 25q12 6 57 20q28 9 43 6l21 -39q4 -37 -24.5 -84t-75.5 -86q-51 -41 -112.5 -67.5t-133.5 -26.5q-70 0 -119 31q-47 31 -84 92q-33 57 -49 146q-16 92 -16 190t8 303q8 211 14 307q12 201 16 299 q6 147 7 279v18v21q-47 -49 -97 -72q-51 -23 -100 -22q-47 0 -78 14t-57 41q-20 20 -35 59q-12 35 -12 76zM156 1333q0 -31 8 -49t26 -37q15 -15 37 -24q25 -10 41 -11q18 0 43 9q20 6 35 18l31 25l20 26q-31 164 -135 164q-25 0 -41 -8q-18 -10 -35 -29q-12 -14 -22 -39 q-8 -18 -8 -45z" />
<glyph unicode="&#x1af;" horiz-adv-x="1398" d="M49 1217v43h451v-43q-78 -18 -107 -31q-39 -18 -39 -31v-661q0 -92 23 -172q20 -72 67 -129q41 -51 111 -80q61 -27 150 -27q74 0 126 33q51 31 93 92q39 59 57 127q18 72 18 145v672q0 12 -36 31q-25 12 -109 31v43h356q18 27 19 51q0 29 -17 55q-18 31 -43 49l179 80 q25 -25 39 -47.5t14 -54.5q0 -20 -15 -60q-12 -35 -43 -71q-35 -41 -81 -78q-57 -43 -132 -78v-582q0 -123 -32 -233q-31 -102 -92 -174q-63 -74 -146 -109q-90 -39 -194 -39q-98 0 -189 29q-86 27 -149 88q-66 63 -99 147q-35 92 -34 211v711q0 12 -37 31q-25 13 -109 31z " />
<glyph unicode="&#x1b0;" horiz-adv-x="1253" d="M41 854v41q45 4 68 8q41 8 61 15l59 18q12 4 34 13t30 12l26 -39v-588q0 -66 11 -117q8 -43 30 -76q16 -25 48 -39q27 -12 65 -12q29 0 66 10q39 10 69 29q35 20 74 53q45 39 84 80v449q0 16 -6 71q-3 28 -19 43q-14 14 -43 21q-20 4 -73 8v41q84 10 139 27q29 8 121 39 l30 -39v-127q43 20 76 43q27 18 53 45q18 18 28.5 42.5t10.5 35.5q0 29 -16 55q-18 31 -43 49l178 80q25 -25 39 -47.5t14 -55.5q0 -27 -16 -65q-16 -41 -53 -80q-45 -49 -105 -88q-68 -45 -166 -84v-471q0 -47 5 -100q3 -40 18 -50q10 -8 41 -4q20 2 80 27l10 -45 q-37 -25 -72 -45q-8 -6 -61 -35q-4 -2 -51 -22q-25 -10 -35 -11q-35 0 -57 47q-20 43 -27 150q-53 -53 -115 -100q-47 -35 -94 -60q-45 -23 -80 -29q-49 -8 -69 -8q-39 0 -91 15q-41 12 -75 47q-33 33 -52 94q-20 68 -20 154v432q0 57 -2 75q-2 25 -16 39q-12 12 -39 19 q-6 2 -72 10z" />
<glyph unicode="&#x1b3;" horiz-adv-x="1386" d="M0 1249q35 6 119 15q57 6 100 6q47 0 78 -39q43 -57 80 -113q39 -57 86 -139q57 -98 84 -150l76 -149l239 420q14 27 56 86q27 39 63 69q35 29 80 47.5t104 18.5q47 0 88 -18q39 -18 70 -50q29 -29 47 -69q16 -35 16 -82q0 -29 -2 -43q-2 -20 -10 -35q-8 -16 -26 -27 q-31 -18 -52 -26q-12 -6 -57 -21q-6 -2 -13 -4t-11.5 -4t-9.5 -4t-9 -2l-18 29q16 31 24 51q10 27 10 61q0 25 -6 47q-6 20 -18 39q-12 20 -31 29q-16 8 -45 8q-37 0 -68 -31q-37 -37 -55 -73l-305 -555v-426q0 -6 8 -14.5t29 -18.5q25 -12 51 -21q29 -8 78 -18v-43h-490v43 q82 16 127 39q37 18 37 33v422q-33 72 -84 170q-31 59 -96 170l-94 155l-28.5 42l-30 44.5t-23.5 32.5q-8 12 -21 20q-20 16 -28 19q-33 10 -45 12q-37 4 -70 4z" />
<glyph unicode="&#x1b4;" horiz-adv-x="1009" d="M-47 -448.5q0 10.5 10 24.5q16 25 29 39q25 29 37 41q16 16 41 31q41 -27 71 -29q20 -2 53 -2t64 16.5t66 51.5q37 37 61 77q31 53 51 109l25 61l-330 848q-8 27 -35 43q-14 10 -76 25v43h386v-43q-59 -8 -64 -10q-25 -6 -37 -13q-14 -6 -16 -18q-2 -10 4 -27l246 -637 l254 703q37 102 98 196q51 78 110 125q61 49 113 66q55 18 105 18q29 0 59 -6q35 -6 53 -12q14 -4 35 -17q14 -8 14 -18q0 -8 -10 -23q-16 -25 -29 -38l-36 -41q-10 -10 -41 -31q-27 14 -37 18q-12 4 -33 8q-10 2 -31 3h-22q-33 0 -63.5 -16.5t-63.5 -49.5q-31 -31 -60 -78 q-33 -55 -51 -106l-362 -975q-41 -115 -97 -199q-51 -78 -110.5 -125t-114.5 -65.5t-104 -18.5q-18 0 -60 4q-12 2 -51 13q-18 6 -37 16q-14 8 -14 18.5z" />
<glyph unicode="&#x1b7;" horiz-adv-x="1064" d="M94 154q0 6 14.5 22.5t34.5 34.5q29 25 45 35q25 16 45 18q25 -41 54 -67q34 -31 73 -56q41 -25 82 -37q49 -14 84 -14q70 0 119 16q57 18 94 54q43 39 64 92q23 57 22 131q0 70 -18 117q-20 53 -59 98q-37 43 -93 68q-59 27 -120 26q-39 0 -86 -14q-12 -4 -89 -37 l-49 -25l-2 2q-4 4 -16 21q-6 8 -14 20l-3 3l3 2l411 495h-383q-14 0 -33 -12q-16 -10 -36 -39q-18 -25 -35 -64q-16 -37 -25 -81l-57 12l31 301q31 -8 38 -10q25 -4 39 -4q6 0 19.5 -1t21.5 -1h627l25 -43l-349 -431q6 0 16.5 1t16.5 4q10 2 33 2q61 0 124.5 -22.5 t108.5 -68.5q51 -51 76 -112q29 -70 29 -156q0 -104 -41 -192q-37 -80 -109 -146q-66 -59 -155 -94q-86 -33 -185 -33q-80 0 -157 23q-68 20 -125.5 53t-81.5 61q-29 34 -29 48z" />
<glyph unicode="&#x1cd;" horiz-adv-x="1218" d="M0 0v43q70 12 109 25q40 12 49 43l372 1126q16 18 58 45q12 8 32.5 19.5t26.5 15.5l420 -1206q4 -12 14 -25q4 -6 25 -18q12 -8 37 -15q25 -8 55 -10v-43h-422v43q80 6 109 20q31 14 18 48l-115 333h-407l-111 -333q-8 -31 27 -45q31 -12 119 -23v-43h-416zM412 535h346 l-176 514zM281 1697l7 10.5t5 6.5q8 8 10 12t10 8l5 5t8 5l274 -211l270 211q18 -9 25 -18q14 -23 18 -29l-262 -307h-106z" />
<glyph unicode="&#x1ce;" horiz-adv-x="937" d="M80 186q0 76 26 127q29 51 64 88q20 20 55 45q23 16 80 41q43 18 127 39q51 12 191 35v141q0 37 -9 64q-10 31 -26 51q-18 20 -51 33q-29 10 -82 10q-29 0 -64 -10q-31 -8 -53 -29q-27 -23 -37 -43q-10 -23 -8 -53q0 -8 -21 -20q-27 -14 -51 -23q-12 -4 -33.5 -8 t-25.5 -4q-25 -6 -39 -2l-14 39q20 47 69 96q47 47 107 80q61 34 129 55q72 23 131 23q111 0 168 -58q59 -59 59 -162v-563q0 -41 12.5 -59.5t28.5 -18.5q23 0 37 4q33 10 61 23l15 -45q-92 -61 -140 -86q-53 -27 -84 -27q-33 0 -55 47q-20 45 -24 127q-45 -45 -91 -77 q-49 -35 -88 -56q-43 -23 -82 -30q-45 -10 -69 -11q-37 0 -74 12.5t-69 38.5q-25 20 -50 66q-20 39 -20 100zM244 229q0 -41 12 -65q12 -27 29 -39q18 -14 34 -21q12 -4 33 -4q59 0 127 31q63 29 144 96v258q-104 -18 -138 -26q-43 -10 -90 -27q-31 -10 -55 -29 q-33 -23 -39 -30q-27 -31 -41 -62q-16 -37 -16 -82zM162 1427l12 19l10 10q4 6 10 10l13 9l274 -250l270 250q18 -9 25 -19q14 -23 18 -29l-262 -356h-106z" />
<glyph unicode="&#x1cf;" horiz-adv-x="608" d="M70 0v43q66 14 106 31q39 14 39 30v1051q0 12 -37 31q-25 12 -108 31v43h450v-43q-78 -18 -106 -31q-39 -18 -39 -31v-1051q0 -12 37 -30q25 -12 108 -31v-43h-450zM-22 1697l7 10.5t5 6.5q8 8 10 12t10 8l5 5t8 5l274 -211l270 211q18 -9 25 -18q14 -23 18 -29 l-262 -307h-106z" />
<glyph unicode="&#x1d0;" horiz-adv-x="552" d="M70 0v43q68 15 104.5 30.5t36.5 30.5v566q0 61 -2 82q-2 29 -16 49q-10 16 -41 26q-12 4 -82 13v41q49 10 65 14l70 18q23 6 63.5 22.5t57.5 25.5h34v-857q0 -12 33 -30q25 -14 107 -31v-43h-430zM-32 1427l12 19l10 10q4 6 10 10l13 9l274 -250l270 250q18 -9 25 -19 q14 -23 18 -29l-262 -356h-106z" />
<glyph unicode="&#x1d1;" horiz-adv-x="1228" d="M70 612q0 129 45 258t118 217q77 92 179 148q100 55 221 55q125 0 219 -55q92 -53 158 -143q61 -84 96 -207q33 -113 33 -238q0 -137 -45 -258q-47 -127 -123 -217t-180 -147q-101 -55 -216 -56q-119 0 -215 54q-90 49 -157 143q-66 90 -99 205q-34 120 -34 241zM225 641 q0 -113 31 -213q29 -96 82 -174t120.5 -121t145.5 -43t152 35q72 35 121 102q51 70 77 168q29 104 29 234q0 70 -12 137q-10 57 -35 127q-18 53 -57 113q-33 51 -76 88q-45 39 -92 59q-51 23 -107 23q-86 0 -160 -39q-70 -37 -118 -107q-49 -72 -74 -168q-27 -106 -27 -221z M297 1746l12 19l10 10q4 6 10 10l13 9l274 -250l270 250q18 -9 25 -19q14 -23 18 -29l-262 -356h-106z" />
<glyph unicode="&#x1d2;" horiz-adv-x="1028" d="M80 444q0 59 16 129q14 61 47 123t70 105q45 51 92 84t109 55q55 20 121 21q92 0 170 -37q80 -39 131 -98.5t84 -151.5q31 -86 30 -189q0 -74 -16 -131q-20 -68 -47 -121q-29 -55 -74 -106t-92 -84q-53 -37 -107 -53q-66 -20 -118 -21q-95 0 -172 37q-80 39 -131.5 98.5 t-83.5 151.5q-29 79 -29 188zM236 473q0 -84 26 -151q27 -66 72 -125.5t92 -85.5q52 -31 98 -31q70 0 121 26q49 27 84 76q34 49 49 117q16 72 17 156q0 76 -27 151q-23 66 -66 125q-39 53 -94 86t-102 33q-74 0 -127 -29q-51 -27 -84 -80q-29 -45 -45 -118 q-14 -64 -14 -150zM218 1427l12 19l10 10q4 6 10 10l13 9l274 -250l270 250q18 -9 25 -19q14 -23 18 -29l-262 -356h-106z" />
<glyph unicode="&#x1d3;" horiz-adv-x="1337" d="M49 1217v43h451v-43q-78 -18 -107 -31q-39 -18 -39 -31v-661q0 -92 23 -172q20 -72 67 -129q41 -51 111 -80q61 -27 150 -27q74 0 126 33q51 31 93 92q39 59 57 127q18 72 18 145v672q0 12 -36 31q-25 12 -109 31v43h422v-43q-78 -18 -107 -31q-39 -18 -39 -31v-631 q0 -123 -32 -233q-31 -102 -92 -174q-63 -74 -146 -109q-90 -39 -194 -39q-98 0 -189 29q-86 27 -149 88q-66 63 -99 147q-35 92 -34 211v711q0 12 -37 31q-25 13 -109 31zM361 1697l7 10.5t5 6.5q8 8 10 12t10 8l5 5t8 5l274 -211l270 211q18 -9 25 -18q14 -23 18 -29 l-262 -307h-106z" />
<glyph unicode="&#x1d4;" horiz-adv-x="1083" d="M41 854v41q45 4 68 8q41 8 61 15l59 18q12 4 34 13t30 12l26 -39v-588q0 -66 11 -117q8 -43 30 -76q16 -25 48 -39q27 -12 65 -12q29 0 66 10q39 10 69 29q35 20 74 53q45 39 84 80v449q0 16 -6 71q-3 28 -19 43q-14 14 -43 21q-20 4 -73 8v41q84 10 139 27q29 8 121 39 l30 -39v-668q0 -47 5 -100q3 -40 18 -50q10 -8 41 -4q20 2 80 27l10 -45q-37 -25 -72 -45q-8 -6 -61 -35q-4 -2 -51 -22q-25 -10 -35 -11q-35 0 -57 47q-20 43 -27 150q-53 -53 -115 -100q-47 -35 -94 -60q-45 -23 -80 -29q-49 -8 -69 -8q-39 0 -91 15q-41 12 -75 47 q-33 33 -52 94q-20 68 -20 154v432q0 57 -2 75q-2 25 -16 39q-12 12 -39 19q-6 2 -72 10zM228 1427l12 19l10 10q4 6 10 10l13 9l274 -250l270 250q18 -9 25 -19q14 -23 18 -29l-262 -356h-106z" />
<glyph unicode="&#x1d5;" horiz-adv-x="1337" d="M49 1217v43h451v-43q-78 -18 -107 -31q-39 -18 -39 -31v-661q0 -92 23 -172q20 -72 67 -129q41 -51 111 -80q61 -27 150 -27q74 0 126 33q51 31 93 92q39 59 57 127q18 72 18 145v672q0 12 -36 31q-25 12 -109 31v43h422v-43q-78 -18 -107 -31q-39 -18 -39 -31v-631 q0 -123 -32 -233q-31 -102 -92 -174q-63 -74 -146 -109q-90 -39 -194 -39q-98 0 -189 29q-86 27 -149 88q-66 63 -99 147q-35 92 -34 211v711q0 12 -37 31q-25 13 -109 31zM377 1499q0 31 8 53q8 20 27 43q18 20 35 29q29 12 45 12q86 0 86 -96q0 -27 -11 -54 q-9 -25 -24 -43q-14 -16 -35 -28.5t-47 -12.5q-43 0 -63.5 27t-20.5 70zM776 1499q0 27 10 53q9 25 25 43q16 20 37 29q29 12 45 12q84 0 84 -96q0 -31 -8 -54q-9 -25 -25 -43q-12 -14 -37 -28q-23 -12 -47 -13q-43 0 -63.5 27t-20.5 70zM348 1798q4 16 8 27q2 6 5 14t5 14 q4 6 6.5 12.5t6.5 14.5l12 25h612l23 -25q-2 -10 -8 -24q-2 -4 -5.5 -14.5l-5.5 -16.5l-12 -29q-4 -10 -8 -22h-616z" />
<glyph unicode="&#x1d6;" horiz-adv-x="1083" d="M41 854v41q45 4 68 8q41 8 61 15l59 18q12 4 34 13t30 12l26 -39v-588q0 -66 11 -117q8 -43 30 -76q16 -25 48 -39q27 -12 65 -12q29 0 66 10q39 10 69 29q35 20 74 53q45 39 84 80v449q0 16 -6 71q-3 28 -19 43q-14 14 -43 21q-20 4 -73 8v41q84 10 139 27q29 8 121 39 l30 -39v-668q0 -47 5 -100q3 -40 18 -50q10 -8 41 -4q20 2 80 27l10 -45q-37 -25 -72 -45q-8 -6 -61 -35q-4 -2 -51 -22q-25 -10 -35 -11q-35 0 -57 47q-20 43 -27 150q-53 -53 -115 -100q-47 -35 -94 -60q-45 -23 -80 -29q-49 -8 -69 -8q-39 0 -91 15q-41 12 -75 47 q-33 33 -52 94q-20 68 -20 154v432q0 57 -2 75q-2 25 -16 39q-12 12 -39 19q-6 2 -72 10zM246 1221q0 31 8 53q8 20 27 43q18 20 35 29q25 10 45 10q86 0 86 -94q0 -27 -11 -54q-9 -25 -24 -43q-16 -20 -34.5 -30.5t-47.5 -10.5q-45 0 -64 25q-20 27 -20 72zM645 1221 q0 27 10 53q9 25 25 43q16 20 37 29q25 10 45 10q84 0 84 -94q0 -31 -8 -54q-9 -25 -24.5 -43t-37.5 -30q-18 -10 -47 -11q-45 0 -63 25q-21 27 -21 72zM215 1560q2 10 8 25q2 4 5 14t5 14l13 29q8 16 12 23h612l23 -25q-2 -10 -8 -25q-2 -6 -5.5 -14t-5.5 -14l-12 -29 q-4 -10 -8 -22h-616z" />
<glyph unicode="&#x1d7;" horiz-adv-x="1337" d="M49 1217v43h451v-43q-78 -18 -107 -31q-39 -18 -39 -31v-661q0 -92 23 -172q20 -72 67 -129q41 -51 111 -80q61 -27 150 -27q74 0 126 33q51 31 93 92q39 59 57 127q18 72 18 145v672q0 12 -36 31q-25 12 -109 31v43h422v-43q-78 -18 -107 -31q-39 -18 -39 -31v-631 q0 -123 -32 -233q-31 -102 -92 -174q-63 -74 -146 -109q-90 -39 -194 -39q-98 0 -189 29q-86 27 -149 88q-66 63 -99 147q-35 92 -34 211v711q0 12 -37 31q-25 13 -109 31zM377 1499q0 31 8 53q8 20 27 43q18 20 35 29q29 12 45 12q86 0 86 -96q0 -27 -11 -54 q-9 -25 -24 -43q-14 -16 -35 -28.5t-47 -12.5q-43 0 -63.5 27t-20.5 70zM776 1499q0 27 10 53q9 25 25 43q16 20 37 29q29 12 45 12q84 0 84 -96q0 -31 -8 -54q-9 -25 -25 -43q-12 -14 -37 -28q-23 -12 -47 -13q-43 0 -63.5 27t-20.5 70zM500 1731l387 317l11.5 -6t17.5 -10 q8 -6 17 -10.5l17.5 -8.5t19.5 -11t13 -9q10 -6 23 -19l8 -45l-469 -243q-18 6 -24 16q-2 2 -9.5 12.5z" />
<glyph unicode="&#x1d8;" horiz-adv-x="1083" d="M41 854v41q45 4 68 8q41 8 61 15l59 18q12 4 34 13t30 12l26 -39v-588q0 -66 11 -117q8 -43 30 -76q16 -25 48 -39q27 -12 65 -12q29 0 66 10q39 10 69 29q35 20 74 53q45 39 84 80v449q0 16 -6 71q-3 28 -19 43q-14 14 -43 21q-20 4 -73 8v41q84 10 139 27q29 8 121 39 l30 -39v-668q0 -47 5 -100q3 -40 18 -50q10 -8 41 -4q20 2 80 27l10 -45q-37 -25 -72 -45q-8 -6 -61 -35q-4 -2 -51 -22q-25 -10 -35 -11q-35 0 -57 47q-20 43 -27 150q-53 -53 -115 -100q-47 -35 -94 -60q-45 -23 -80 -29q-49 -8 -69 -8q-39 0 -91 15q-41 12 -75 47 q-33 33 -52 94q-20 68 -20 154v432q0 57 -2 75q-2 25 -16 39q-12 12 -39 19q-6 2 -72 10zM246 1221q0 31 8 53q8 20 27 43q18 20 35 29q25 10 45 10q86 0 86 -94q0 -27 -11 -54q-9 -25 -24 -43q-16 -20 -34.5 -30.5t-47.5 -10.5q-45 0 -64 25q-20 27 -20 72zM645 1221 q0 27 10 53q9 25 25 43q16 20 37 29q25 10 45 10q84 0 84 -94q0 -31 -8 -54q-9 -25 -24.5 -43t-37.5 -30q-18 -10 -47 -11q-45 0 -63 25q-21 27 -21 72zM444 1435l233 414q8 0 33 -4l41 -4q8 -2 20.5 -4t20.5 -4q14 -2 31 -7l22 -39l-344 -380q-16 2 -32 12q-15 8 -25 16z " />
<glyph unicode="&#x1d9;" horiz-adv-x="1337" d="M49 1217v43h451v-43q-78 -18 -107 -31q-39 -18 -39 -31v-661q0 -92 23 -172q20 -72 67 -129q41 -51 111 -80q61 -27 150 -27q74 0 126 33q51 31 93 92q39 59 57 127q18 72 18 145v672q0 12 -36 31q-25 12 -109 31v43h422v-43q-78 -18 -107 -31q-39 -18 -39 -31v-631 q0 -123 -32 -233q-31 -102 -92 -174q-63 -74 -146 -109q-90 -39 -194 -39q-98 0 -189 29q-86 27 -149 88q-66 63 -99 147q-35 92 -34 211v711q0 12 -37 31q-25 13 -109 31zM377 1499q0 31 8 53q8 20 27 43q18 20 35 29q29 12 45 12q86 0 86 -96q0 -27 -11 -54 q-9 -25 -24 -43q-14 -16 -35 -28.5t-47 -12.5q-43 0 -63.5 27t-20.5 70zM776 1499q0 27 10 53q9 25 25 43q16 20 37 29q29 12 45 12q84 0 84 -96q0 -31 -8 -54q-9 -25 -25 -43q-12 -14 -37 -28q-23 -12 -47 -13q-43 0 -63.5 27t-20.5 70zM361 2017l7 10.5t5 6.5q8 8 10 12 t10 8l5 5t8 5l274 -211l270 211q18 -9 25 -18q14 -23 18 -29l-262 -307h-106z" />
<glyph unicode="&#x1da;" horiz-adv-x="1083" d="M41 854v41q45 4 68 8q41 8 61 15l59 18q12 4 34 13t30 12l26 -39v-588q0 -66 11 -117q8 -43 30 -76q16 -25 48 -39q27 -12 65 -12q29 0 66 10q39 10 69 29q35 20 74 53q45 39 84 80v449q0 16 -6 71q-3 28 -19 43q-14 14 -43 21q-20 4 -73 8v41q84 10 139 27q29 8 121 39 l30 -39v-668q0 -47 5 -100q3 -40 18 -50q10 -8 41 -4q20 2 80 27l10 -45q-37 -25 -72 -45q-8 -6 -61 -35q-4 -2 -51 -22q-25 -10 -35 -11q-35 0 -57 47q-20 43 -27 150q-53 -53 -115 -100q-47 -35 -94 -60q-45 -23 -80 -29q-49 -8 -69 -8q-39 0 -91 15q-41 12 -75 47 q-33 33 -52 94q-20 68 -20 154v432q0 57 -2 75q-2 25 -16 39q-12 12 -39 19q-6 2 -72 10zM246 1221q0 31 8 53q8 20 27 43q18 20 35 29q25 10 45 10q86 0 86 -94q0 -27 -11 -54q-9 -25 -24 -43q-16 -20 -34.5 -30.5t-47.5 -10.5q-45 0 -64 25q-20 27 -20 72zM645 1221 q0 27 10 53q9 25 25 43q16 20 37 29q25 10 45 10q84 0 84 -94q0 -31 -8 -54q-9 -25 -24.5 -43t-37.5 -30q-18 -10 -47 -11q-45 0 -63 25q-21 27 -21 72zM228 1787l12 19l10 10q4 6 10 10l13 9l274 -250l270 250q18 -9 25 -19q14 -23 18 -29l-262 -356h-106z" />
</font>
</defs>
</svg>
